  0
SECTION
  2
HEADER
  9
$ACADVER
  1
AC1015
  9
$ACADMAINTVER
 70
    20
  9
$DWGCODEPAGE
  3
ANSI_936
  9
$INSBASE
 10
0.0
 20
0.0
 30
0.0
  9
$EXTMIN
 10
83.78163586308206
 20
48.7867505539237
 30
0.0
  9
$EXTMAX
 10
1169.781635863082
 20
1548.786750553923
 30
0.0
  9
$LIMMIN
 10
0.0
 20
0.0
  9
$LIMMAX
 10
12.0
 20
9.0
  9
$ORTHOMODE
 70
     0
  9
$REGENMODE
 70
     1
  9
$FILLMODE
 70
     1
  9
$QTEXTMODE
 70
     0
  9
$MIRRTEXT
 70
     0
  9
$LTSCALE
 40
1.0
  9
$ATTMODE
 70
     1
  9
$TEXTSIZE
 40
0.2
  9
$TRACEWID
 40
0.05
  9
$TEXTSTYLE
  7
Standard
  9
$CLAYER
  8
0
  9
$CELTYPE
  6
ByLayer
  9
$CECOLOR
 62
   256
  9
$CELTSCALE
 40
1.0
  9
$DISPSILH
 70
     0
  9
$DIMSCALE
 40
1.0
  9
$DIMASZ
 40
20.0
  9
$DIMEXO
 40
0.625
  9
$DIMDLI
 40
3.75
  9
$DIMRND
 40
0.0
  9
$DIMDLE
 40
0.0
  9
$DIMEXE
 40
1.25
  9
$DIMTP
 40
0.0
  9
$DIMTM
 40
0.0
  9
$DIMTXT
 40
25.0
  9
$DIMCEN
 40
25.0
  9
$DIMTSZ
 40
0.0
  9
$DIMTOL
 70
     0
  9
$DIMLIM
 70
     0
  9
$DIMTIH
 70
     0
  9
$DIMTOH
 70
     1
  9
$DIMSE1
 70
     0
  9
$DIMSE2
 70
     0
  9
$DIMTAD
 70
     1
  9
$DIMZIN
 70
     8
  9
$DIMBLK
  1

  9
$DIMASO
 70
     1
  9
$DIMSHO
 70
     1
  9
$DIMPOST
  1

  9
$DIMAPOST
  1

  9
$DIMALT
 70
     0
  9
$DIMALTD
 70
     3
  9
$DIMALTF
 40
0.03937007874016
  9
$DIMLFAC
 40
1.0
  9
$DIMTOFL
 70
     1
  9
$DIMTVP
 40
0.0
  9
$DIMTIX
 70
     0
  9
$DIMSOXD
 70
     0
  9
$DIMSAH
 70
     0
  9
$DIMBLK1
  1

  9
$DIMBLK2
  1

  9
$DIMSTYLE
  2
ISO-25
  9
$DIMCLRD
 70
   256
  9
$DIMCLRE
 70
   256
  9
$DIMCLRT
 70
     0
  9
$DIMTFAC
 40
1.0
  9
$DIMGAP
 40
0.625
  9
$DIMJUST
 70
     0
  9
$DIMSD1
 70
     0
  9
$DIMSD2
 70
     0
  9
$DIMTOLJ
 70
     0
  9
$DIMTZIN
 70
     8
  9
$DIMALTZ
 70
     0
  9
$DIMALTTZ
 70
     0
  9
$DIMUPT
 70
     0
  9
$DIMDEC
 70
     2
  9
$DIMTDEC
 70
     2
  9
$DIMALTU
 70
     2
  9
$DIMALTTD
 70
     3
  9
$DIMTXSTY
  7
Standard
  9
$DIMAUNIT
 70
     0
  9
$DIMADEC
 70
     0
  9
$DIMALTRND
 40
0.0
  9
$DIMAZIN
 70
     0
  9
$DIMDSEP
 70
    44
  9
$DIMATFIT
 70
     3
  9
$DIMFRAC
 70
     0
  9
$DIMLDRBLK
  1

  9
$DIMLUNIT
 70
     2
  9
$DIMLWD
 70
     9
  9
$DIMLWE
 70
     9
  9
$DIMTMOVE
 70
     0
  9
$LUNITS
 70
     2
  9
$LUPREC
 70
     4
  9
$SKETCHINC
 40
0.1
  9
$FILLETRAD
 40
0.0
  9
$AUNITS
 70
     0
  9
$AUPREC
 70
     0
  9
$MENU
  1
.
  9
$ELEVATION
 40
0.0
  9
$PELEVATION
 40
0.0
  9
$THICKNESS
 40
0.0
  9
$LIMCHECK
 70
     0
  9
$CHAMFERA
 40
0.0
  9
$CHAMFERB
 40
0.0
  9
$CHAMFERC
 40
0.0
  9
$CHAMFERD
 40
0.0
  9
$SKPOLY
 70
     0
  9
$TDCREATE
 40
2453580.640955035
  9
$TDUCREATE
 40
2453580.307621702
  9
$TDUPDATE
 40
2453658.432236134
  9
$TDUUPDATE
 40
2453658.098902801
  9
$TDINDWG
 40
0.0070453588
  9
$TDUSRTIMER
 40
0.0070451852
  9
$USRTIMER
 70
     1
  9
$ANGBASE
 50
0.0
  9
$ANGDIR
 70
     0
  9
$PDMODE
 70
     0
  9
$PDSIZE
 40
0.0
  9
$PLINEWID
 40
0.0
  9
$SPLFRAME
 70
     0
  9
$SPLINETYPE
 70
     6
  9
$SPLINESEGS
 70
     8
  9
$HANDSEED
  5
404
  9
$SURFTAB1
 70
     6
  9
$SURFTAB2
 70
     6
  9
$SURFTYPE
 70
     6
  9
$SURFU
 70
     6
  9
$SURFV
 70
     6
  9
$UCSBASE
  2

  9
$UCSNAME
  2

  9
$UCSORG
 10
0.0
 20
0.0
 30
0.0
  9
$UCSXDIR
 10
1.0
 20
0.0
 30
0.0
  9
$UCSYDIR
 10
0.0
 20
1.0
 30
0.0
  9
$UCSORTHOREF
  2

  9
$UCSORTHOVIEW
 70
     1
  9
$UCSORGTOP
 10
0.0
 20
0.0
 30
0.0
  9
$UCSORGBOTTOM
 10
0.0
 20
0.0
 30
0.0
  9
$UCSORGLEFT
 10
0.0
 20
0.0
 30
0.0
  9
$UCSORGRIGHT
 10
0.0
 20
0.0
 30
0.0
  9
$UCSORGFRONT
 10
0.0
 20
0.0
 30
0.0
  9
$UCSORGBACK
 10
0.0
 20
0.0
 30
0.0
  9
$PUCSBASE
  2

  9
$PUCSNAME
  2

  9
$PUCSORG
 10
0.0
 20
0.0
 30
0.0
  9
$PUCSXDIR
 10
1.0
 20
0.0
 30
0.0
  9
$PUCSYDIR
 10
0.0
 20
1.0
 30
0.0
  9
$PUCSORTHOREF
  2

  9
$PUCSORTHOVIEW
 70
     0
  9
$PUCSORGTOP
 10
0.0
 20
0.0
 30
0.0
  9
$PUCSORGBOTTOM
 10
0.0
 20
0.0
 30
0.0
  9
$PUCSORGLEFT
 10
0.0
 20
0.0
 30
0.0
  9
$PUCSORGRIGHT
 10
0.0
 20
0.0
 30
0.0
  9
$PUCSORGFRONT
 10
0.0
 20
0.0
 30
0.0
  9
$PUCSORGBACK
 10
0.0
 20
0.0
 30
0.0
  9
$USERI1
 70
     0
  9
$USERI2
 70
     0
  9
$USERI3
 70
     0
  9
$USERI4
 70
     0
  9
$USERI5
 70
     0
  9
$USERR1
 40
0.0
  9
$USERR2
 40
0.0
  9
$USERR3
 40
0.0
  9
$USERR4
 40
0.0
  9
$USERR5
 40
0.0
  9
$WORLDVIEW
 70
     1
  9
$SHADEDGE
 70
     3
  9
$SHADEDIF
 70
    70
  9
$TILEMODE
 70
     1
  9
$MAXACTVP
 70
    64
  9
$PINSBASE
 10
0.0
 20
0.0
 30
0.0
  9
$PLIMCHECK
 70
     0
  9
$PEXTMIN
 10
0.0
 20
0.0
 30
0.0
  9
$PEXTMAX
 10
0.0
 20
0.0
 30
0.0
  9
$PLIMMIN
 10
0.0
 20
0.0
  9
$PLIMMAX
 10
12.0
 20
9.0
  9
$UNITMODE
 70
     0
  9
$VISRETAIN
 70
     1
  9
$PLINEGEN
 70
     0
  9
$PSLTSCALE
 70
     1
  9
$TREEDEPTH
 70
  3020
  9
$CMLSTYLE
  2
Standard
  9
$CMLJUST
 70
     0
  9
$CMLSCALE
 40
1.0
  9
$PROXYGRAPHICS
 70
     1
  9
$MEASUREMENT
 70
     0
  9
$CELWEIGHT
370
    -1
  9
$ENDCAPS
280
     0
  9
$JOINSTYLE
280
     0
  9
$LWDISPLAY
290
     0
  9
$INSUNITS
 70
     1
  9
$HYPERLINKBASE
  1

  9
$STYLESHEET
  1
acad.ctb
  9
$XEDIT
290
     1
  9
$CEPSNTYPE
380
     0
  9
$PSTYLEMODE
290
     1
  9
$FINGERPRINTGUID
  2
{FDEAD576-A652-11D2-9A35-0060089B3A3F}
  9
$VERSIONGUID
  2
{8AEB02E2-DC0D-4F8E-94C1-DD36E671096C}
  9
$EXTNAMES
290
     1
  9
$PSVPSCALE
 40
0.0
  9
$OLESTARTUP
290
     0
  0
ENDSEC
  0
SECTION
  2
CLASSES
  0
CLASS
  1
ACDBDICTIONARYWDFLT
  2
AcDbDictionaryWithDefault
  3
ObjectDBX Classes
 90
        0
280
     0
281
     0
  0
CLASS
  1
ACDBPLACEHOLDER
  2
AcDbPlaceHolder
  3
ObjectDBX Classes
 90
        0
280
     0
281
     0
  0
CLASS
  1
LAYOUT
  2
AcDbLayout
  3
ObjectDBX Classes
 90
        0
280
     0
281
     0
  0
CLASS
  1
DICTIONARYVAR
  2
AcDbDictionaryVar
  3
ObjectDBX Classes
 90
        0
280
     0
281
     0
  0
CLASS
  1
DIMASSOC
  2
AcDbDimAssoc
  3
"AcDbDimAssoc|Product Desc:     AcDim ARX App For Dimension|Company:          Autodesk, Inc.|WEB Address:      www.autodesk.com"
 90
        0
280
     0
281
     0
  0
ENDSEC
  0
SECTION
  2
TABLES
  0
TABLE
  2
VPORT
  5
8
330
0
100
AcDbSymbolTable
 70
     2
  0
VPORT
  5
3FA
330
8
100
AcDbSymbolTableRecord
100
AcDbViewportTableRecord
  2
*Active
 70
     0
 10
0.0
 20
0.0
 11
1.0
 21
1.0
 12
626.1954926469969
 22
802.2116513235214
 13
0.0
 23
0.0
 14
0.5
 24
0.5
 15
0.5
 25
0.5
 16
0.0
 26
0.0
 36
1.0
 17
0.0
 27
0.0
 37
0.0
 40
1549.723931163647
 41
1.720670391061452
 42
50.0
 43
0.0
 44
0.0
 50
0.0
 51
0.0
 71
     0
 72
  1000
 73
     1
 74
     3
 75
     0
 76
     0
 77
     0
 78
     0
281
     0
 65
     1
110
0.0
120
0.0
130
0.0
111
1.0
121
0.0
131
0.0
112
0.0
122
1.0
132
0.0
 79
     1
146
0.0
  0
ENDTAB
  0
TABLE
  2
LTYPE
  5
5
330
0
100
AcDbSymbolTable
 70
     1
  0
LTYPE
  5
14
330
5
100
AcDbSymbolTableRecord
100
AcDbLinetypeTableRecord
  2
ByBlock
 70
     0
  3

 72
    65
 73
     0
 40
0.0
  0
LTYPE
  5
15
330
5
100
AcDbSymbolTableRecord
100
AcDbLinetypeTableRecord
  2
ByLayer
 70
     0
  3

 72
    65
 73
     0
 40
0.0
  0
LTYPE
  5
16
330
5
100
AcDbSymbolTableRecord
100
AcDbLinetypeTableRecord
  2
Continuous
 70
     0
  3
Solid line
 72
    65
 73
     0
 40
0.0
  0
ENDTAB
  0
TABLE
  2
LAYER
  5
2
330
0
100
AcDbSymbolTable
 70
     3
  0
LAYER
  5
10
330
2
100
AcDbSymbolTableRecord
100
AcDbLayerTableRecord
  2
0
 70
     0
 62
     7
  6
Continuous
370
    -3
390
F
  0
LAYER
  5
E3
330
2
100
AcDbSymbolTableRecord
100
AcDbLayerTableRecord
  2
Defpoints
 70
     0
 62
     7
  6
Continuous
290
     0
370
    -3
390
F
  0
LAYER
  5
E4
330
2
100
AcDbSymbolTableRecord
100
AcDbLayerTableRecord
  2
Title Block
 70
     0
 62
     7
  6
Continuous
370
    -3
390
F
  0
ENDTAB
  0
TABLE
  2
STYLE
  5
3
330
0
100
AcDbSymbolTable
 70
     2
  0
STYLE
  5
11
330
3
100
AcDbSymbolTableRecord
100
AcDbTextStyleTableRecord
  2
Standard
 70
     0
 40
0.0
 41
1.0
 50
0.0
 71
     0
 42
0.2
  3
TIMES.TTF
  4

1001
ACAD
1000
Times New Roman
1071
       18
  0
STYLE
  5
E5
330
3
100
AcDbSymbolTableRecord
100
AcDbTextStyleTableRecord
  2
Roman
 70
     0
 40
0.0
 41
1.0
 50
0.0
 71
     0
 42
0.065
  3
romans
  4

  0
ENDTAB
  0
TABLE
  2
VIEW
  5
6
330
0
100
AcDbSymbolTable
 70
     0
  0
ENDTAB
  0
TABLE
  2
UCS
  5
7
330
0
100
AcDbSymbolTable
 70
     0
  0
ENDTAB
  0
TABLE
  2
APPID
  5
9
330
0
100
AcDbSymbolTable
 70
     1
  0
APPID
  5
12
330
9
100
AcDbSymbolTableRecord
100
AcDbRegAppTableRecord
  2
ACAD
 70
     0
  0
ENDTAB
  0
TABLE
  2
DIMSTYLE
  5
A
330
0
100
AcDbSymbolTable
 70
     2
100
AcDbDimStyleTable
 71
     1
340
E6
  0
DIMSTYLE
105
27
330
A
100
AcDbSymbolTableRecord
100
AcDbDimStyleTableRecord
  2
Standard
 70
     0
340
11
  0
DIMSTYLE
105
E6
102
{ACAD_REACTORS
330
1F5
330
1F8
330
202
102
}
330
A
100
AcDbSymbolTableRecord
100
AcDbDimStyleTableRecord
  2
ISO-25
 70
     0
 41
20.0
 42
0.625
 43
3.75
 44
1.25
 73
     0
 77
     1
 78
     8
140
25.0
141
25.0
143
0.03937007874016
147
0.625
171
     3
172
     1
176
   256
177
   256
271
     2
272
     2
274
     3
278
    44
283
     0
284
     8
340
11
371
     9
372
     9
  0
ENDTAB
  0
TABLE
  2
BLOCK_RECORD
  5
1
330
0
100
AcDbSymbolTable
 70
    12
  0
BLOCK_RECORD
  5
1F
330
1
100
AcDbSymbolTableRecord
100
AcDbBlockTableRecord
  2
*Model_Space
340
22
  0
BLOCK_RECORD
  5
58
330
1
100
AcDbSymbolTableRecord
100
AcDbBlockTableRecord
  2
*Paper_Space
340
59
  0
BLOCK_RECORD
  5
5D
330
1
100
AcDbSymbolTableRecord
100
AcDbBlockTableRecord
  2
*Paper_Space0
340
5E
  0
BLOCK_RECORD
  5
24F
330
1
100
AcDbSymbolTableRecord
100
AcDbBlockTableRecord
  2
*D2
340
0
  0
BLOCK_RECORD
  5
288
330
1
100
AcDbSymbolTableRecord
100
AcDbBlockTableRecord
  2
*D6
340
0
  0
BLOCK_RECORD
  5
294
330
1
100
AcDbSymbolTableRecord
100
AcDbBlockTableRecord
  2
*D7
340
0
  0
ENDTAB
  0
ENDSEC
  0
SECTION
  2
BLOCKS
  0
BLOCK
  5
20
330
1F
100
AcDbEntity
  8
0
100
AcDbBlockBegin
  2
*Model_Space
 70
     0
 10
0.0
 20
0.0
 30
0.0
  3
*Model_Space
  1

  0
ENDBLK
  5
21
330
1F
100
AcDbEntity
  8
0
100
AcDbBlockEnd
  0
BLOCK
  5
5A
330
58
100
AcDbEntity
 67
     1
  8
0
100
AcDbBlockBegin
  2
*Paper_Space
 70
     0
 10
0.0
 20
0.0
 30
0.0
  3
*Paper_Space
  1

  0
ENDBLK
  5
5B
330
58
100
AcDbEntity
 67
     1
  8
0
100
AcDbBlockEnd
  0
BLOCK
  5
5F
330
5D
100
AcDbEntity
  8
0
100
AcDbBlockBegin
  2
*Paper_Space0
 70
     0
 10
0.0
 20
0.0
 30
0.0
  3
*Paper_Space0
  1

  0
ENDBLK
  5
60
330
5D
100
AcDbEntity
  8
0
100
AcDbBlockEnd
  0
BLOCK
  5
259
330
24F
100
AcDbEntity
  8
0
100
AcDbBlockBegin
  2
*D2
 70
     1
 10
0.0
 20
0.0
 30
0.0
  3
*D2
  1

  0
LINE
  5
30E
330
24F
100
AcDbEntity
  8
0
370
     9
100
AcDbLine
 10
835.619579142401
 20
1251.180567822982
 30
0.0
 11
909.143305800147
 21
1251.180567822982
 31
0.0
  0
LINE
  5
30F
330
24F
100
AcDbEntity
  8
0
370
     9
100
AcDbLine
 10
782.9511566584929
 20
1070.839222331007
 30
0.0
 11
909.143305800147
 21
1070.839222331007
 31
0.0
  0
LINE
  5
310
330
24F
100
AcDbEntity
  8
0
370
     9
100
AcDbLine
 10
907.8933058001471
 20
1231.180567822982
 30
0.0
 11
907.8933058001471
 21
1090.839222331007
 31
0.0
  0
SOLID
  5
311
330
24F
100
AcDbEntity
  8
0
100
AcDbTrace
 10
904.5599724668138
 20
1231.180567822982
 30
0.0
 11
911.2266391334804
 21
1231.180567822982
 31
0.0
 12
907.8933058001471
 22
1251.180567822982
 32
0.0
 13
907.8933058001471
 23
1251.180567822982
 33
0.0
  0
SOLID
  5
312
330
24F
100
AcDbEntity
  8
0
100
AcDbTrace
 10
904.5599724668138
 20
1090.839222331007
 30
0.0
 11
911.2266391334804
 21
1090.839222331007
 31
0.0
 12
907.8933058001471
 22
1070.839222331007
 32
0.0
 13
907.8933058001471
 23
1070.839222331007
 33
0.0
  0
MTEXT
  5
313
330
24F
100
AcDbEntity
  8
0
 62
     0
100
AcDbMText
 10
890.5055083956769
 20
1161.009895076995
 30
0.0
 40
25.0
 41
0.0
 71
     5
 72
     1
  1
178(7")
 11
0.0000000000000001
 21
1.0
 31
0.0
 73
     1
 44
1.0
1001
ACAD
1000
MTEXTBEGIN
1070
    73
1070
     1
1070
    44
1040
1.0
1070
    74
1070
     0
1000
MTEXTEND
  0
POINT
  5
314
330
24F
100
AcDbEntity
  8
Defpoints
 62
     0
100
AcDbPoint
 10
834.994579142401
 20
1251.180567822982
 30
0.0
  0
POINT
  5
315
330
24F
100
AcDbEntity
  8
Defpoints
 62
     0
100
AcDbPoint
 10
782.3261566584928
 20
1070.839222331007
 30
0.0
  0
POINT
  5
316
330
24F
100
AcDbEntity
  8
Defpoints
 62
     0
100
AcDbPoint
 10
907.8933058001471
 20
1070.839222331007
 30
0.0
  0
ENDBLK
  5
25A
330
24F
100
AcDbEntity
  8
0
100
AcDbBlockEnd
  0
BLOCK
  5
292
330
288
100
AcDbEntity
  8
0
100
AcDbBlockBegin
  2
*D6
 70
     1
 10
0.0
 20
0.0
 30
0.0
  3
*D6
  1

  0
LINE
  5
332
330
288
100
AcDbEntity
  8
0
370
     9
100
AcDbLine
 10
1045.116673094885
 20
448.4738709771254
 30
0.0
 11
824.8359412996435
 21
448.4738709771254
 31
0.0
  0
LINE
  5
333
330
288
100
AcDbEntity
  8
0
370
     9
100
AcDbLine
 10
824.8359412996435
 20
448.4738709771254
 30
0.0
 11
777.8200897314149
 21
499.8575116254672
 31
0.0
  0
LINE
  5
334
330
288
100
AcDbEntity
  8
0
370
     9
100
AcDbLine
 10
457.1690685533874
 20
850.2971249934308
 30
0.0
 11
443.6679729248389
 21
865.0524771352397
 31
0.0
  0
MTEXT
  5
335
330
288
100
AcDbEntity
  8
0
 62
     0
100
AcDbMText
 10
950.4609412996433
 20
465.8616683815954
 30
0.0
 40
25.0
 41
0.0
 71
     5
 72
     1
  1
435(17-1/8")
 73
     1
 44
1.0
1001
ACAD
1000
MTEXTBEGIN
1070
    73
1070
     1
1070
    44
1040
1.0
1070
    74
1070
     0
1000
MTEXTEND
  0
LINE
  5
336
330
288
100
AcDbEntity
  8
0
370
     9
100
AcDbLine
 10
470.670164181936
 20
835.5417728516217
 30
0.0
 11
764.3189941028664
 21
514.6128637672761
 31
0.0
  0
SOLID
  5
337
330
288
100
AcDbEntity
  8
0
100
AcDbTrace
 10
459.6282939103556
 20
852.5473075981889
 30
0.0
 11
454.7098431964193
 21
848.0469423886725
 31
0.0
 12
470.670164181936
 22
835.5417728516217
 32
0.0
 13
470.670164181936
 23
835.5417728516217
 33
0.0
  0
SOLID
  5
338
330
288
100
AcDbEntity
  8
0
100
AcDbTrace
 10
780.2793150883831
 20
502.1076942302253
 30
0.0
 11
775.3608643744468
 21
497.607329020709
 31
0.0
 12
764.3189941028664
 22
514.6128637672761
 32
0.0
 13
764.3189941028664
 23
514.6128637672761
 33
0.0
  0
POINT
  5
339
330
288
100
AcDbEntity
  8
Defpoints
 62
     0
100
AcDbPoint
 10
764.3189941028664
 20
514.6128637672761
 30
0.0
  0
POINT
  5
33A
330
288
100
AcDbEntity
  8
Defpoints
 62
     0
100
AcDbPoint
 10
470.670164181936
 20
835.5417728516217
 30
0.0
  0
ENDBLK
  5
293
330
288
100
AcDbEntity
  8
0
100
AcDbBlockEnd
  0
BLOCK
  5
29E
330
294
100
AcDbEntity
  8
0
100
AcDbBlockBegin
  2
*D7
 70
     1
 10
0.0
 20
0.0
 30
0.0
  3
*D7
  1

  0
LINE
  5
33B
330
294
100
AcDbEntity
  8
0
370
     9
100
AcDbLine
 10
1056.497432229326
 20
505.4253897313556
 30
0.0
 11
836.6763255242078
 21
505.4253897313556
 31
0.0
  0
LINE
  5
33C
330
294
100
AcDbEntity
  8
0
370
     9
100
AcDbLine
 10
836.6763255242078
 20
505.4253897313556
 30
0.0
 11
785.5371588766209
 21
545.0083312438599
 31
0.0
  0
LINE
  5
33D
330
294
100
AcDbEntity
  8
0
370
     9
100
AcDbLine
 10
449.4519994081803
 20
805.146305375039
 30
0.0
 11
433.6362271979008
 21
817.3880923929768
 31
0.0
  0
MTEXT
  5
33E
330
294
100
AcDbEntity
  8
0
 62
     0
100
AcDbMText
 10
962.3013255242076
 20
522.8131871358256
 30
0.0
 40
25.0
 41
0.0
 71
     5
 72
     1
  1
385(15-1/8")
 73
     1
 44
1.0
1001
ACAD
1000
MTEXTBEGIN
1070
    73
1070
     1
1070
    44
1040
1.0
1070
    74
1070
     0
1000
MTEXTEND
  0
LINE
  5
33F
330
294
100
AcDbEntity
  8
0
370
     9
100
AcDbLine
 10
465.2677716184598
 20
792.9045183571013
 30
0.0
 11
769.7213866663414
 21
557.2501182617977
 31
0.0
  0
SOLID
  5
340
330
294
100
AcDbEntity
  8
0
100
AcDbTrace
 10
451.4922972445033
 20
807.7822674100858
 30
0.0
 11
447.4117015718574
 21
802.5103433399925
 31
0.0
 12
465.2677716184598
 22
792.9045183571013
 32
0.0
 13
465.2677716184598
 23
792.9045183571013
 33
0.0
  0
SOLID
  5
341
330
294
100
AcDbEntity
  8
0
100
AcDbTrace
 10
787.577456712944
 20
547.6442932789066
 30
0.0
 11
783.4968610402979
 21
542.3723692088134
 31
0.0
 12
769.7213866663414
 22
557.2501182617977
 32
0.0
 13
769.7213866663414
 23
557.2501182617977
 33
0.0
  0
POINT
  5
342
330
294
100
AcDbEntity
  8
Defpoints
 62
     0
100
AcDbPoint
 10
769.7213866663414
 20
557.2501182617977
 30
0.0
  0
POINT
  5
343
330
294
100
AcDbEntity
  8
Defpoints
 62
     0
100
AcDbPoint
 10
465.2677716184598
 20
792.9045183571013
 30
0.0
  0
ENDBLK
  5
29F
330
294
100
AcDbEntity
  8
0
100
AcDbBlockEnd
  0
ENDSEC
  0
SECTION
  2
ENTITIES
  0
MTEXT
  5
19D
330
1F
100
AcDbEntity
  8
0
100
AcDbMText
 10
565.4877342221566
 20
540.3642027659864
 30
0.0
 40
20.0
 41
47.82170947254053
 71
     1
 72
     5
  1
Y385P
 73
     1
 44
1.0
1001
ACAD
1000
MTEXTBEGIN
1070
    73
1070
     1
1070
    44
1040
1.0
1070
    74
1070
     0
1000
MTEXTEND
  0
MTEXT
  5
1F3
330
1F
100
AcDbEntity
  8
0
100
AcDbMText
 10
827.3361428258317
 20
483.1340703189376
 30
0.0
 40
25.0
 41
26.95176970685102
 71
     1
 72
     5
  1
%%C
 11
0.9893766615470569
 21
-0.1453747625483876
 31
0.0
 73
     1
 44
1.0
1001
ACAD
1000
MTEXTBEGIN
1070
    73
1070
     1
1070
    44
1040
1.0
1070
    74
1070
     0
1000
MTEXTEND
  0
MTEXT
  5
1F4
330
1F
100
AcDbEntity
  8
0
100
AcDbMText
 10
838.6854929544892
 20
541.4499648070637
 30
0.0
 40
25.0
 41
26.95176970685102
 71
     1
 72
     5
  1
%%C
 11
0.9893766615470569
 21
-0.1453747625483876
 31
0.0
 73
     1
 44
1.0
1001
ACAD
1000
MTEXTBEGIN
1070
    73
1070
     1
1070
    44
1040
1.0
1070
    74
1070
     0
1000
MTEXTEND
  0
DIMENSION
  5
1F5
102
{ACAD_XDICTIONARY
360
1F6
102
}
102
{ACAD_REACTORS
330
1F7
102
}
330
1F
100
AcDbEntity
  8
0
100
AcDbDimension
  2
*D6
 10
470.670164181936
 20
835.5417728516217
 30
0.0
 11
950.4609412996433
 21
448.4738709771254
 31
0.0
 70
   163
  1
435(17-1/8")
 71
     5
 42
434.9999999999996
  3
ISO-25
100
AcDbDiametricDimension
 15
764.3189941028664
 25
514.6128637672761
 35
0.0
 40
0.0
1001
ACAD
1000
DSTYLE
1002
{
1070
   288
1070
     1
1002
}
  0
DIMENSION
  5
1F8
102
{ACAD_XDICTIONARY
360
1F9
102
}
102
{ACAD_REACTORS
330
1FA
102
}
330
1F
100
AcDbEntity
  8
0
100
AcDbDimension
  2
*D7
 10
465.2677716184598
 20
792.9045183571013
 30
0.0
 11
962.3013255242076
 21
505.4253897313556
 31
0.0
 70
   163
  1
385(15-1/8")
 71
     5
 42
385.0000000000014
  3
ISO-25
100
AcDbDiametricDimension
 15
769.7213866663414
 25
557.2501182617977
 35
0.0
 40
0.0
1001
ACAD
1000
DSTYLE
1002
{
1070
   288
1070
     1
1002
}
  0
REGION
  5
1FB
102
{ACAD_REACTORS
330
1FA
102
}
330
1F
100
AcDbEntity
  8
0
370
    50
100
AcDbModelerGeometry
 70
     1
  1
koo nn n o          
  1
ni ^ *+0;:,4 ^ *+0\^ [ nh ^ LR iqoqmqhoml QK mk Y-6 P<+ nk noemmemj mooj 
  1
n fqfffffffffffffffj:rooh n:rono 
  1
=0;& {rn {n {rn {rn |
  1
3*2/ {rn {rn {m {o |
  1
,7:33 {rn {rn {rn {l {rn {n |
  1
9><: {rn {rn {k {m {rn {j 90-(>-; ;0*=3: 0*+ |
  1
300/ {rn {rn {i {l |
  1
/3>1:r,*-9><: {rn inhqkfkjhfnkmkonnn ihjqohhlnglofkkfog o o o n n o o 90-(>-;@) V V V V |
  1
<0:;8: {rn {i {i {rn {h 90-(>-; {k {rn |
  1
:;8: {rn {g {g {i {f 90-(>-; |
  1
):-+:' {rn {h {no |
  1
:336/,:r<*-): {rn inhqkfkjhfnkmkonnn ihjqohhlnglofkkfog o o o n nfmqj o o n V V |
  1
/061+ {rn gofqffkjhfnkmkonnn ihjqohhlnglofkkfog o |
  0
CIRCLE
  5
1FC
102
{ACAD_REACTORS
330
1F7
102
}
330
1F
100
AcDbEntity
  8
0
370
    50
100
AcDbCircle
 10
617.494579142401
 20
675.0773183094491
 30
0.0
 40
217.5
  0
CIRCLE
  5
1FD
330
1F
100
AcDbEntity
  8
0
100
AcDbCircle
 10
617.494579142401
 20
675.0773183094491
 30
0.0
 40
61.0
  0
CIRCLE
  5
1FE
330
1F
100
AcDbEntity
  8
0
100
AcDbCircle
 10
617.494579142401
 20
675.0773183094491
 30
0.0
 40
45.0
  0
CIRCLE
  5
1FF
330
1F
100
AcDbEntity
  8
0
100
AcDbCircle
 10
617.494579142401
 20
675.0773183094491
 30
0.0
 40
57.5
  0
LINE
  5
200
330
1F
100
AcDbEntity
  8
0
370
    50
100
AcDbLine
 10
812.9945791424011
 20
1251.180567822982
 30
0.0
 11
834.994579142401
 21
1251.180567822982
 31
0.0
  0
ARC
  5
201
330
1F
100
AcDbEntity
  8
0
370
    50
100
AcDbCircle
 10
812.9945791424011
 20
1248.180567822982
 30
0.0
 40
3.0
100
AcDbArc
 50
90.0
 51
180.0
  0
DIMENSION
  5
202
330
1F
100
AcDbEntity
  8
0
 62
     7
100
AcDbDimension
  2
*D2
 10
907.8933058001471
 20
1070.839222331007
 30
0.0
 11
890.5055083956769
 21
1161.009895076995
 31
0.0
 70
    32
  1
178(7")
 71
     5
 42
180.3413454919753
  3
ISO-25
100
AcDbAlignedDimension
 13
834.994579142401
 23
1251.180567822982
 33
0.0
 14
782.3261566584928
 24
1070.839222331007
 34
0.0
 50
90.0
100
AcDbRotatedDimension
1001
ACAD
1000
DSTYLE
1002
{
1070
   271
1070
     0
1002
}
  0
LINE
  5
203
330
1F
100
AcDbEntity
  8
0
370
    50
100
AcDbLine
 10
399.9945791424011
 20
1251.180567822982
 30
0.0
 11
421.994579142401
 21
1251.180567822982
 31
0.0
  0
ARC
  5
204
330
1F
100
AcDbEntity
  8
0
370
    50
100
AcDbCircle
 10
421.994579142401
 20
1248.180567822982
 30
0.0
 40
3.0
100
AcDbArc
 50
0.0
 51
90.0
  0
LINE
  5
205
330
1F
100
AcDbEntity
  8
0
100
AcDbLine
 10
421.994579142401
 20
1251.180567822982
 30
0.0
 11
812.9945791424011
 21
1251.180567822982
 31
0.0
  0
LINE
  5
206
330
1F
100
AcDbEntity
  8
0
370
    50
100
AcDbLine
 10
424.994579142401
 20
1248.180567822982
 30
0.0
 11
424.994579142401
 21
1115.111598735826
 31
0.0
  0
ARC
  5
207
330
1F
100
AcDbEntity
  8
0
370
    50
100
AcDbCircle
 10
464.994579142401
 20
1115.111598735826
 30
0.0
 40
40.0
100
AcDbArc
 50
180.0
 51
267.046798504322
  0
LINE
  5
208
330
1F
100
AcDbEntity
  8
0
370
    50
100
AcDbLine
 10
675.7516821964741
 20
1067.620306247367
 30
0.0
 11
667.7516821964741
 21
1067.620306247367
 31
0.0
  0
LINE
  5
209
330
1F
100
AcDbEntity
  8
0
370
    50
100
AcDbLine
 10
678.4945791424011
 20
1071.800798604019
 30
0.0
 11
675.7516821964741
 21
1067.620306247367
 31
0.0
  0
ARC
  5
20A
330
1F
100
AcDbEntity
  8
0
370
    50
100
AcDbCircle
 10
617.494579142401
 20
4071.180567822983
 30
0.0
 40
3000.0
100
AcDbArc
 50
271.1650944764556
 51
272.953201495678
  0
ARC
  5
20B
330
1F
100
AcDbEntity
  8
0
370
    50
100
AcDbCircle
 10
617.494579142401
 20
4071.180567822983
 30
0.0
 40
3000.0
100
AcDbArc
 50
267.046798504322
 51
268.8349055235444
  0
LINE
  5
20C
330
1F
100
AcDbEntity
  8
0
370
    50
100
AcDbLine
 10
556.4945791424011
 20
1071.800798604019
 30
0.0
 11
559.2374760883281
 21
1067.620306247367
 31
0.0
  0
LINE
  5
20D
330
1F
100
AcDbEntity
  8
0
370
    50
100
AcDbLine
 10
559.2374760883281
 20
1067.620306247367
 30
0.0
 11
567.2374760883281
 21
1067.620306247367
 31
0.0
  0
LINE
  5
20E
330
1F
100
AcDbEntity
  8
0
100
AcDbLine
 10
556.4945791424011
 20
1071.800798604019
 30
0.0
 11
678.4945791423983
 21
1071.800798604019
 31
0.0
  0
LINE
  5
20F
330
1F
100
AcDbEntity
  8
0
100
AcDbLine
 10
567.2374760883281
 20
1067.620306247367
 30
0.0
 11
667.7516821964741
 21
1067.620306247367
 31
0.0
  0
ARC
  5
210
330
1F
100
AcDbEntity
  8
0
370
    50
100
AcDbCircle
 10
769.9945791424011
 20
1115.111598735826
 30
0.0
 40
40.0
100
AcDbArc
 50
272.953201495678
 51
0.0
  0
LINE
  5
211
330
1F
100
AcDbEntity
  8
0
370
    50
100
AcDbLine
 10
809.994579142401
 20
1115.111598735826
 30
0.0
 11
809.994579142401
 21
1248.180567822982
 31
0.0
  0
MTEXT
  5
212
330
1F
100
AcDbEntity
  8
0
100
AcDbMText
 10
849.3010177418341
 20
1506.366255557235
 30
0.0
 40
20.0
 41
144.5691098365569
 71
     1
 72
     5
  1
{\fSimSun|b0|i0|c134|p54;日 期}
 73
     1
 44
1.0
1001
ACAD
1000
MTEXTBEGIN
1070
    73
1070
     1
1070
    44
1040
1.0
1070
    74
1070
     0
1000
MTEXTEND
  0
LINE
  5
213
330
1F
100
AcDbEntity
  8
Title Block
100
AcDbLine
 10
838.544301748459
 20
1473.786750553923
 30
0.0
 11
838.544301748459
 21
1511.286750553924
 31
0.0
  0
LINE
  5
214
330
1F
100
AcDbEntity
  8
Title Block
100
AcDbLine
 10
928.3853994459001
 20
1473.786750553923
 30
0.0
 11
928.3853994459001
 21
1511.286750553924
 31
0.0
  0
MTEXT
  5
216
330
1F
100
AcDbEntity
  8
0
100
AcDbMText
 10
939.6154688472902
 20
1503.450812553934
 30
0.0
 40
15.0
 41
246.5161472592154
 71
     1
 72
     5
  1
   {\fSimSun|b0|i0|c134|p18;2005 \fSimSun|b0|i0|c134|p54;年 01 月 01 日}
 73
     1
 44
1.0
1001
ACAD
1000
MTEXTBEGIN
1070
    73
1070
     1
1070
    44
1040
1.0
1070
    74
1070
     0
1000
MTEXTEND
  0
MTEXT
  5
217
330
1F
100
AcDbEntity
  8
0
100
AcDbMText
 10
384.1817535961249
 20
1506.366255557235
 30
0.0
 40
20.0
 41
144.5691098365569
 71
     1
 72
     5
  1
{\fSimSun|b0|i0|c134|p54;设 计}
 73
     1
 44
1.0
1001
ACAD
1000
MTEXTBEGIN
1070
    73
1070
     1
1070
    44
1040
1.0
1070
    74
1070
     0
1000
MTEXTEND
  0
LINE
  5
219
330
1F
100
AcDbEntity
  8
Title Block
100
AcDbLine
 10
344.7816358630821
 20
1473.786750553923
 30
0.0
 11
1169.781635863082
 21
1473.786750553923
 31
0.0
  0
LINE
  5
21A
330
1F
100
AcDbEntity
  8
Title Block
100
AcDbLine
 10
344.7816358630821
 20
1511.286750553924
 30
0.0
 11
1169.781635863082
 21
1511.286750553924
 31
0.0
  0
LINE
  5
21B
330
1F
100
AcDbEntity
  8
Title Block
100
AcDbLine
 10
1169.781635863082
 20
1548.786750553923
 30
0.0
 11
83.78163586308206
 21
1548.786750553923
 31
0.0
  0
LINE
  5
21F
330
1F
100
AcDbEntity
  8
Title Block
100
AcDbLine
 10
344.7816358630821
 20
1548.786750553923
 30
0.0
 11
344.7816358630821
 21
1440.180548612529
 31
0.0
  0
LINE
  5
221
330
1F
100
AcDbEntity
  8
Title Block
100
AcDbLine
 10
489.3507456996389
 20
1473.786750553923
 30
0.0
 11
489.3507456996389
 21
1511.286750553924
 31
0.0
  0
MTEXT
  5
222
330
1F
100
AcDbEntity
  8
0
100
AcDbMText
 10
538.0238833288399
 20
1509.277927424113
 30
0.0
 40
30.0
 41
349.19355604882
 71
     1
 72
     5
  1
Ben
 73
     1
 44
1.0
1001
ACAD
1000
MTEXTBEGIN
1070
    73
1070
     1
1070
    44
1040
1.0
1070
    74
1070
     0
1000
MTEXTEND
  0
MTEXT
  5
223
330
1F
100
AcDbEntity
  8
0
100
AcDbMText
 10
639.9263997197281
 20
207.4439820766732
 30
0.0
 40
20.0
 41
468.75
 71
     1
 72
     5
  1
1.0mm SUS304 STAINLESS STEEl
 73
     1
 44
1.0
1001
ACAD
1000
MTEXTBEGIN
1070
    73
1070
     1
1070
    44
1040
1.0
1070
    74
1070
     0
1000
MTEXTEND
  0
MTEXT
  5
224
330
1F
100
AcDbEntity
  8
0
100
AcDbMText
 10
702.9436021189845
 20
167.7078652086405
 30
0.0
 40
45.0
 41
318.75
 71
     1
 72
     5
  1
8 6 6
 73
     1
 44
1.0
1001
ACAD
1000
MTEXTBEGIN
1070
    73
1070
     1
1070
    44
1040
1.0
1070
    74
1070
     0
1000
MTEXTEND
  0
MTEXT
  5
225
330
1F
100
AcDbEntity
  8
0
100
AcDbMText
 10
1015.706226294687
 20
75.65591485658143
 30
0.0
 40
15.0
 41
187.1342842590093
 71
     1
 72
     5
  1
   {\fSimSun|b0|i0|c134|p54;年   月   日}
 73
     1
 44
1.0
1001
ACAD
1000
MTEXTBEGIN
1070
    73
1070
     1
1070
    44
1040
1.0
1070
    74
1070
     0
1000
MTEXTEND
  0
MTEXT
  5
226
330
1F
100
AcDbEntity
  8
0
100
AcDbMText
 10
1015.706226294687
 20
108.6845268055788
 30
0.0
 40
15.0
 41
187.1342842590093
 71
     1
 72
     5
  1
   {\fSimSun|b0|i0|c134|p54;年   月   日}
 73
     1
 44
1.0
1001
ACAD
1000
MTEXTBEGIN
1070
    73
1070
     1
1070
    44
1040
1.0
1070
    74
1070
     0
1000
MTEXTEND
  0
MTEXT
  5
227
330
1F
100
AcDbEntity
  8
0
100
AcDbMText
 10
890.6221645557392
 20
78.12012360647196
 30
0.0
 40
20.0
 41
144.5691098365569
 71
     1
 72
     5
  1
{\fSimSun|b0|i0|c134|p54;日 期}
 73
     1
 44
1.0
1001
ACAD
1000
MTEXTBEGIN
1070
    73
1070
     1
1070
    44
1040
1.0
1070
    74
1070
     0
1000
MTEXTEND
  0
MTEXT
  5
228
330
1F
100
AcDbEntity
  8
0
100
AcDbMText
 10
890.6221645557392
 20
111.5535364297268
 30
0.0
 40
20.0
 41
144.5691098365569
 71
     1
 72
     5
  1
{\fSimSun|b0|i0|c134|p54;日 期}
 73
     1
 44
1.0
1001
ACAD
1000
MTEXTBEGIN
1070
    73
1070
     1
1070
    44
1040
1.0
1070
    74
1070
     0
1000
MTEXTEND
  0
MTEXT
  5
229
330
1F
100
AcDbEntity
  8
0
100
AcDbMText
 10
545.6155877312571
 20
80.21173773834954
 30
0.0
 40
20.0
 41
101.3041646945203
 71
     1
 72
     5
  1
{\fSimSun|b0|i0|c134|p54;批 准}
 73
     1
 44
1.0
1001
ACAD
1000
MTEXTBEGIN
1070
    73
1070
     1
1070
    44
1040
1.0
1070
    74
1070
     0
1000
MTEXTEND
  0
MTEXT
  5
22A
330
1F
100
AcDbEntity
  8
0
100
AcDbMText
 10
545.6155877312571
 20
112.5647360934802
 30
0.0
 40
20.0
 41
101.3041646945203
 71
     1
 72
     5
  1
{\fSimSun|b0|i0|c134|p54;审 核}
 73
     1
 44
1.0
1001
ACAD
1000
MTEXTBEGIN
1070
    73
1070
     1
1070
    44
1040
1.0
1070
    74
1070
     0
1000
MTEXTEND
  0
LINE
  5
22B
330
1F
100
AcDbEntity
  8
0
100
AcDbLine
 10
982.6473516040728
 20
116.0990967166129
 30
0.0
 11
982.6473516040728
 21
48.7867505539237
 31
0.0
  0
LINE
  5
22C
330
1F
100
AcDbEntity
  8
0
100
AcDbLine
 10
633.5858005576024
 20
116.0990967166129
 30
0.0
 11
633.5858005576024
 21
48.7867505539237
 31
0.0
  0
MTEXT
  5
22D
330
1F
100
AcDbEntity
  8
0
100
AcDbMText
 10
534.9192645836833
 20
214.8273837063592
 30
0.0
 40
20.0
 41
318.7499999999991
 71
     1
 72
     5
  1
{\fSimSun|b0|i0|c134|p54;\H0.75x;材 料:}
 73
     1
 44
1.0
1001
ACAD
1000
MTEXTBEGIN
1070
    73
1070
     1
1070
    44
1040
1.0
1070
    74
1070
     0
1000
MTEXTEND
  0
MTEXT
  5
22E
330
1F
100
AcDbEntity
  8
0
100
AcDbMText
 10
534.9192645836833
 20
170.8090033612919
 30
0.0
 40
15.0
 41
318.7499999999991
 71
     1
 72
     5
  1
{\fSimSun|b0|i0|c134|p54;产品编号:}
 73
     1
 44
1.0
1001
ACAD
1000
MTEXTBEGIN
1070
    73
1070
     1
1070
    44
1040
1.0
1070
    74
1070
     0
1000
MTEXTEND
  0
LINE
  5
22F
330
1F
100
AcDbEntity
  8
0
100
AcDbLine
 10
872.624497334023
 20
116.0990967166129
 30
0.0
 11
872.624497334023
 21
48.7867505539237
 31
0.0
  0
LINE
  5
230
330
1F
100
AcDbEntity
  8
0
100
AcDbLine
 10
532.2816358630821
 20
82.44292363526648
 30
0.0
 11
1169.781635863082
 21
82.44292363526829
 31
0.0
  0
LINE
  5
232
330
1F
100
AcDbEntity
  8
Title Block
100
AcDbLine
 10
532.2816358630821
 20
173.2759964794334
 30
0.0
 11
1169.781635863082
 21
173.2759964794334
 31
0.0
  0
LINE
  5
233
330
1F
100
AcDbEntity
  8
Title Block
100
AcDbLine
 10
232.2816358630821
 20
116.0990967166129
 30
0.0
 11
1169.781635863082
 21
116.0990967166129
 31
0.0
  0
LINE
  5
234
330
1F
100
AcDbEntity
  8
Title Block
100
AcDbLine
 10
232.2816358630821
 20
218.4528962422576
 30
0.0
 11
1169.781635863082
 21
218.4528962422576
 31
0.0
  0
LINE
  5
235
330
1F
100
AcDbEntity
  8
Title Block
100
AcDbLine
 10
83.78163586308206
 20
48.7867505539237
 30
0.0
 11
1169.781635863082
 21
48.7867505539237
 31
0.0
  0
LINE
  5
238
330
1F
100
AcDbEntity
  8
Title Block
100
AcDbLine
 10
83.78163586308206
 20
1548.786750553923
 30
0.0
 11
83.78163586308206
 21
48.7867505539237
 31
0.0
  0
LINE
  5
23A
330
1F
100
AcDbEntity
  8
Title Block
100
AcDbLine
 10
532.2816358630821
 20
48.7867505539237
 30
0.0
 11
532.281635863083
 21
218.4528962422576
 31
0.0
  0
LINE
  5
23B
330
1F
100
AcDbEntity
  8
Title Block
100
AcDbLine
 10
232.2816358630821
 20
48.7867505539237
 30
0.0
 11
232.2816358630829
 21
218.4528962422576
 31
0.0
  0
LINE
  5
23F
330
1F
100
AcDbEntity
  8
Title Block
100
AcDbLine
 10
1169.781635863082
 20
48.7867505539237
 30
0.0
 11
1169.781635863082
 21
1548.786750553923
 31
0.0
  0
MTEXT
  5
242
330
1F
100
AcDbEntity
  8
0
100
AcDbMText
 10
239.5816330459142
 20
198.6102225312991
 30
0.0
 40
30.0
 41
618.75
 71
     1
 72
     5
  1
{\fSimSun|b0|i0|c134|p54;\H1.667x;东原厨具}
 73
     1
 44
1.0
1001
ACAD
1000
MTEXTBEGIN
1070
    73
1070
     1
1070
    44
1040
1.0
1070
    74
1070
     0
1000
MTEXTEND
  0
ENDSEC
  0
SECTION
  2
OBJECTS
  0
DICTIONARY
  5
C
330
0
100
AcDbDictionary
281
     1
  3
ACAD_COLOR
350
73
  3
ACAD_GROUP
350
D
  3
ACAD_LAYOUT
350
1A
  3
ACAD_MATERIAL
350
72
  3
ACAD_MLINESTYLE
350
17
  3
ACAD_PLOTSETTINGS
350
19
  3
ACAD_PLOTSTYLENAME
350
E
  3
AcadDim
350
3E3
  3
ACDBHEADERROUNDTRIPXREC
350
3FB
  3
AcDbVariableDictionary
350
66
  0
DICTIONARY
  5
1F6
330
1F5
100
AcDbDictionary
280
     1
281
     1
  3
ACAD_DIMASSOC
360
1F7
  0
DICTIONARY
  5
1F9
330
1F8
100
AcDbDictionary
280
     1
281
     1
  3
ACAD_DIMASSOC
360
1FA
  0
DICTIONARY
  5
73
102
{ACAD_REACTORS
330
C
102
}
330
C
100
AcDbDictionary
281
     1
  0
DICTIONARY
  5
D
102
{ACAD_REACTORS
330
C
102
}
330
C
100
AcDbDictionary
281
     1
  0
DICTIONARY
  5
1A
102
{ACAD_REACTORS
330
C
102
}
330
C
100
AcDbDictionary
281
     1
  3
Model
350
22
  3
布局1
350
59
  3
布局2
350
5E
  0
DICTIONARY
  5
72
102
{ACAD_REACTORS
330
C
102
}
330
C
100
AcDbDictionary
281
     1
  0
DICTIONARY
  5
17
102
{ACAD_REACTORS
330
C
102
}
330
C
100
AcDbDictionary
281
     1
  3
Standard
350
18
  0
DICTIONARY
  5
19
102
{ACAD_REACTORS
330
C
102
}
330
C
100
AcDbDictionary
281
     1
  0
ACDBDICTIONARYWDFLT
  5
E
102
{ACAD_REACTORS
330
C
102
}
330
C
100
AcDbDictionary
281
     1
  3
Normal
350
F
100
AcDbDictionaryWithDefault
340
F
  0
XRECORD
  5
3E3
102
{ACAD_REACTORS
330
C
102
}
330
C
100
AcDbXrecord
280
     1
 90
   990106
  3

 60
     0
 61
     0
 62
     1
 63
     3
 64
     0
 65
     0
 66
     0
 67
     3
 68
     1
 69
     0
 70
     0
 71
     0
 72
     0
 40
0.0
170
     0
340
0
  0
DICTIONARY
  5
3FB
102
{ACAD_REACTORS
330
C
102
}
330
C
100
AcDbDictionary
281
     1
  3
COLORDICT
350
3FD
  3
MATERIALDICT
350
3FC
  0
DICTIONARY
  5
66
102
{ACAD_REACTORS
330
C
102
}
330
C
100
AcDbDictionary
281
     1
  3
DIMASSOC
350
67
  3
HIDETEXT
350
6B
  3
PROJECTNAME
350
3F9
  0
DIMASSOC
  5
1F7
102
{ACAD_REACTORS
330
1F6
102
}
330
1F6
100
AcDbDimAssoc
330
1F5
 90
        2
 70
     0
 71
     0
  1
AcDbOsnapPointRef
 72
     3
331
1FC
 73
     2
 91
        0
 40
0.0
 10
0.0
 20
0.0
 30
0.0
 75
     0
  0
DIMASSOC
  5
1FA
102
{ACAD_REACTORS
330
1F9
102
}
330
1F9
100
AcDbDimAssoc
330
1F8
 90
        2
 70
     0
 71
     0
  1
AcDbOsnapPointRef
 72
     3
331
1FB
 73
     2
 91
        1
 40
0.0
 10
0.0
 20
0.0
 30
0.0
 75
     0
  0
LAYOUT
  5
22
102
{ACAD_XDICTIONARY
360
3FE
102
}
102
{ACAD_REACTORS
330
1A
102
}
330
1A
100
AcDbPlotSettings
  1

  2
EPSON Stylus Photo 830U Series
  4
A4
  6

 40
3.757083177566528
 41
14.7637300491333
 42
3.757080078125
 43
3.757080078125
 44
209.9733276367187
 45
296.9683227539062
 46
0.43
 47
0.0
 48
3788.588585828733
 49
48.78675055392363
140
4874.588585828733
141
1548.786750553923
142
1.0
143
5.387011669992009
 70
 11956
 72
     1
 73
     0
 74
     4
  7
acad.ctb
 75
     0
147
0.185631675084432
148
-3788.588585828733
149
-48.78675055392363
100
AcDbLayout
  1
Model
 70
     1
 71
     0
 10
0.0
 20
0.0
 11
12.0
 21
9.0
 12
0.0
 22
0.0
 32
0.0
 14
0.0
 24
0.0
 34
0.0
 15
0.0
 25
0.0
 35
0.0
146
0.0
 13
0.0
 23
0.0
 33
0.0
 16
1.0
 26
0.0
 36
0.0
 17
0.0
 27
1.0
 37
0.0
 76
     0
330
1F
  0
LAYOUT
  5
59
102
{ACAD_XDICTIONARY
360
400
102
}
102
{ACAD_REACTORS
330
1A
102
}
330
1A
100
AcDbPlotSettings
  1

  2
None
  4

  6

 40
0.0
 41
0.0
 42
0.0
 43
0.0
 44
0.0
 45
0.0
 46
0.0
 47
0.0
 48
0.0
 49
0.0
140
0.0
141
0.0
142
1.0
143
1.0
 70
   688
 72
     0
 73
     0
 74
     5
  7
acad.ctb
 75
    16
147
1.0
148
0.0
149
0.0
100
AcDbLayout
  1
布局1
 70
     1
 71
     1
 10
0.0
 20
0.0
 11
12.0
 21
9.0
 12
0.0
 22
0.0
 32
0.0
 14
0.0
 24
0.0
 34
0.0
 15
0.0
 25
0.0
 35
0.0
146
0.0
 13
0.0
 23
0.0
 33
0.0
 16
1.0
 26
0.0
 36
0.0
 17
0.0
 27
1.0
 37
0.0
 76
     0
330
58
  0
LAYOUT
  5
5E
102
{ACAD_XDICTIONARY
360
402
102
}
102
{ACAD_REACTORS
330
1A
102
}
330
1A
100
AcDbPlotSettings
  1

  2
None
  4

  6

 40
0.0
 41
0.0
 42
0.0
 43
0.0
 44
0.0
 45
0.0
 46
0.0
 47
0.0
 48
0.0
 49
0.0
140
0.0
141
0.0
142
1.0
143
1.0
 70
   688
 72
     0
 73
     0
 74
     5
  7
acad.ctb
 75
    16
147
1.0
148
0.0
149
0.0
100
AcDbLayout
  1
布局2
 70
     1
 71
     2
 10
0.0
 20
0.0
 11
12.0
 21
9.0
 12
0.0
 22
0.0
 32
0.0
 14
0.0
 24
0.0
 34
0.0
 15
0.0
 25
0.0
 35
0.0
146
0.0
 13
0.0
 23
0.0
 33
0.0
 16
1.0
 26
0.0
 36
0.0
 17
0.0
 27
1.0
 37
0.0
 76
     0
330
5D
  0
MLINESTYLE
  5
18
102
{ACAD_REACTORS
330
17
102
}
330
17
100
AcDbMlineStyle
  2
STANDARD
 70
     0
  3

 62
   256
 51
90.0
 52
90.0
 71
     2
 49
0.5
 62
   256
  6
BYLAYER
 49
-0.5
 62
   256
  6
BYLAYER
  0
ACDBPLACEHOLDER
  5
F
102
{ACAD_REACTORS
330
E
102
}
330
E
  0
XRECORD
  5
3FD
102
{ACAD_REACTORS
330
3FB
102
}
330
3FB
100
AcDbXrecord
280
     1
340
73
  0
XRECORD
  5
3FC
102
{ACAD_REACTORS
330
3FB
102
}
330
3FB
100
AcDbXrecord
280
     1
340
72
  0
DICTIONARYVAR
  5
67
102
{ACAD_REACTORS
330
66
102
}
330
66
100
DictionaryVariables
280
     0
  1
2
  0
DICTIONARYVAR
  5
6B
102
{ACAD_REACTORS
330
66
102
}
330
66
100
DictionaryVariables
280
     0
  1
1
  0
DICTIONARYVAR
  5
3F9
102
{ACAD_REACTORS
330
66
102
}
330
66
100
DictionaryVariables
280
     0
  1

  0
DICTIONARY
  5
3FE
330
22
100
AcDbDictionary
280
     1
281
     1
  3
ACAD_XREC_ROUNDTRIP
360
3FF
  0
DICTIONARY
  5
400
330
59
100
AcDbDictionary
280
     1
281
     1
  3
ACAD_XREC_ROUNDTRIP
360
401
  0
DICTIONARY
  5
402
330
5E
100
AcDbDictionary
280
     1
281
     1
  3
ACAD_XREC_ROUNDTRIP
360
403
  0
XRECORD
  5
3FF
102
{ACAD_REACTORS
330
3FE
102
}
330
3FE
100
AcDbXrecord
280
     1
102
SHADEPLOT
 70
     0
102
SHADEPLOTRESLEVEL
 70
     2
102
SHADEPLOTCUSTOMDPI
 70
   180
  0
XRECORD
  5
401
102
{ACAD_REACTORS
330
400
102
}
330
400
100
AcDbXrecord
280
     1
102
SHADEPLOT
 70
     0
102
SHADEPLOTRESLEVEL
 70
     2
102
SHADEPLOTCUSTOMDPI
 70
   300
  0
XRECORD
  5
403
102
{ACAD_REACTORS
330
402
102
}
330
402
100
AcDbXrecord
280
     1
102
SHADEPLOT
 70
     0
102
SHADEPLOTRESLEVEL
 70
     2
102
SHADEPLOTCUSTOMDPI
 70
   300
  0
ENDSEC
  0
EOF
