  0
SECTION
  2
HEADER
  9
$ACADVER
  1
AC1015
  9
$ACADMAINTVER
 70
    20
  9
$DWGCODEPAGE
  3
ANSI_936
  9
$INSBASE
 10
0.0
 20
0.0
 30
0.0
  9
$EXTMIN
 10
21.79750635856065
 20
22.49793373520177
 30
0.0
  9
$EXTMAX
 10
2055.731213438549
 20
1322.400447315202
 30
0.0
  9
$LIMMIN
 10
0.0
 20
0.0
  9
$LIMMAX
 10
12.0
 20
9.0
  9
$ORTHOMODE
 70
     1
  9
$REGENMODE
 70
     1
  9
$FILLMODE
 70
     1
  9
$QTEXTMODE
 70
     0
  9
$MIRRTEXT
 70
     0
  9
$LTSCALE
 40
1.0
  9
$ATTMODE
 70
     1
  9
$TEXTSIZE
 40
0.2
  9
$TRACEWID
 40
0.05
  9
$TEXTSTYLE
  7
Standard
  9
$CLAYER
  8
0
  9
$CELTYPE
  6
ByLayer
  9
$CECOLOR
 62
   256
  9
$CELTSCALE
 40
1.0
  9
$DISPSILH
 70
     0
  9
$DIMSCALE
 40
1.0
  9
$DIMASZ
 40
0.18
  9
$DIMEXO
 40
0.0625
  9
$DIMDLI
 40
0.38
  9
$DIMRND
 40
0.0
  9
$DIMDLE
 40
0.0
  9
$DIMEXE
 40
0.18
  9
$DIMTP
 40
0.0
  9
$DIMTM
 40
0.0
  9
$DIMTXT
 40
0.18
  9
$DIMCEN
 40
0.09
  9
$DIMTSZ
 40
0.0
  9
$DIMTOL
 70
     0
  9
$DIMLIM
 70
     0
  9
$DIMTIH
 70
     1
  9
$DIMTOH
 70
     1
  9
$DIMSE1
 70
     0
  9
$DIMSE2
 70
     0
  9
$DIMTAD
 70
     0
  9
$DIMZIN
 70
     0
  9
$DIMBLK
  1

  9
$DIMASO
 70
     1
  9
$DIMSHO
 70
     1
  9
$DIMPOST
  1

  9
$DIMAPOST
  1

  9
$DIMALT
 70
     0
  9
$DIMALTD
 70
     2
  9
$DIMALTF
 40
25.4
  9
$DIMLFAC
 40
1.0
  9
$DIMTOFL
 70
     0
  9
$DIMTVP
 40
0.0
  9
$DIMTIX
 70
     0
  9
$DIMSOXD
 70
     0
  9
$DIMSAH
 70
     0
  9
$DIMBLK1
  1

  9
$DIMBLK2
  1

  9
$DIMSTYLE
  2
Standard
  9
$DIMCLRD
 70
     0
  9
$DIMCLRE
 70
     0
  9
$DIMCLRT
 70
     0
  9
$DIMTFAC
 40
1.0
  9
$DIMGAP
 40
0.09
  9
$DIMJUST
 70
     0
  9
$DIMSD1
 70
     0
  9
$DIMSD2
 70
     0
  9
$DIMTOLJ
 70
     1
  9
$DIMTZIN
 70
     0
  9
$DIMALTZ
 70
     0
  9
$DIMALTTZ
 70
     0
  9
$DIMUPT
 70
     0
  9
$DIMDEC
 70
     4
  9
$DIMTDEC
 70
     4
  9
$DIMALTU
 70
     2
  9
$DIMALTTD
 70
     2
  9
$DIMTXSTY
  7
Standard
  9
$DIMAUNIT
 70
     0
  9
$DIMADEC
 70
     0
  9
$DIMALTRND
 40
0.0
  9
$DIMAZIN
 70
     0
  9
$DIMDSEP
 70
    46
  9
$DIMATFIT
 70
     3
  9
$DIMFRAC
 70
     0
  9
$DIMLDRBLK
  1

  9
$DIMLUNIT
 70
     2
  9
$DIMLWD
 70
    -2
  9
$DIMLWE
 70
    -2
  9
$DIMTMOVE
 70
     0
  9
$LUNITS
 70
     2
  9
$LUPREC
 70
     4
  9
$SKETCHINC
 40
0.1
  9
$FILLETRAD
 40
0.0
  9
$AUNITS
 70
     0
  9
$AUPREC
 70
     0
  9
$MENU
  1
.
  9
$ELEVATION
 40
0.0
  9
$PELEVATION
 40
0.0
  9
$THICKNESS
 40
0.0
  9
$LIMCHECK
 70
     0
  9
$CHAMFERA
 40
0.0
  9
$CHAMFERB
 40
0.0
  9
$CHAMFERC
 40
0.0
  9
$CHAMFERD
 40
0.0
  9
$SKPOLY
 70
     0
  9
$TDCREATE
 40
2454229.639702500
  9
$TDUCREATE
 40
2454229.306369167
  9
$TDUPDATE
 40
2454229.653437859
  9
$TDUUPDATE
 40
2454229.320104525
  9
$TDINDWG
 40
0.0052021991
  9
$TDUSRTIMER
 40
0.0052021991
  9
$USRTIMER
 70
     1
  9
$ANGBASE
 50
0.0
  9
$ANGDIR
 70
     0
  9
$PDMODE
 70
     0
  9
$PDSIZE
 40
0.0
  9
$PLINEWID
 40
0.0
  9
$SPLFRAME
 70
     0
  9
$SPLINETYPE
 70
     6
  9
$SPLINESEGS
 70
     8
  9
$HANDSEED
  5
2F9
  9
$SURFTAB1
 70
     6
  9
$SURFTAB2
 70
     6
  9
$SURFTYPE
 70
     6
  9
$SURFU
 70
     6
  9
$SURFV
 70
     6
  9
$UCSBASE
  2

  9
$UCSNAME
  2

  9
$UCSORG
 10
0.0
 20
0.0
 30
0.0
  9
$UCSXDIR
 10
1.0
 20
0.0
 30
0.0
  9
$UCSYDIR
 10
0.0
 20
1.0
 30
0.0
  9
$UCSORTHOREF
  2

  9
$UCSORTHOVIEW
 70
     0
  9
$UCSORGTOP
 10
0.0
 20
0.0
 30
0.0
  9
$UCSORGBOTTOM
 10
0.0
 20
0.0
 30
0.0
  9
$UCSORGLEFT
 10
0.0
 20
0.0
 30
0.0
  9
$UCSORGRIGHT
 10
0.0
 20
0.0
 30
0.0
  9
$UCSORGFRONT
 10
0.0
 20
0.0
 30
0.0
  9
$UCSORGBACK
 10
0.0
 20
0.0
 30
0.0
  9
$PUCSBASE
  2

  9
$PUCSNAME
  2

  9
$PUCSORG
 10
0.0
 20
0.0
 30
0.0
  9
$PUCSXDIR
 10
1.0
 20
0.0
 30
0.0
  9
$PUCSYDIR
 10
0.0
 20
1.0
 30
0.0
  9
$PUCSORTHOREF
  2

  9
$PUCSORTHOVIEW
 70
     0
  9
$PUCSORGTOP
 10
0.0
 20
0.0
 30
0.0
  9
$PUCSORGBOTTOM
 10
0.0
 20
0.0
 30
0.0
  9
$PUCSORGLEFT
 10
0.0
 20
0.0
 30
0.0
  9
$PUCSORGRIGHT
 10
0.0
 20
0.0
 30
0.0
  9
$PUCSORGFRONT
 10
0.0
 20
0.0
 30
0.0
  9
$PUCSORGBACK
 10
0.0
 20
0.0
 30
0.0
  9
$USERI1
 70
     0
  9
$USERI2
 70
     0
  9
$USERI3
 70
     0
  9
$USERI4
 70
     0
  9
$USERI5
 70
     0
  9
$USERR1
 40
0.0
  9
$USERR2
 40
0.0
  9
$USERR3
 40
0.0
  9
$USERR4
 40
0.0
  9
$USERR5
 40
0.0
  9
$WORLDVIEW
 70
     1
  9
$SHADEDGE
 70
     3
  9
$SHADEDIF
 70
    70
  9
$TILEMODE
 70
     1
  9
$MAXACTVP
 70
    64
  9
$PINSBASE
 10
0.0
 20
0.0
 30
0.0
  9
$PLIMCHECK
 70
     0
  9
$PEXTMIN
 10
0.0
 20
0.0
 30
0.0
  9
$PEXTMAX
 10
0.0
 20
0.0
 30
0.0
  9
$PLIMMIN
 10
0.0
 20
0.0
  9
$PLIMMAX
 10
12.0
 20
9.0
  9
$UNITMODE
 70
     0
  9
$VISRETAIN
 70
     1
  9
$PLINEGEN
 70
     0
  9
$PSLTSCALE
 70
     1
  9
$TREEDEPTH
 70
  3020
  9
$CMLSTYLE
  2
Standard
  9
$CMLJUST
 70
     0
  9
$CMLSCALE
 40
1.0
  9
$PROXYGRAPHICS
 70
     1
  9
$MEASUREMENT
 70
     0
  9
$CELWEIGHT
370
    -1
  9
$ENDCAPS
280
     0
  9
$JOINSTYLE
280
     0
  9
$LWDISPLAY
290
     0
  9
$INSUNITS
 70
     1
  9
$HYPERLINKBASE
  1

  9
$STYLESHEET
  1

  9
$XEDIT
290
     1
  9
$CEPSNTYPE
380
     0
  9
$PSTYLEMODE
290
     1
  9
$FINGERPRINTGUID
  2
{FDEAD576-A652-11D2-9A35-0060089B3A3F}
  9
$VERSIONGUID
  2
{8A10B69A-24B0-4319-A685-C614B268CF73}
  9
$EXTNAMES
290
     1
  9
$PSVPSCALE
 40
0.0
  9
$OLESTARTUP
290
     0
  0
ENDSEC
  0
SECTION
  2
CLASSES
  0
CLASS
  1
ACDBDICTIONARYWDFLT
  2
AcDbDictionaryWithDefault
  3
ObjectDBX Classes
 90
        0
280
     0
281
     0
  0
CLASS
  1
ACDBPLACEHOLDER
  2
AcDbPlaceHolder
  3
ObjectDBX Classes
 90
        0
280
     0
281
     0
  0
CLASS
  1
LAYOUT
  2
AcDbLayout
  3
ObjectDBX Classes
 90
        0
280
     0
281
     0
  0
CLASS
  1
DICTIONARYVAR
  2
AcDbDictionaryVar
  3
ObjectDBX Classes
 90
        0
280
     0
281
     0
  0
CLASS
  1
DIMASSOC
  2
AcDbDimAssoc
  3
"AcDbDimAssoc|Product Desc:     AcDim ARX App For Dimension|Company:          Autodesk, Inc.|WEB Address:      www.autodesk.com"
 90
        0
280
     0
281
     0
  0
ENDSEC
  0
SECTION
  2
TABLES
  0
TABLE
  2
VPORT
  5
8
330
0
100
AcDbSymbolTable
 70
     2
  0
VPORT
  5
2EF
330
8
100
AcDbSymbolTableRecord
100
AcDbViewportTableRecord
  2
*Active
 70
     0
 10
0.0
 20
0.0
 11
1.0
 21
1.0
 12
1038.765980730218
 22
672.4495896857198
 13
0.0
 23
0.0
 14
0.5
 24
0.5
 15
0.5
 25
0.5
 16
0.0
 26
0.0
 36
1.0
 17
0.0
 27
0.0
 37
0.0
 40
1349.232449037163
 41
1.515037593984962
 42
50.0
 43
0.0
 44
0.0
 50
0.0
 51
0.0
 71
     0
 72
  1000
 73
     1
 74
     3
 75
     0
 76
     0
 77
     0
 78
     0
281
     0
 65
     1
110
0.0
120
0.0
130
0.0
111
1.0
121
0.0
131
0.0
112
0.0
122
1.0
132
0.0
 79
     0
146
0.0
  0
ENDTAB
  0
TABLE
  2
LTYPE
  5
5
330
0
100
AcDbSymbolTable
 70
     1
  0
LTYPE
  5
14
330
5
100
AcDbSymbolTableRecord
100
AcDbLinetypeTableRecord
  2
ByBlock
 70
     0
  3

 72
    65
 73
     0
 40
0.0
  0
LTYPE
  5
15
330
5
100
AcDbSymbolTableRecord
100
AcDbLinetypeTableRecord
  2
ByLayer
 70
     0
  3

 72
    65
 73
     0
 40
0.0
  0
LTYPE
  5
16
330
5
100
AcDbSymbolTableRecord
100
AcDbLinetypeTableRecord
  2
Continuous
 70
     0
  3
Solid line
 72
    65
 73
     0
 40
0.0
  0
ENDTAB
  0
TABLE
  2
LAYER
  5
2
330
0
100
AcDbSymbolTable
 70
     3
  0
LAYER
  5
10
330
2
100
AcDbSymbolTableRecord
100
AcDbLayerTableRecord
  2
0
 70
     0
 62
     7
  6
Continuous
370
    -3
390
F
  0
LAYER
  5
CB
330
2
100
AcDbSymbolTableRecord
100
AcDbLayerTableRecord
  2
Defpoints
 70
     1
 62
     7
  6
Continuous
290
     0
370
    -3
390
F
  0
LAYER
  5
CC
330
2
100
AcDbSymbolTableRecord
100
AcDbLayerTableRecord
  2
Title Block
 70
     0
 62
     7
  6
Continuous
370
    -3
390
F
  0
ENDTAB
  0
TABLE
  2
STYLE
  5
3
330
0
100
AcDbSymbolTable
 70
     2
  0
STYLE
  5
11
330
3
100
AcDbSymbolTableRecord
100
AcDbTextStyleTableRecord
  2
Standard
 70
     0
 40
0.0
 41
1.0
 50
0.0
 71
     0
 42
0.2
  3
txt
  4

  0
STYLE
  5
CD
330
3
100
AcDbSymbolTableRecord
100
AcDbTextStyleTableRecord
  2
Roman
 70
     0
 40
0.0
 41
1.0
 50
5.0
 71
     0
 42
0.065
  3
SimSun.ttf
  4

1001
ACAD
1000
SimSun
1071
    34306
  0
ENDTAB
  0
TABLE
  2
VIEW
  5
6
330
0
100
AcDbSymbolTable
 70
     0
  0
ENDTAB
  0
TABLE
  2
UCS
  5
7
330
0
100
AcDbSymbolTable
 70
     0
  0
ENDTAB
  0
TABLE
  2
APPID
  5
9
330
0
100
AcDbSymbolTable
 70
     1
  0
APPID
  5
12
330
9
100
AcDbSymbolTableRecord
100
AcDbRegAppTableRecord
  2
ACAD
 70
     0
  0
ENDTAB
  0
TABLE
  2
DIMSTYLE
  5
A
330
0
100
AcDbSymbolTable
 70
     6
100
AcDbDimStyleTable
 71
     1
340
27
  0
DIMSTYLE
105
27
330
A
100
AcDbSymbolTableRecord
100
AcDbDimStyleTableRecord
  2
Standard
 70
     0
340
11
  0
DIMSTYLE
105
CE
330
A
100
AcDbSymbolTableRecord
100
AcDbDimStyleTableRecord
  2
ISO-25
 70
     0
 41
15.0
 42
0.625
 43
3.75
 44
1.25
 73
     0
 77
     1
 78
     8
140
18.0
141
2.5
143
0.03937007874016
147
0.625
171
     3
172
     1
176
     6
177
     6
271
     2
272
     2
274
     3
278
    44
283
     0
284
     8
340
CD
  0
DIMSTYLE
105
CF
102
{ACAD_REACTORS
330
1BD
330
1C0
330
1C3
330
1C6
330
1C9
102
}
330
A
100
AcDbSymbolTableRecord
100
AcDbDimStyleTableRecord
  2
副本ISO-25
 70
     0
 41
15.0
 42
0.625
 43
3.75
 44
1.25
 73
     0
 77
     1
 78
     8
 79
     2
140
20.0
141
2.5
143
0.03937007874016
147
5.0
172
     1
176
     6
177
     6
271
     0
272
     0
278
    44
283
     0
284
     8
340
11
  0
DIMSTYLE
105
D0
330
A
100
AcDbSymbolTableRecord
100
AcDbDimStyleTableRecord
  2
01
 70
     0
 41
15.0
 42
0.625
 43
3.75
 44
1.25
 73
     0
 77
     1
 78
     8
140
15.0
141
2.5
143
0.03937007874016
147
0.625
171
     3
172
     1
176
     6
177
     6
271
     2
272
     2
274
     3
278
    44
283
     0
284
     8
340
11
371
     5
372
     5
  0
DIMSTYLE
105
D1
330
A
100
AcDbSymbolTableRecord
100
AcDbDimStyleTableRecord
  2
副本01
 70
     0
 41
15.0
 42
0.625
 43
3.75
 44
1.25
 73
     0
 77
     1
 78
     9
 79
     2
140
18.0
141
0.5
143
0.03937007874
147
0.625
170
     1
176
     6
177
     6
271
     2
272
     2
283
     0
284
     8
285
    12
340
11
371
     5
372
     5
  0
DIMSTYLE
105
D2
330
A
100
AcDbSymbolTableRecord
100
AcDbDimStyleTableRecord
  2
1
 70
     0
 41
8.0
 42
3.0
 43
3.75
 44
1.25
 73
     0
 74
     0
 77
     1
 78
     8
140
15.0
141
2.5
143
0.03937007874016
147
0.625
171
     3
172
     1
271
     2
272
     2
274
     3
278
    44
283
     0
284
     8
340
11
  0
ENDTAB
  0
TABLE
  2
BLOCK_RECORD
  5
1
330
0
100
AcDbSymbolTable
 70
    11
  0
BLOCK_RECORD
  5
1F
330
1
100
AcDbSymbolTableRecord
100
AcDbBlockTableRecord
  2
*Model_Space
340
22
  0
BLOCK_RECORD
  5
58
330
1
100
AcDbSymbolTableRecord
100
AcDbBlockTableRecord
  2
*Paper_Space
340
59
  0
BLOCK_RECORD
  5
5D
330
1
100
AcDbSymbolTableRecord
100
AcDbBlockTableRecord
  2
*Paper_Space0
340
5E
  0
BLOCK_RECORD
  5
1CC
330
1
100
AcDbSymbolTableRecord
100
AcDbBlockTableRecord
  2
*D6
340
0
  0
BLOCK_RECORD
  5
1D8
330
1
100
AcDbSymbolTableRecord
100
AcDbBlockTableRecord
  2
*D7
340
0
  0
BLOCK_RECORD
  5
1E4
330
1
100
AcDbSymbolTableRecord
100
AcDbBlockTableRecord
  2
*D8
340
0
  0
BLOCK_RECORD
  5
1F0
330
1
100
AcDbSymbolTableRecord
100
AcDbBlockTableRecord
  2
*D9
340
0
  0
BLOCK_RECORD
  5
1FC
330
1
100
AcDbSymbolTableRecord
100
AcDbBlockTableRecord
  2
*D10
340
0
  0
ENDTAB
  0
ENDSEC
  0
SECTION
  2
BLOCKS
  0
BLOCK
  5
20
330
1F
100
AcDbEntity
  8
0
100
AcDbBlockBegin
  2
*Model_Space
 70
     0
 10
0.0
 20
0.0
 30
0.0
  3
*Model_Space
  1

  0
ENDBLK
  5
21
330
1F
100
AcDbEntity
  8
0
100
AcDbBlockEnd
  0
BLOCK
  5
5A
330
58
100
AcDbEntity
 67
     1
  8
0
100
AcDbBlockBegin
  2
*Paper_Space
 70
     0
 10
0.0
 20
0.0
 30
0.0
  3
*Paper_Space
  1

  0
ENDBLK
  5
5B
330
58
100
AcDbEntity
 67
     1
  8
0
100
AcDbBlockEnd
  0
BLOCK
  5
5F
330
5D
100
AcDbEntity
  8
0
100
AcDbBlockBegin
  2
*Paper_Space0
 70
     0
 10
0.0
 20
0.0
 30
0.0
  3
*Paper_Space0
  1

  0
ENDBLK
  5
60
330
5D
100
AcDbEntity
  8
0
100
AcDbBlockEnd
  0
BLOCK
  5
1D6
330
1CC
100
AcDbEntity
  8
0
100
AcDbBlockBegin
  2
*D6
 70
     1
 10
0.0
 20
0.0
 30
0.0
  3
*D6
  1

  0
LINE
  5
1CD
330
1CC
100
AcDbEntity
  8
0
 62
     6
370
    -2
100
AcDbLine
 10
336.1982550722448
 20
383.7753355052557
 30
0.0
 11
336.1982550722448
 21
217.8276063832748
 31
0.0
  0
LINE
  5
1CE
330
1CC
100
AcDbEntity
  8
0
 62
     6
370
    -2
100
AcDbLine
 10
786.1982550722448
 20
383.7753355052557
 30
0.0
 11
786.1982550722448
 21
217.8276063832748
 31
0.0
  0
LINE
  5
1CF
330
1CC
100
AcDbEntity
  8
0
 62
     6
370
    -2
100
AcDbLine
 10
351.1982550722448
 20
219.0776063832748
 30
0.0
 11
771.1982550722447
 21
219.0776063832748
 31
0.0
  0
SOLID
  5
1D0
330
1CC
100
AcDbEntity
  8
0
 62
     6
100
AcDbTrace
 10
351.1982550722448
 20
221.5776063832748
 30
0.0
 11
351.1982550722448
 21
216.5776063832748
 31
0.0
 12
336.1982550722448
 22
219.0776063832748
 32
0.0
 13
336.1982550722448
 23
219.0776063832748
 33
0.0
  0
SOLID
  5
1D1
330
1CC
100
AcDbEntity
  8
0
 62
     6
100
AcDbTrace
 10
771.1982550722447
 20
221.5776063832748
 30
0.0
 11
771.1982550722447
 21
216.5776063832748
 31
0.0
 12
786.1982550722448
 22
219.0776063832748
 32
0.0
 13
786.1982550722448
 23
219.0776063832748
 33
0.0
  0
MTEXT
  5
1D2
330
1CC
100
AcDbEntity
  8
0
 62
     0
100
AcDbMText
 10
561.1982550722448
 20
234.0776063832748
 30
0.0
 40
20.0
 41
0.0
 71
     5
 72
     1
  1
450
 73
     1
 44
1.0
1001
ACAD
1000
MTEXTBEGIN
1070
    73
1070
     1
1070
    44
1040
1.0
1070
    74
1070
     0
1000
MTEXTEND
  0
POINT
  5
1D3
330
1CC
100
AcDbEntity
  8
Defpoints
 62
     0
100
AcDbPoint
 10
336.1982550722448
 20
384.4003355052557
 30
0.0
  0
POINT
  5
1D4
330
1CC
100
AcDbEntity
  8
Defpoints
 62
     0
100
AcDbPoint
 10
786.1982550722448
 20
384.4003355052557
 30
0.0
  0
POINT
  5
1D5
330
1CC
100
AcDbEntity
  8
Defpoints
 62
     0
100
AcDbPoint
 10
786.1982550722448
 20
219.0776063832748
 30
0.0
  0
ENDBLK
  5
1D7
330
1CC
100
AcDbEntity
  8
0
100
AcDbBlockEnd
  0
BLOCK
  5
1E2
330
1D8
100
AcDbEntity
  8
0
100
AcDbBlockBegin
  2
*D7
 70
     1
 10
0.0
 20
0.0
 30
0.0
  3
*D7
  1

  0
LINE
  5
1D9
330
1D8
100
AcDbEntity
  8
0
 62
     6
370
    -2
100
AcDbLine
 10
311.1982550722448
 20
328.7753355052557
 30
0.0
 11
311.1982550722448
 21
164.8386048094837
 31
0.0
  0
LINE
  5
1DA
330
1D8
100
AcDbEntity
  8
0
 62
     6
370
    -2
100
AcDbLine
 10
811.1982550722448
 20
328.7753355052557
 30
0.0
 11
811.1982550722448
 21
164.8386048094837
 31
0.0
  0
LINE
  5
1DB
330
1D8
100
AcDbEntity
  8
0
 62
     6
370
    -2
100
AcDbLine
 10
326.1982550722448
 20
166.0886048094837
 30
0.0
 11
796.1982550722447
 21
166.0886048094837
 31
0.0
  0
SOLID
  5
1DC
330
1D8
100
AcDbEntity
  8
0
 62
     6
100
AcDbTrace
 10
326.1982550722448
 20
168.5886048094837
 30
0.0
 11
326.1982550722448
 21
163.5886048094837
 31
0.0
 12
311.1982550722448
 22
166.0886048094837
 32
0.0
 13
311.1982550722448
 23
166.0886048094837
 33
0.0
  0
SOLID
  5
1DD
330
1D8
100
AcDbEntity
  8
0
 62
     6
100
AcDbTrace
 10
796.1982550722447
 20
168.5886048094837
 30
0.0
 11
796.1982550722447
 21
163.5886048094837
 31
0.0
 12
811.1982550722448
 22
166.0886048094837
 32
0.0
 13
811.1982550722448
 23
166.0886048094837
 33
0.0
  0
MTEXT
  5
1DE
330
1D8
100
AcDbEntity
  8
0
 62
     0
100
AcDbMText
 10
561.1982550722448
 20
181.0886048094837
 30
0.0
 40
20.0
 41
0.0
 71
     5
 72
     1
  1
500
 73
     1
 44
1.0
1001
ACAD
1000
MTEXTBEGIN
1070
    73
1070
     1
1070
    44
1040
1.0
1070
    74
1070
     0
1000
MTEXTEND
  0
POINT
  5
1DF
330
1D8
100
AcDbEntity
  8
Defpoints
 62
     0
100
AcDbPoint
 10
311.1982550722448
 20
329.4003355052557
 30
0.0
  0
POINT
  5
1E0
330
1D8
100
AcDbEntity
  8
Defpoints
 62
     0
100
AcDbPoint
 10
811.1982550722448
 20
329.4003355052557
 30
0.0
  0
POINT
  5
1E1
330
1D8
100
AcDbEntity
  8
Defpoints
 62
     0
100
AcDbPoint
 10
811.1982550722448
 20
166.0886048094837
 30
0.0
  0
ENDBLK
  5
1E3
330
1D8
100
AcDbEntity
  8
0
100
AcDbBlockEnd
  0
BLOCK
  5
1EE
330
1E4
100
AcDbEntity
  8
0
100
AcDbBlockBegin
  2
*D8
 70
     1
 10
0.0
 20
0.0
 30
0.0
  3
*D8
  1

  0
LINE
  5
23C
330
1E4
100
AcDbEntity
  8
0
 62
     6
370
    -2
100
AcDbLine
 10
561.8232550722447
 20
754.4003355052557
 30
0.0
 11
866.3809648238226
 21
754.4003355052556
 31
0.0
  0
LINE
  5
23D
330
1E4
100
AcDbEntity
  8
0
 62
     6
370
    -2
100
AcDbLine
 10
686.8232550722447
 20
284.4003355052557
 30
0.0
 11
866.3809648238226
 21
284.4003355052557
 31
0.0
  0
LINE
  5
23E
330
1E4
100
AcDbEntity
  8
0
 62
     6
370
    -2
100
AcDbLine
 10
865.1309648238227
 20
739.4003355052555
 30
0.0
 11
865.1309648238227
 21
299.4003355052557
 31
0.0
  0
SOLID
  5
23F
330
1E4
100
AcDbEntity
  8
0
 62
     6
100
AcDbTrace
 10
862.6309648238226
 20
739.4003355052555
 30
0.0
 11
867.6309648238227
 21
739.4003355052555
 31
0.0
 12
865.1309648238227
 22
754.4003355052556
 32
0.0
 13
865.1309648238227
 23
754.4003355052556
 33
0.0
  0
SOLID
  5
240
330
1E4
100
AcDbEntity
  8
0
 62
     6
100
AcDbTrace
 10
862.6309648238226
 20
299.4003355052557
 30
0.0
 11
867.6309648238227
 21
299.4003355052557
 31
0.0
 12
865.1309648238227
 22
284.4003355052557
 32
0.0
 13
865.1309648238227
 23
284.4003355052557
 33
0.0
  0
MTEXT
  5
241
330
1E4
100
AcDbEntity
  8
0
 62
     0
100
AcDbMText
 10
850.1309648238224
 20
519.4003355052558
 30
0.0
 40
20.0
 41
0.0
 71
     5
 72
     1
  1
470
 11
0.0000000000000001
 21
1.0
 31
0.0
 73
     1
 44
1.0
1001
ACAD
1000
MTEXTBEGIN
1070
    73
1070
     1
1070
    44
1040
1.0
1070
    74
1070
     0
1000
MTEXTEND
  0
POINT
  5
242
330
1E4
100
AcDbEntity
  8
Defpoints
 62
     0
100
AcDbPoint
 10
561.1982550722447
 20
754.4003355052557
 30
0.0
  0
POINT
  5
243
330
1E4
100
AcDbEntity
  8
Defpoints
 62
     0
100
AcDbPoint
 10
686.1982550722448
 20
284.4003355052557
 30
0.0
  0
POINT
  5
244
330
1E4
100
AcDbEntity
  8
Defpoints
 62
     0
100
AcDbPoint
 10
865.1309648238227
 20
284.4003355052557
 30
0.0
  0
ENDBLK
  5
1EF
330
1E4
100
AcDbEntity
  8
0
100
AcDbBlockEnd
  0
BLOCK
  5
1FA
330
1F0
100
AcDbEntity
  8
0
100
AcDbBlockBegin
  2
*D9
 70
     1
 10
0.0
 20
0.0
 30
0.0
  3
*D9
  1

  0
LINE
  5
248
330
1F0
100
AcDbEntity
  8
0
 62
     6
370
    -2
100
AcDbLine
 10
696.8232550722448
 20
779.4003355052557
 30
0.0
 11
913.0546970992863
 21
779.4003355052556
 31
0.0
  0
LINE
  5
249
330
1F0
100
AcDbEntity
  8
0
 62
     6
370
    -2
100
AcDbLine
 10
741.8232550722448
 20
259.4003355052557
 30
0.0
 11
913.0546970992861
 21
259.4003355052556
 31
0.0
  0
LINE
  5
24A
330
1F0
100
AcDbEntity
  8
0
 62
     6
370
    -2
100
AcDbLine
 10
911.8046970992862
 20
764.4003355052555
 30
0.0
 11
911.8046970992862
 21
274.4003355052557
 31
0.0
  0
SOLID
  5
24B
330
1F0
100
AcDbEntity
  8
0
 62
     6
100
AcDbTrace
 10
909.3046970992862
 20
764.4003355052555
 30
0.0
 11
914.3046970992861
 21
764.4003355052555
 31
0.0
 12
911.8046970992862
 22
779.4003355052556
 32
0.0
 13
911.8046970992862
 23
779.4003355052556
 33
0.0
  0
SOLID
  5
24C
330
1F0
100
AcDbEntity
  8
0
 62
     6
100
AcDbTrace
 10
909.3046970992862
 20
274.4003355052557
 30
0.0
 11
914.3046970992861
 21
274.4003355052557
 31
0.0
 12
911.8046970992862
 22
259.4003355052556
 32
0.0
 13
911.8046970992862
 23
259.4003355052556
 33
0.0
  0
MTEXT
  5
24D
330
1F0
100
AcDbEntity
  8
0
 62
     0
100
AcDbMText
 10
896.804697099286
 20
519.4003355052558
 30
0.0
 40
20.0
 41
0.0
 71
     5
 72
     1
  1
520
 11
0.0000000000000001
 21
1.0
 31
0.0
 73
     1
 44
1.0
1001
ACAD
1000
MTEXTBEGIN
1070
    73
1070
     1
1070
    44
1040
1.0
1070
    74
1070
     0
1000
MTEXTEND
  0
POINT
  5
24E
330
1F0
100
AcDbEntity
  8
Defpoints
 62
     0
100
AcDbPoint
 10
696.1982550722447
 20
779.4003355052557
 30
0.0
  0
POINT
  5
24F
330
1F0
100
AcDbEntity
  8
Defpoints
 62
     0
100
AcDbPoint
 10
741.1982550722448
 20
259.4003355052557
 30
0.0
  0
POINT
  5
250
330
1F0
100
AcDbEntity
  8
Defpoints
 62
     0
100
AcDbPoint
 10
911.8046970992862
 20
259.4003355052556
 30
0.0
  0
ENDBLK
  5
1FB
330
1F0
100
AcDbEntity
  8
0
100
AcDbBlockEnd
  0
BLOCK
  5
206
330
1FC
100
AcDbEntity
  8
0
100
AcDbBlockBegin
  2
*D10
 70
     1
 10
0.0
 20
0.0
 30
0.0
  3
*D10
  1

  0
LINE
  5
28C
330
1FC
100
AcDbEntity
  8
0
 62
     6
370
    -2
100
AcDbLine
 10
843.7951016053977
 20
1107.030016136458
 30
0.0
 11
869.5169648238262
 21
1107.030016136458
 31
0.0
  0
LINE
  5
28D
330
1FC
100
AcDbEntity
  8
0
 62
     6
370
    -2
100
AcDbLine
 10
718.3624004054402
 20
878.4303786854691
 30
0.0
 11
869.5169648238262
 21
878.4303786854691
 31
0.0
  0
LINE
  5
28E
330
1FC
100
AcDbEntity
  8
0
 62
     6
370
    -2
100
AcDbLine
 10
868.2669648238263
 20
1092.030016136457
 30
0.0
 11
868.2669648238263
 21
893.4303786854689
 31
0.0
  0
SOLID
  5
28F
330
1FC
100
AcDbEntity
  8
0
 62
     6
100
AcDbTrace
 10
865.7669648238263
 20
1092.030016136457
 30
0.0
 11
870.7669648238264
 21
1092.030016136457
 31
0.0
 12
868.2669648238263
 22
1107.030016136458
 32
0.0
 13
868.2669648238263
 23
1107.030016136458
 33
0.0
  0
SOLID
  5
290
330
1FC
100
AcDbEntity
  8
0
 62
     6
100
AcDbTrace
 10
865.7669648238263
 20
893.4303786854689
 30
0.0
 11
870.7669648238264
 21
893.4303786854689
 31
0.0
 12
868.2669648238263
 22
878.4303786854691
 32
0.0
 13
868.2669648238263
 23
878.4303786854691
 33
0.0
  0
MTEXT
  5
291
330
1FC
100
AcDbEntity
  8
0
 62
     0
100
AcDbMText
 10
853.2669648238263
 20
992.7301974109637
 30
0.0
 40
20.0
 41
0.0
 71
     5
 72
     1
  1
229
 11
0.0000000000000001
 21
1.0
 31
0.0
 73
     1
 44
1.0
1001
ACAD
1000
MTEXTBEGIN
1070
    73
1070
     1
1070
    44
1040
1.0
1070
    74
1070
     0
1000
MTEXTEND
  0
POINT
  5
292
330
1FC
100
AcDbEntity
  8
Defpoints
 62
     0
100
AcDbPoint
 10
843.1701016053978
 20
1107.030016136458
 30
0.0
  0
POINT
  5
293
330
1FC
100
AcDbEntity
  8
Defpoints
 62
     0
100
AcDbPoint
 10
717.7374004054402
 20
878.4303786854691
 30
0.0
  0
POINT
  5
294
330
1FC
100
AcDbEntity
  8
Defpoints
 62
     0
100
AcDbPoint
 10
868.2669648238263
 20
878.4303786854691
 30
0.0
  0
ENDBLK
  5
207
330
1FC
100
AcDbEntity
  8
0
100
AcDbBlockEnd
  0
ENDSEC
  0
SECTION
  2
ENTITIES
  0
MTEXT
  5
163
330
1F
100
AcDbEntity
  8
0
100
AcDbMText
 10
1549.804792656787
 20
178.0839388484676
 30
0.0
 40
45.0
 41
318.75
 71
     1
 72
     5
  1
{\fSimSun|b0|i0|c134|p2;8 6 3}
 73
     1
 44
1.0
1001
ACAD
1000
MTEXTBEGIN
1070
    73
1070
     1
1070
    44
1040
1.0
1070
    74
1070
     0
1000
MTEXTEND
  0
LINE
  5
16B
330
1F
100
AcDbEntity
  8
Title Block
100
AcDbLine
 10
1775.783569249702
 20
1222.305284565202
 30
0.0
 11
1775.783569249702
 21
1255.670338815202
 31
0.0
  0
LINE
  5
16C
330
1F
100
AcDbEntity
  8
Title Block
100
AcDbLine
 10
1647.976253751075
 20
1222.305284565202
 30
0.0
 11
1647.976253751075
 21
1255.670338815202
 31
0.0
  0
LWPOLYLINE
  5
16D
330
1F
100
AcDbEntity
  8
Title Block
100
AcDbPolyline
 90
        2
 70
     0
 43
2.66920434
 10
2055.731213438549
 20
672.4491905252
 10
2042.385191738553
 20
672.4491905252
  0
LINE
  5
16E
330
1F
100
AcDbEntity
  8
Title Block
100
AcDbLine
 10
1407.11455881856
 20
1222.305284565202
 30
0.0
 11
1407.11455881856
 21
1255.670338815202
 31
0.0
  0
LINE
  5
16F
330
1F
100
AcDbEntity
  8
Title Block
100
AcDbLine
 10
1289.669567858566
 20
1289.035393065202
 30
0.0
 11
1289.669567858566
 21
1222.305284565202
 31
0.0
  0
LINE
  5
170
330
1F
100
AcDbEntity
  8
Title Block
100
AcDbLine
 10
1289.669567858566
 20
1222.305284565202
 30
0.0
 11
2023.700761358551
 21
1222.305284565202
 31
0.0
  0
LINE
  5
171
330
1F
100
AcDbEntity
  8
Title Block
100
AcDbLine
 10
1289.669567858566
 20
1255.670338815202
 30
0.0
 11
2023.700761358551
 21
1255.670338815202
 31
0.0
  0
SOLID
  5
172
330
1F
100
AcDbEntity
  8
Title Block
100
AcDbTrace
 10
2042.385191738553
 20
652.4301579751993
 30
0.0
 11
2042.385191738553
 21
692.4682230752007
 31
0.0
 12
2023.700761358551
 22
672.4491905252
 32
0.0
 13
2023.700761358551
 23
672.4491905252
 33
0.0
  0
LINE
  5
173
330
1F
100
AcDbEntity
  8
Title Block
100
AcDbLine
 10
2023.700761358551
 20
55.86298798520172
 30
0.0
 11
2023.700761358551
 21
1289.035393065202
 31
0.0
  0
LWPOLYLINE
  5
174
330
1F
100
AcDbEntity
  8
Title Block
100
AcDbPolyline
 90
        2
 70
     0
 43
2.66920434
 10
1038.764359898551
 20
1322.400447315202
 10
1038.764359898551
 20
1309.054425615203
  0
LWPOLYLINE
  5
175
330
1F
100
AcDbEntity
  8
Title Block
100
AcDbPolyline
 90
        2
 70
     0
 43
2.66920434
 10
21.79750635856065
 20
672.4491905252
 10
35.14352805855627
 20
672.4491905252
  0
LWPOLYLINE
  5
176
330
1F
100
AcDbEntity
  8
Title Block
100
AcDbPolyline
 90
        2
 70
     0
 43
2.66920434
 10
1038.764359898551
 20
22.49793373520177
 10
1038.764359898551
 20
35.84395543520102
  0
SOLID
  5
177
330
1F
100
AcDbEntity
  8
Title Block
100
AcDbTrace
 10
35.14352805855627
 20
652.4301579751993
 30
0.0
 11
35.14352805855627
 21
692.4682230752007
 31
0.0
 12
53.82795843855887
 22
672.4491905252
 32
0.0
 13
53.82795843855887
 23
672.4491905252
 33
0.0
  0
LINE
  5
178
330
1F
100
AcDbEntity
  8
Title Block
100
AcDbLine
 10
53.82795843855887
 20
1289.035393065202
 30
0.0
 11
53.82795843855887
 21
55.86298798520172
 31
0.0
  0
SOLID
  5
179
330
1F
100
AcDbEntity
  8
Title Block
100
AcDbTrace
 10
1018.74532734855
 20
1309.054425615203
 30
0.0
 11
1058.783392448559
 21
1309.054425615203
 31
0.0
 12
1038.764359898551
 22
1289.035393065202
 32
0.0
 13
1038.764359898551
 23
1289.035393065202
 33
0.0
  0
SOLID
  5
17A
330
1F
100
AcDbEntity
  8
Title Block
100
AcDbTrace
 10
1018.74532734855
 20
35.84395543520102
 30
0.0
 11
1058.783392448559
 21
35.84395543520102
 31
0.0
 12
1038.764359898551
 22
55.86298798520172
 32
0.0
 13
1038.764359898551
 23
55.86298798520172
 33
0.0
  0
LINE
  5
17B
330
1F
100
AcDbEntity
  8
Title Block
100
AcDbLine
 10
2023.700761358551
 20
1289.035393065202
 30
0.0
 11
53.82795843855887
 21
1289.035393065202
 31
0.0
  0
LINE
  5
17C
330
1F
100
AcDbEntity
  8
Title Block
100
AcDbLine
 10
53.82795843855887
 20
55.86298798520172
 30
0.0
 11
2023.700761358551
 21
55.86298798520172
 31
0.0
  0
MTEXT
  5
17D
330
1F
100
AcDbEntity
  8
0
100
AcDbMText
 10
1307.777893476463
 20
1249.899768150834
 30
0.0
 40
20.389755375
 41
147.3864392174451
 71
     1
 72
     5
  1
{\fSimSun|b0|i0|c134|p54;设 计}
 73
     1
 44
1.0
1001
ACAD
1000
MTEXTBEGIN
1070
    73
1070
     1
1070
    44
1040
1.0
1070
    74
1070
     0
1000
MTEXTEND
  0
MTEXT
  5
17E
330
1F
100
AcDbEntity
  8
0
100
AcDbMText
 10
1452.126631073128
 20
1254.21766137685
 30
0.0
 40
30.58463306250001
 41
355.9985593180896
 71
     1
 72
     5
  1
{\fSimSun|b0|i0|c134|p2;Fred}
 73
     1
 44
1.0
1001
ACAD
1000
MTEXTBEGIN
1070
    73
1070
     1
1070
    44
1040
1.0
1070
    74
1070
     0
1000
MTEXTEND
  0
MTEXT
  5
17F
330
1F
100
AcDbEntity
  8
0
100
AcDbMText
 10
1667.262333124365
 20
1252.111110968748
 30
0.0
 40
20.389755375
 41
147.3864392174451
 71
     1
 72
     5
  1
{\fSimSun|b0|i0|c134|p54;日 期}
 73
     1
 44
1.0
1001
ACAD
1000
MTEXTBEGIN
1070
    73
1070
     1
1070
    44
1040
1.0
1070
    74
1070
     0
1000
MTEXTEND
  0
MTEXT
  5
180
330
1F
100
AcDbEntity
  8
0
100
AcDbMText
 10
1766.861422320958
 20
1248.208347816384
 30
0.0
 40
15.29231653125
 41
251.320196930144
 71
     1
 72
     5
  1
   {\fSimSun|b0|i0|c134|p18;2006 \fSimSun|b0|i0|c134|p54;年 07 月 17日}
 73
     1
 44
1.0
1001
ACAD
1000
MTEXTBEGIN
1070
    73
1070
     1
1070
    44
1040
1.0
1070
    74
1070
     0
1000
MTEXTEND
  0
MTEXT
  5
181
330
1F
100
AcDbEntity
  8
0
100
AcDbMText
 10
1835.44159443387
 20
83.67299984109767
 30
0.0
 40
15.29231653125
 41
190.7811139158457
 71
     1
 72
     5
  1
   {\fSimSun|b0|i0|c134|p54;年   月   日}
 73
     1
 44
1.0
1001
ACAD
1000
MTEXTBEGIN
1070
    73
1070
     1
1070
    44
1040
1.0
1070
    74
1070
     0
1000
MTEXTEND
  0
MTEXT
  5
182
330
1F
100
AcDbEntity
  8
0
100
AcDbMText
 10
1834.605755729256
 20
116.9280382490872
 30
0.0
 40
15.29231653125
 41
190.7811139158457
 71
     1
 72
     5
  1
   {\fSimSun|b0|i0|c134|p54;年   月   日}
 73
     1
 44
1.0
1001
ACAD
1000
MTEXTBEGIN
1070
    73
1070
     1
1070
    44
1040
1.0
1070
    74
1070
     0
1000
MTEXTEND
  0
MTEXT
  5
183
330
1F
100
AcDbEntity
  8
0
100
AcDbMText
 10
1739.101094830002
 20
119.8529584693354
 30
0.0
 40
20.389755375
 41
147.3864392174451
 71
     1
 72
     5
  1
{\fSimSun|b0|i0|c134|p54;日 期}
 73
     1
 44
1.0
1001
ACAD
1000
MTEXTBEGIN
1070
    73
1070
     1
1070
    44
1040
1.0
1070
    74
1070
     0
1000
MTEXTEND
  0
MTEXT
  5
184
330
1F
100
AcDbEntity
  8
0
100
AcDbMText
 10
1387.371109619131
 20
120.8838641582918
 30
0.0
 40
20.389755375
 41
103.278356829499
 71
     1
 72
     5
  1
{\fSimSun|b0|i0|c134|p54;审 核}
 73
     1
 44
1.0
1001
ACAD
1000
MTEXTBEGIN
1070
    73
1070
     1
1070
    44
1040
1.0
1070
    74
1070
     0
1000
MTEXTEND
  0
MTEXT
  5
185
330
1F
100
AcDbEntity
  8
0
100
AcDbMText
 10
1376.46633899959
 20
225.1393825996168
 30
0.0
 40
20.389755375
 41
324.9617262890617
 71
     1
 72
     5
  1
{\fSimSun|b0|i0|c134|p54;\H0.75x;材 料:}
 73
     1
 44
1.0
1001
ACAD
1000
MTEXTBEGIN
1070
    73
1070
     1
1070
    44
1040
1.0
1070
    74
1070
     0
1000
MTEXTEND
  0
MTEXT
  5
186
330
1F
100
AcDbEntity
  8
0
100
AcDbMText
 10
1376.46633899959
 20
180.2631822376318
 30
0.0
 40
15.29231653125
 41
324.9617262890617
 71
     1
 72
     5
  1
{\fSimSun|b0|i0|c134|p54;产品编号:}
 73
     1
 44
1.0
1001
ACAD
1000
MTEXTBEGIN
1070
    73
1070
     1
1070
    44
1040
1.0
1070
    74
1070
     0
1000
MTEXTEND
  0
MTEXT
  5
187
330
1F
100
AcDbEntity
  8
0
100
AcDbMText
 10
1075.373235995232
 20
208.6061851377929
 30
0.0
 40
30.58463306250001
 41
630.8080569140626
 71
     1
 72
     5
  1
{\fSimSun|b0|i0|c134|p54;\H1.667x;东原厨具}
 73
     1
 44
1.0
1001
ACAD
1000
MTEXTBEGIN
1070
    73
1070
     1
1070
    44
1040
1.0
1070
    74
1070
     0
1000
MTEXTEND
  0
LINE
  5
188
330
1F
100
AcDbEntity
  8
Title Block
100
AcDbLine
 10
1373.777308780437
 20
182.7782515471665
 30
0.0
 11
2023.700761358551
 21
182.7782515471665
 31
0.0
  0
LINE
  5
189
330
1F
100
AcDbEntity
  8
Title Block
100
AcDbLine
 10
1067.930978155432
 20
228.8355482854097
 30
0.0
 11
2023.700761358551
 21
228.8355482854097
 31
0.0
  0
LINE
  5
18A
330
1F
100
AcDbEntity
  8
Title Block
100
AcDbLine
 10
1373.777308780437
 20
55.86298798520172
 30
0.0
 11
1373.777308780437
 21
228.8355482854097
 31
0.0
  0
LINE
  5
18B
330
1F
100
AcDbEntity
  8
Title Block
100
AcDbLine
 10
1067.930978155432
 20
55.86298798520172
 30
0.0
 11
1067.930978155432
 21
228.8355482854097
 31
0.0
  0
LINE
  5
18C
330
1F
100
AcDbEntity
  8
Title Block
100
AcDbLine
 10
1067.930978155432
 20
124.4871015839237
 30
0.0
 11
2023.700761358551
 21
124.4871015839237
 31
0.0
  0
LINE
  5
18D
330
1F
100
AcDbEntity
  8
0
100
AcDbLine
 10
1373.777308780437
 20
90.1750447845591
 30
0.0
 11
2023.700761358551
 21
90.17504478456638
 31
0.0
  0
LINE
  5
18E
330
1F
100
AcDbEntity
  8
0
100
AcDbLine
 10
1720.752693231427
 20
124.4871015839237
 30
0.0
 11
1720.752693231427
 21
55.86298798520172
 31
0.0
  0
MTEXT
  5
18F
330
1F
100
AcDbEntity
  8
0
100
AcDbMText
 10
1739.101094830002
 20
85.76800302845393
 30
0.0
 40
20.389755375
 41
147.3864392174451
 71
     1
 72
     5
  1
{\fSimSun|b0|i0|c134|p54;日 期}
 73
     1
 44
1.0
1001
ACAD
1000
MTEXTBEGIN
1070
    73
1070
     1
1070
    44
1040
1.0
1070
    74
1070
     0
1000
MTEXTEND
  0
LINE
  5
190
330
1F
100
AcDbEntity
  8
0
100
AcDbLine
 10
1832.919647442707
 20
124.4871015839237
 30
0.0
 11
1832.919647442707
 21
55.86298798520172
 31
0.0
  0
LINE
  5
191
330
1F
100
AcDbEntity
  8
0
100
AcDbLine
 10
1477.055665609928
 20
124.4871015839237
 30
0.0
 11
1477.055665609928
 21
55.86298798520172
 31
0.0
  0
MTEXT
  5
192
330
1F
100
AcDbEntity
  8
0
100
AcDbMText
 10
1387.371109619131
 20
87.90037805285127
 30
0.0
 40
20.389755375
 41
103.278356829499
 71
     1
 72
     5
  1
{\fSimSun|b0|i0|c134|p54;批 准}
 73
     1
 44
1.0
1001
ACAD
1000
MTEXTBEGIN
1070
    73
1070
     1
1070
    44
1040
1.0
1070
    74
1070
     0
1000
MTEXTEND
  0
LINE
  5
1A4
330
1F
100
AcDbEntity
  8
0
370
    50
100
AcDbLine
 10
311.1982550722448
 20
1107.030016136457
 30
0.0
 11
333.1982383869692
 21
1107.030016136458
 31
0.0
  0
LINE
  5
1A5
330
1F
100
AcDbEntity
  8
0
370
    50
100
AcDbLine
 10
336.1982383869693
 20
1104.030016136458
 30
0.0
 11
336.1982383869693
 21
1087.030016136458
 31
0.0
  0
LINE
  5
1A6
330
1F
100
AcDbEntity
  8
0
370
    50
100
AcDbLine
 10
789.1982383869692
 20
1107.030016136458
 30
0.0
 11
811.1982550722455
 21
1107.030016136458
 31
0.0
  0
ARC
  5
1A7
330
1F
100
AcDbEntity
  8
0
370
    50
100
AcDbCircle
 10
561.1982383869692
 20
2877.030016136458
 30
0.0
 40
2000.0
100
AcDbArc
 50
264.9780930149948
 51
268.4326377002836
  0
LINE
  5
1A8
330
1F
100
AcDbEntity
  8
0
370
    50
100
AcDbLine
 10
336.1982383869693
 20
1087.030016136458
 30
0.0
 11
345.1341390859891
 21
927.0254319858652
 31
0.0
  0
LINE
  5
1A9
330
1F
100
AcDbEntity
  8
0
370
    50
100
AcDbLine
 10
786.1982383869692
 20
1087.030016136458
 30
0.0
 11
777.2623376879457
 21
927.0254319858652
 31
0.0
  0
ARC
  5
1AA
330
1F
100
AcDbEntity
  8
0
370
    50
100
AcDbCircle
 10
390.0641258953731
 20
929.5346719721349
 30
0.0
 40
45.0
100
AcDbArc
 50
183.196521517642
 51
264.9780930149948
  0
ARC
  5
1AB
330
1F
100
AcDbEntity
  8
0
370
    50
100
AcDbCircle
 10
732.3323508785618
 20
929.5346719721349
 30
0.0
 40
45.0
100
AcDbArc
 50
275.0219069850051
 51
356.8034784823579
  0
LINE
  5
1AC
330
1F
100
AcDbEntity
  8
0
370
    50
100
AcDbLine
 10
786.1982383869692
 20
1104.030016136458
 30
0.0
 11
786.1982383869692
 21
1087.030016136458
 31
0.0
  0
LINE
  5
1AD
330
1F
100
AcDbEntity
  8
0
370
    50
100
AcDbLine
 10
506.4937964114326
 20
877.7783001116478
 30
0.0
 11
508.6274186029152
 21
873.2563916269503
 31
0.0
  0
LINE
  5
1AE
330
1F
100
AcDbEntity
  8
0
370
    50
100
AcDbLine
 10
508.6274186029152
 20
873.2563916269503
 30
0.0
 11
515.6274186029151
 21
873.2563916269503
 31
0.0
  0
LINE
  5
1AF
330
1F
100
AcDbEntity
  8
0
370
    50
100
AcDbLine
 10
613.7690581710196
 20
873.2563916269503
 30
0.0
 11
606.7690581710196
 21
873.2563916269503
 31
0.0
  0
LINE
  5
1B0
330
1F
100
AcDbEntity
  8
0
370
    50
100
AcDbLine
 10
615.9026803625022
 20
877.7783001116478
 30
0.0
 11
613.7690581710196
 21
873.2563916269503
 31
0.0
  0
ARC
  5
1B1
330
1F
100
AcDbEntity
  8
0
370
    50
100
AcDbCircle
 10
561.1982383869692
 20
2877.030016136458
 30
0.0
 40
2000.0
100
AcDbArc
 50
271.5673622997164
 51
275.0219069850051
  0
ARC
  5
1B2
330
1F
100
AcDbEntity
  8
0
370
    50
100
AcDbCircle
 10
333.1982383869692
 20
1104.030016136458
 30
0.0
 40
3.0
100
AcDbArc
 50
0.0
 51
90.0
  0
ARC
  5
1B3
330
1F
100
AcDbEntity
  8
0
370
    50
100
AcDbCircle
 10
789.1982383869692
 20
1104.030016136458
 30
0.0
 40
3.0
100
AcDbArc
 50
90.0
 51
180.0
  0
LINE
  5
1B4
330
1F
100
AcDbEntity
  8
0
100
AcDbLine
 10
506.4937964114326
 20
877.7783001116478
 30
0.0
 11
615.9026803624986
 21
877.7783001116478
 31
0.0
  0
LINE
  5
1B5
330
1F
100
AcDbEntity
  8
0
100
AcDbLine
 10
515.6274186029151
 20
873.2563916269503
 30
0.0
 11
606.7690581710196
 21
873.2563916269503
 31
0.0
  0
LINE
  5
1B6
330
1F
100
AcDbEntity
  8
0
100
AcDbLine
 10
333.1982383869692
 20
1107.030016136458
 30
0.0
 11
789.1982383869692
 21
1107.030016136458
 31
0.0
  0
REGION
  5
1B7
102
{ACAD_REACTORS
330
1BF
330
1C5
102
}
330
1F
100
AcDbEntity
  8
0
370
    30
100
AcDbModelerGeometry
 70
     1
  1
koo ki n o          
  1
ni ^ *+0;:,4 ^ *+0\^ [ nh ^ LR iqoqmqhoml QK mk K*: R>& og njekoejh mooh 
  1
n fqfffffffffffffffj:rooh n:rono 
  1
=0;& {rn {n {rn {rn |
  1
3*2/ {rn {rn {m {o |
  1
,7:33 {rn {rn {rn {l {rn {n |
  1
9><: {rn {rn {k {m {rn {j 90-(>-; ;0*=3: 0*+ |
  1
300/ {rn {rn {i {l |
  1
/3>1:r,*-9><: {rn jinqnfgmjjohmmkkgm johqjlkimhiohhhikl o o o n n o o 90-(>-;@) V V V V |
  1
<0:;8: {rn {h {g {rn {f 90-(>-; {k {rn |
  1
<0:;8: {rn {no {i {rn {nn -:):-,:; {k {rn |
  1
<0:;8: {rn {i {nm {rn {nl -:):-,:; {k {rn |
  1
:;8: {rn {nk {nj {i {ni 90-(>-; |
  1
<0:;8: {rn {nh {h {rn {ng 90-(>-; {k {rn |
  1
:;8: {rn {nf {nj {h {mo 90-(>-; |
  1
<0:;8: {rn {g {mn {rn {mm 90-(>-; {k {rn |
  1
:;8: {rn {nk {ml {g {mk 90-(>-; |
  1
):-+:' {rn {f {mj |
  1
):-+:' {rn {f {mi |
  1
:336/,:r<*-): {rn igiqnfgmjjohmmkkgm lgkqkoolljjojmjjhl o o o n noo o o n V V |
  1
<0:;8: {rn {mh {no {rn {mg 90-(>-; {k {rn |
  1
:;8: {rn {nf {mf {no {lo 90-(>-; |
  1
):-+:' {rn {nn {ln |
  1
,+->687+r<*-): {rn hgiqnfgmjjohmmkkgm jghqjofmmigmfgnojf o o rn o V V |
  1
<0:;8: {rn {nm {mh {rn {lm -:):-,:; {k {rn |
  1
:;8: {rn {ll {ml {nm {lk 90-(>-; |
  1
):-+:' {rn {mm {lj |
  1
,+->687+r<*-): {rn igiqnfgmjjohmmkkgm mgkqkoolljjojmjjhl o rn kqjkhkhljoggikilfl:roni o V V |
  1
/061+ {rn igiqnfgmjjohmmkkgm mgkqkoolljjojmjjhl o |
  1
/061+ {rn hgiqnfgmjjohmmkkgm lgkqkoolljjojmjjhl o |
  1
<0:;8: {rn {mn {nh {rn {li 90-(>-; {k {rn |
  1
:;8: {rn {mf {lh {nh {lg 90-(>-; |
  1
):-+:' {rn {ng {lf |
  1
:336/,:r<*-): {rn imiqnfgmjjohmmkkgm jghqjofmmigmfgnojf o o o n nio o o n V V |
  1
/061+ {rn hgiqnfgmjjohmmkkgm jghqjofmmigmfgnojf o |
  1
:;8: {rn {ll {ko {mn {kn 90-(>-; |
  1
):-+:' {rn {lm {km |
  1
:336/,:r<*-): {rn kliqnfgmjjohmmkkgm lgkqkoolljjojmjjhl o o o n noo o o n V V |
  1
/061+ {rn kliqnfgmjjohmmkkgm mgkqkoolljjojmjjhl o |
  1
:;8: {rn {lh {ko {mh {kl 90-(>-; |
  1
):-+:' {rn {mg {kk |
  1
:336/,:r<*-): {rn jinqnfgmjjohmmkkgm mgkqkoolljjojmjjhl o o o n kifqfffffffffffffk o o n V V |
  1
/061+ {rn ijfqhkiikmnifonhi hklqfjmjmjjhhfiijl o |
  1
):-+:' {rn {li {kj |
  1
,+->687+r<*-): {rn lliqnfgmjjohmmkkgm lgkqkoolljjojmjjhl o mqhfgiihngmkmnigjh:roni n o V V |
  1
/061+ {rn lliqnfgmjjohmmkkgm lgkqkoolljjojmjjhl o |
  1
:336/,:r<*-): {rn kfiqnfgmjjohmmkkgm jghqjofmmigmfgnojf o o o n nio o o n V V |
  1
/061+ {rn kimqikfgihfhjkhmol hklqfjmjmjjhhfiijl o |
  1
/061+ {rn lliqnfgmjjohmmkkgm jghqjofmmigmfgnojf o |
  0
REGION
  5
1B8
102
{ACAD_REACTORS
330
1C2
330
1C8
102
}
330
1F
100
AcDbEntity
  8
0
370
    30
100
AcDbModelerGeometry
 70
     1
  1
koo ki n o          
  1
ni ^ *+0;:,4 ^ *+0\^ [ nh ^ LR iqoqmqhoml QK mk K*: R>& og njekoejh mooh 
  1
n fqfffffffffffffffj:rooh n:rono 
  1
=0;& {rn {n {rn {rn |
  1
3*2/ {rn {rn {m {o |
  1
,7:33 {rn {rn {rn {l {rn {n |
  1
9><: {rn {rn {k {m {rn {j 90-(>-; ;0*=3: 0*+ |
  1
300/ {rn {rn {i {l |
  1
/3>1:r,*-9><: {rn jinqnfgmjjohmmkkgm jofqffofjfonnmmfjn o o o n n o o 90-(>-;@) V V V V |
  1
<0:;8: {rn {h {g {rn {f -:):-,:; {k {rn |
  1
<0:;8: {rn {no {i {rn {nn 90-(>-; {k {rn |
  1
<0:;8: {rn {i {nm {rn {nl 90-(>-; {k {rn |
  1
:;8: {rn {nk {nj {i {ni 90-(>-; |
  1
<0:;8: {rn {nh {h {rn {ng -:):-,:; {k {rn |
  1
:;8: {rn {nk {nf {h {mo 90-(>-; |
  1
<0:;8: {rn {g {mn {rn {mm 90-(>-; {k {rn |
  1
:;8: {rn {ml {nj {g {mk 90-(>-; |
  1
):-+:' {rn {f {mj |
  1
):-+:' {rn {f {mi |
  1
,+->687+r<*-): {rn gnnqnfgmjjohmmkkgm lmfqkoolljjojmjjhl o roqhohnoihgnngijkhki roqhohnoihgnngijkhki o V V |
  1
<0:;8: {rn {mh {no {rn {mg 90-(>-; {k {rn |
  1
:;8: {rn {mf {nf {no {lo 90-(>-; |
  1
):-+:' {rn {ng {ln |
  1
,+->687+r<*-): {rn gnnqnfgmjjohmmkkgm lmfqkoolljjojmjjhl o mqolingmnignkglkgn:ronj n o V V |
  1
<0:;8: {rn {nm {mh {rn {lm 90-(>-; {k {rn |
  1
:;8: {rn {ll {ml {nm {lk 90-(>-; |
  1
):-+:' {rn {nl {lj |
  1
,+->687+r<*-): {rn lgnqnfgmjjohmmkkgm mjfqkoolljjojmjjhl o n hqgfkfnfmgimmllkln:ronh o V V |
  1
/061+ {rn gnnqnfgmjjohmmkkgm lmfqkoolljjojmjjhl o |
  1
/061+ {rn hknqnfgmjjohmmkkgm mjfqkoolljjojmjjhl o |
  1
<0:;8: {rn {mn {nh {rn {li 90-(>-; {k {rn |
  1
:;8: {rn {mf {lh {nh {lg 90-(>-; |
  1
):-+:' {rn {mg {lf |
  1
,+->687+r<*-): {rn ifiqnfgmjjohmmkkgm hhfqkoolljjojmjjhl o oqhohnoihgnngijkifn roqhohnoihgnngijkgmk o V V |
  1
/061+ {rn gnnqnfgmjjohmmkkgm iikqkoolljjojmjjhl o |
  1
:;8: {rn {ko {ll {mn {kn 90-(>-; |
  1
):-+:' {rn {mm {km |
  1
,+->687+r<*-): {rn lnnqnfgmjjohmmkkgm lmfqkoolljjojmjjhl o oqhohnoihgnngijkhlj roqhohnoihgnngijkhig o V V |
  1
/061+ {rn lgnqnfgmjjohmmkkgm mjfqkoolljjojmjjhl o |
  1
:;8: {rn {lh {ko {mh {kl 90-(>-; |
  1
):-+:' {rn {li {kk |
  1
,+->687+r<*-): {rn ifiqnfgmjjohmmkkgm hhfqkoolljjojmjjhl o rn kqmnoimlinflnfnogk:roni o V V |
  1
/061+ {rn ifiqnfgmjjohmmkkgm hhfqkoolljjojmjjhl o |
  1
):-+:' {rn {lm {kj |
  1
,+->687+r<*-): {rn lnnqnfgmjjohmmkkgm iikqkoolljjojmjjhl o rlqlflilifkifnlfnok:roni rn o V V |
  1
/061+ {rn lnnqnfgmjjohmmkkgm lmfqkoolljjojmjjhl o |
  1
,+->687+r<*-): {rn kmiqnfgmjjohmmkkgm hhfqkoolljjojmjjhl o roqhohnoihgnngijkhki roqhohnoihgnngijkhki o V V |
  1
/061+ {rn kmiqnfgmjjohmmkkgm hhfqkoolljjojmjjhl o |
  1
/061+ {rn lnnqnfgmjjohmmkkgm iikqkoolljjojmjjhl o |
  0
CIRCLE
  5
1B9
330
1F
100
AcDbEntity
  8
0
100
AcDbCircle
 10
561.1982550722448
 20
584.4003355052556
 30
0.0
 40
45.0
  0
CIRCLE
  5
1BA
330
1F
100
AcDbEntity
  8
0
100
AcDbCircle
 10
561.1982550722448
 20
584.4003355052556
 30
0.0
 40
57.5
  0
CIRCLE
  5
1BB
330
1F
100
AcDbEntity
  8
0
100
AcDbCircle
 10
561.1982550722448
 20
584.4003355052556
 30
0.0
 40
61.0
  0
DIMENSION
  5
1BD
102
{ACAD_XDICTIONARY
360
1BE
102
}
102
{ACAD_REACTORS
330
1BF
102
}
330
1F
100
AcDbEntity
  8
0
100
AcDbDimension
  2
*D6
 10
786.1982550722448
 20
219.0776063832748
 30
0.0
 11
561.1982550722448
 21
234.0776063832748
 31
0.0
 70
    32
 71
     5
 42
450.0
  3
副本ISO-25
100
AcDbAlignedDimension
 13
336.1982550722448
 23
384.4003355052557
 33
0.0
 14
786.1982550722448
 24
384.4003355052557
 34
0.0
100
AcDbRotatedDimension
  0
DIMENSION
  5
1C0
102
{ACAD_XDICTIONARY
360
1C1
102
}
102
{ACAD_REACTORS
330
1C2
102
}
330
1F
100
AcDbEntity
  8
0
100
AcDbDimension
  2
*D7
 10
811.1982550722448
 20
166.0886048094837
 30
0.0
 11
561.1982550722448
 21
181.0886048094837
 31
0.0
 70
    32
 71
     5
 42
500.0
  3
副本ISO-25
100
AcDbAlignedDimension
 13
311.1982550722448
 23
329.4003355052557
 33
0.0
 14
811.1982550722448
 24
329.4003355052557
 34
0.0
100
AcDbRotatedDimension
  0
DIMENSION
  5
1C3
102
{ACAD_XDICTIONARY
360
1C4
102
}
102
{ACAD_REACTORS
330
1C5
102
}
330
1F
100
AcDbEntity
  8
0
100
AcDbDimension
  2
*D8
 10
865.1309648238227
 20
284.4003355052557
 30
0.0
 11
850.1309648238224
 21
519.4003355052558
 31
0.0
 70
    32
 71
     5
 42
469.9999999999999
  3
副本ISO-25
100
AcDbAlignedDimension
 13
561.1982550722447
 23
754.4003355052557
 33
0.0
 14
686.1982550722448
 24
284.4003355052557
 34
0.0
 50
90.0
100
AcDbRotatedDimension
  0
DIMENSION
  5
1C6
102
{ACAD_XDICTIONARY
360
1C7
102
}
102
{ACAD_REACTORS
330
1C8
102
}
330
1F
100
AcDbEntity
  8
0
100
AcDbDimension
  2
*D9
 10
911.8046970992862
 20
259.4003355052556
 30
0.0
 11
896.804697099286
 21
519.4003355052558
 31
0.0
 70
    32
 71
     5
 42
520.0
  3
副本ISO-25
100
AcDbAlignedDimension
 13
696.1982550722447
 23
779.4003355052557
 33
0.0
 14
741.1982550722448
 24
259.4003355052557
 34
0.0
 50
90.0
100
AcDbRotatedDimension
  0
DIMENSION
  5
1C9
330
1F
100
AcDbEntity
  8
0
100
AcDbDimension
  2
*D10
 10
868.2669648238263
 20
878.4303786854691
 30
0.0
 11
853.2669648238263
 21
992.7301974109637
 31
0.0
 70
    32
 71
     5
 42
228.5996374509888
  3
副本ISO-25
100
AcDbAlignedDimension
 13
843.1701016053978
 23
1107.030016136458
 33
0.0
 14
717.7374004054402
 24
878.4303786854691
 34
0.0
 50
90.0
100
AcDbRotatedDimension
  0
MTEXT
  5
219
330
1F
100
AcDbEntity
  8
0
100
AcDbMText
 10
1499.509220269238
 20
215.4541370594746
 30
0.0
 40
22.0
 41
468.75
 71
     1
 72
     5
  1
{\fSimSun|b0|i0|c134|p2;1.2mm SUS304 STAINLESS STEEL}
 73
     1
 44
1.0
1001
ACAD
1000
MTEXTBEGIN
1070
    73
1070
     1
1070
    44
1040
1.0
1070
    74
1070
     0
1000
MTEXTEND
  0
ENDSEC
  0
SECTION
  2
OBJECTS
  0
DICTIONARY
  5
C
330
0
100
AcDbDictionary
281
     1
  3
ACAD_COLOR
350
73
  3
ACAD_GROUP
350
D
  3
ACAD_LAYOUT
350
1A
  3
ACAD_MATERIAL
350
72
  3
ACAD_MLINESTYLE
350
17
  3
ACAD_PLOTSETTINGS
350
19
  3
ACAD_PLOTSTYLENAME
350
E
  3
ACDBHEADERROUNDTRIPXREC
350
2F0
  3
AcDbVariableDictionary
350
66
  0
DICTIONARY
  5
1BE
330
1BD
100
AcDbDictionary
280
     1
281
     1
  3
ACAD_DIMASSOC
360
1BF
  0
DICTIONARY
  5
1C1
330
1C0
100
AcDbDictionary
280
     1
281
     1
  3
ACAD_DIMASSOC
360
1C2
  0
DICTIONARY
  5
1C4
330
1C3
100
AcDbDictionary
280
     1
281
     1
  3
ACAD_DIMASSOC
360
1C5
  0
DICTIONARY
  5
1C7
330
1C6
100
AcDbDictionary
280
     1
281
     1
  3
ACAD_DIMASSOC
360
1C8
  0
DICTIONARY
  5
73
102
{ACAD_REACTORS
330
C
102
}
330
C
100
AcDbDictionary
281
     1
  0
DICTIONARY
  5
D
102
{ACAD_REACTORS
330
C
102
}
330
C
100
AcDbDictionary
281
     1
  0
DICTIONARY
  5
1A
102
{ACAD_REACTORS
330
C
102
}
330
C
100
AcDbDictionary
281
     1
  3
Model
350
22
  3
布局1
350
59
  3
布局2
350
5E
  0
DICTIONARY
  5
72
102
{ACAD_REACTORS
330
C
102
}
330
C
100
AcDbDictionary
281
     1
  0
DICTIONARY
  5
17
102
{ACAD_REACTORS
330
C
102
}
330
C
100
AcDbDictionary
281
     1
  3
Standard
350
18
  0
DICTIONARY
  5
19
102
{ACAD_REACTORS
330
C
102
}
330
C
100
AcDbDictionary
281
     1
  0
ACDBDICTIONARYWDFLT
  5
E
102
{ACAD_REACTORS
330
C
102
}
330
C
100
AcDbDictionary
281
     1
  3
Normal
350
F
100
AcDbDictionaryWithDefault
340
F
  0
DICTIONARY
  5
2F0
102
{ACAD_REACTORS
330
C
102
}
330
C
100
AcDbDictionary
281
     1
  3
COLORDICT
350
2F2
  3
MATERIALDICT
350
2F1
  0
DICTIONARY
  5
66
102
{ACAD_REACTORS
330
C
102
}
330
C
100
AcDbDictionary
281
     1
  3
DIMASSOC
350
67
  3
HIDETEXT
350
6B
  3
PROJECTNAME
350
2EE
  0
DIMASSOC
  5
1BF
102
{ACAD_REACTORS
330
1BE
102
}
330
1BE
100
AcDbDimAssoc
330
1BD
 90
        3
 70
     0
 71
     0
  1
AcDbOsnapPointRef
 72
    13
331
1B7
 73
     2
 91
        6
 40
0.0
 10
0.0
 20
0.0
 30
2.000000000000000E+50
 75
     0
  1
AcDbOsnapPointRef
 72
     8
331
1B7
 73
     2
 91
        1
 40
6.283185307179583
 10
0.0
 20
0.0
 30
0.0
 75
     1
  1
AcDbOsnapPointRef
 72
    13
331
1B7
 73
     2
 91
        6
 40
0.0
 10
0.0
 20
0.0
 30
2.000000000000000E+50
 75
     0
  0
DIMASSOC
  5
1C2
102
{ACAD_REACTORS
330
1C1
102
}
330
1C1
100
AcDbDimAssoc
330
1C0
 90
        3
 70
     0
 71
     0
  1
AcDbOsnapPointRef
 72
     6
331
1B8
 73
     2
 91
        7
 40
-0.0000000000000032
 10
0.0
 20
0.0
 30
0.0
332
1B8
 74
     2
 92
        6
 75
     0
  1
AcDbOsnapPointRef
 72
     8
331
1B8
 73
     2
 91
        2
 40
-0.000000000000002
 10
0.0
 20
0.0
 30
0.0
 75
     1
  1
AcDbOsnapPointRef
 72
     6
331
1B8
 73
     2
 91
        7
 40
-0.0000000000000032
 10
0.0
 20
0.0
 30
0.0
332
1B8
 74
     2
 92
        6
 75
     0
  0
DIMASSOC
  5
1C5
102
{ACAD_REACTORS
330
1C4
102
}
330
1C4
100
AcDbDimAssoc
330
1C3
 90
        1
 70
     0
 71
     0
  1
AcDbOsnapPointRef
 72
     2
331
1B7
 73
     2
 91
        4
 40
1.570796326794897
 10
0.0
 20
0.0
 30
0.0
 75
     0
  0
DIMASSOC
  5
1C8
102
{ACAD_REACTORS
330
1C7
102
}
330
1C7
100
AcDbDimAssoc
330
1C6
 90
        1
 70
     0
 71
     0
  1
AcDbOsnapPointRef
 72
    13
331
1B8
 73
     2
 91
        4
 40
0.0
 10
0.0
 20
0.0
 30
2.000000000000000E+50
 75
     0
  0
LAYOUT
  5
22
102
{ACAD_XDICTIONARY
360
2F3
102
}
102
{ACAD_REACTORS
330
1A
102
}
330
1A
100
AcDbPlotSettings
  1

  2
none_device
  4
ANSI_A_(8.50_x_11.00_Inches)
  6

 40
6.349999904632568
 41
19.04999923706055
 42
6.350006103515625
 43
19.04998779296875
 44
215.8999938964844
 45
279.3999938964844
 46
0.0
 47
0.0
 48
0.0
 49
0.0
140
0.0
141
0.0
142
1.0
143
2.584895464708373
 70
 11952
 72
     0
 73
     1
 74
     0
  7

 75
     0
147
0.3868628397755418
148
0.0
149
0.0
100
AcDbLayout
  1
Model
 70
     1
 71
     0
 10
0.0
 20
0.0
 11
12.0
 21
9.0
 12
0.0
 22
0.0
 32
0.0
 14
0.0
 24
0.0
 34
0.0
 15
0.0
 25
0.0
 35
0.0
146
0.0
 13
0.0
 23
0.0
 33
0.0
 16
1.0
 26
0.0
 36
0.0
 17
0.0
 27
1.0
 37
0.0
 76
     0
330
1F
  0
LAYOUT
  5
59
102
{ACAD_XDICTIONARY
360
2F5
102
}
102
{ACAD_REACTORS
330
1A
102
}
330
1A
100
AcDbPlotSettings
  1

  2
None
  4

  6

 40
0.0
 41
0.0
 42
0.0
 43
0.0
 44
0.0
 45
0.0
 46
0.0
 47
0.0
 48
0.0
 49
0.0
140
0.0
141
0.0
142
1.0
143
1.0
 70
   688
 72
     0
 73
     0
 74
     5
  7

 75
    16
147
1.0
148
0.0
149
0.0
100
AcDbLayout
  1
布局1
 70
     1
 71
     1
 10
0.0
 20
0.0
 11
12.0
 21
9.0
 12
0.0
 22
0.0
 32
0.0
 14
0.0
 24
0.0
 34
0.0
 15
0.0
 25
0.0
 35
0.0
146
0.0
 13
0.0
 23
0.0
 33
0.0
 16
1.0
 26
0.0
 36
0.0
 17
0.0
 27
1.0
 37
0.0
 76
     0
330
58
  0
LAYOUT
  5
5E
102
{ACAD_XDICTIONARY
360
2F7
102
}
102
{ACAD_REACTORS
330
1A
102
}
330
1A
100
AcDbPlotSettings
  1

  2
None
  4

  6

 40
0.0
 41
0.0
 42
0.0
 43
0.0
 44
0.0
 45
0.0
 46
0.0
 47
0.0
 48
0.0
 49
0.0
140
0.0
141
0.0
142
1.0
143
1.0
 70
   688
 72
     0
 73
     0
 74
     5
  7

 75
    16
147
1.0
148
0.0
149
0.0
100
AcDbLayout
  1
布局2
 70
     1
 71
     2
 10
0.0
 20
0.0
 11
12.0
 21
9.0
 12
0.0
 22
0.0
 32
0.0
 14
0.0
 24
0.0
 34
0.0
 15
0.0
 25
0.0
 35
0.0
146
0.0
 13
0.0
 23
0.0
 33
0.0
 16
1.0
 26
0.0
 36
0.0
 17
0.0
 27
1.0
 37
0.0
 76
     0
330
5D
  0
MLINESTYLE
  5
18
102
{ACAD_REACTORS
330
17
102
}
330
17
100
AcDbMlineStyle
  2
STANDARD
 70
     0
  3

 62
   256
 51
90.0
 52
90.0
 71
     2
 49
0.5
 62
   256
  6
BYLAYER
 49
-0.5
 62
   256
  6
BYLAYER
  0
ACDBPLACEHOLDER
  5
F
102
{ACAD_REACTORS
330
E
102
}
330
E
  0
XRECORD
  5
2F2
102
{ACAD_REACTORS
330
2F0
102
}
330
2F0
100
AcDbXrecord
280
     1
340
73
  0
XRECORD
  5
2F1
102
{ACAD_REACTORS
330
2F0
102
}
330
2F0
100
AcDbXrecord
280
     1
340
72
  0
DICTIONARYVAR
  5
67
102
{ACAD_REACTORS
330
66
102
}
330
66
100
DictionaryVariables
280
     0
  1
2
  0
DICTIONARYVAR
  5
6B
102
{ACAD_REACTORS
330
66
102
}
330
66
100
DictionaryVariables
280
     0
  1
1
  0
DICTIONARYVAR
  5
2EE
102
{ACAD_REACTORS
330
66
102
}
330
66
100
DictionaryVariables
280
     0
  1

  0
DICTIONARY
  5
2F3
330
22
100
AcDbDictionary
280
     1
281
     1
  3
ACAD_XREC_ROUNDTRIP
360
2F4
  0
DICTIONARY
  5
2F5
330
59
100
AcDbDictionary
280
     1
281
     1
  3
ACAD_XREC_ROUNDTRIP
360
2F6
  0
DICTIONARY
  5
2F7
330
5E
100
AcDbDictionary
280
     1
281
     1
  3
ACAD_XREC_ROUNDTRIP
360
2F8
  0
XRECORD
  5
2F4
102
{ACAD_REACTORS
330
2F3
102
}
330
2F3
100
AcDbXrecord
280
     1
102
SHADEPLOT
 70
     0
102
SHADEPLOTRESLEVEL
 70
     2
102
SHADEPLOTCUSTOMDPI
 70
   300
  0
XRECORD
  5
2F6
102
{ACAD_REACTORS
330
2F5
102
}
330
2F5
100
AcDbXrecord
280
     1
102
SHADEPLOT
 70
     0
102
SHADEPLOTRESLEVEL
 70
     2
102
SHADEPLOTCUSTOMDPI
 70
   300
  0
XRECORD
  5
2F8
102
{ACAD_REACTORS
330
2F7
102
}
330
2F7
100
AcDbXrecord
280
     1
102
SHADEPLOT
 70
     0
102
SHADEPLOTRESLEVEL
 70
     2
102
SHADEPLOTCUSTOMDPI
 70
   300
  0
ENDSEC
  0
EOF
