  0
SECTION
  2
HEADER
  9
$ACADVER
  1
AC1018
  9
$ACADMAINTVER
 70
     0
  9
$DWGCODEPAGE
  3
ANSI_936
  9
$INSBASE
 10
0.0
 20
0.0
 30
0.0
  9
$EXTMIN
 10
6717.009667212464
 20
594.8487843902182
 30
0.0
  9
$EXTMAX
 10
7483.054599677638
 20
1270.580397866874
 30
0.0
  9
$LIMMIN
 10
0.0
 20
0.0
  9
$LIMMAX
 10
12.0
 20
9.0
  9
$ORTHOMODE
 70
     0
  9
$REGENMODE
 70
     1
  9
$FILLMODE
 70
     1
  9
$QTEXTMODE
 70
     0
  9
$MIRRTEXT
 70
     0
  9
$LTSCALE
 40
1.0
  9
$ATTMODE
 70
     1
  9
$TEXTSIZE
 40
0.2
  9
$TRACEWID
 40
0.05
  9
$TEXTSTYLE
  7
Standard
  9
$CLAYER
  8
标注线
  9
$CELTYPE
  6
ByLayer
  9
$CECOLOR
 62
   256
  9
$CELTSCALE
 40
1.0
  9
$DISPSILH
 70
     0
  9
$DIMSCALE
 40
1.0
  9
$DIMASZ
 40
18.0
  9
$DIMEXO
 40
10.0
  9
$DIMDLI
 40
3.75
  9
$DIMRND
 40
0.0
  9
$DIMDLE
 40
0.0
  9
$DIMEXE
 40
5.0
  9
$DIMTP
 40
0.0
  9
$DIMTM
 40
0.0
  9
$DIMTXT
 40
20.0
  9
$DIMCEN
 40
15.0
  9
$DIMTSZ
 40
0.0
  9
$DIMTOL
 70
     0
  9
$DIMLIM
 70
     0
  9
$DIMTIH
 70
     0
  9
$DIMTOH
 70
     1
  9
$DIMSE1
 70
     0
  9
$DIMSE2
 70
     0
  9
$DIMTAD
 70
     1
  9
$DIMZIN
 70
     8
  9
$DIMBLK
  1

  9
$DIMASO
 70
     1
  9
$DIMSHO
 70
     1
  9
$DIMPOST
  1

  9
$DIMAPOST
  1

  9
$DIMALT
 70
     0
  9
$DIMALTD
 70
     3
  9
$DIMALTF
 40
0.03937007874016
  9
$DIMLFAC
 40
1.0
  9
$DIMTOFL
 70
     1
  9
$DIMTVP
 40
0.0
  9
$DIMTIX
 70
     0
  9
$DIMSOXD
 70
     0
  9
$DIMSAH
 70
     0
  9
$DIMBLK1
  1

  9
$DIMBLK2
  1

  9
$DIMSTYLE
  2
ISO-25
  9
$DIMCLRD
 70
     7
  9
$DIMCLRE
 70
     7
  9
$DIMCLRT
 70
     7
  9
$DIMTFAC
 40
1.0
  9
$DIMGAP
 40
3.0
  9
$DIMJUST
 70
     0
  9
$DIMSD1
 70
     0
  9
$DIMSD2
 70
     0
  9
$DIMTOLJ
 70
     0
  9
$DIMTZIN
 70
     8
  9
$DIMALTZ
 70
     0
  9
$DIMALTTZ
 70
     0
  9
$DIMUPT
 70
     0
  9
$DIMDEC
 70
     0
  9
$DIMTDEC
 70
     0
  9
$DIMALTU
 70
     2
  9
$DIMALTTD
 70
     3
  9
$DIMTXSTY
  7
Standard
  9
$DIMAUNIT
 70
     0
  9
$DIMADEC
 70
     0
  9
$DIMALTRND
 40
0.0
  9
$DIMAZIN
 70
     0
  9
$DIMDSEP
 70
    46
  9
$DIMATFIT
 70
     3
  9
$DIMFRAC
 70
     0
  9
$DIMLDRBLK
  1

  9
$DIMLUNIT
 70
     2
  9
$DIMLWD
 70
     9
  9
$DIMLWE
 70
     9
  9
$DIMTMOVE
 70
     0
  9
$LUNITS
 70
     2
  9
$LUPREC
 70
     4
  9
$SKETCHINC
 40
0.1
  9
$FILLETRAD
 40
45.0
  9
$AUNITS
 70
     0
  9
$AUPREC
 70
     0
  9
$MENU
  1
.
  9
$ELEVATION
 40
0.0
  9
$PELEVATION
 40
0.0
  9
$THICKNESS
 40
0.0
  9
$LIMCHECK
 70
     0
  9
$CHAMFERA
 40
0.0
  9
$CHAMFERB
 40
0.0
  9
$CHAMFERC
 40
0.0
  9
$CHAMFERD
 40
0.0
  9
$SKPOLY
 70
     0
  9
$TDCREATE
 40
2453580.395053889
  9
$TDUCREATE
 40
2453580.061720556
  9
$TDUPDATE
 40
2456434.680908194
  9
$TDUUPDATE
 40
2456434.347574862
  9
$TDINDWG
 40
0.0982906481
  9
$TDUSRTIMER
 40
0.0982893634
  9
$USRTIMER
 70
     1
  9
$ANGBASE
 50
0.0
  9
$ANGDIR
 70
     0
  9
$PDMODE
 70
     0
  9
$PDSIZE
 40
0.0
  9
$PLINEWID
 40
0.0
  9
$SPLFRAME
 70
     0
  9
$SPLINETYPE
 70
     6
  9
$SPLINESEGS
 70
     8
  9
$HANDSEED
  5
3516
  9
$SURFTAB1
 70
     6
  9
$SURFTAB2
 70
     6
  9
$SURFTYPE
 70
     6
  9
$SURFU
 70
     6
  9
$SURFV
 70
     6
  9
$UCSBASE
  2

  9
$UCSNAME
  2

  9
$UCSORG
 10
0.0
 20
0.0
 30
0.0
  9
$UCSXDIR
 10
1.0
 20
0.0
 30
0.0
  9
$UCSYDIR
 10
0.0
 20
1.0
 30
0.0
  9
$UCSORTHOREF
  2

  9
$UCSORTHOVIEW
 70
     1
  9
$UCSORGTOP
 10
0.0
 20
0.0
 30
0.0
  9
$UCSORGBOTTOM
 10
0.0
 20
0.0
 30
0.0
  9
$UCSORGLEFT
 10
0.0
 20
0.0
 30
0.0
  9
$UCSORGRIGHT
 10
0.0
 20
0.0
 30
0.0
  9
$UCSORGFRONT
 10
0.0
 20
0.0
 30
0.0
  9
$UCSORGBACK
 10
0.0
 20
0.0
 30
0.0
  9
$PUCSBASE
  2

  9
$PUCSNAME
  2

  9
$PUCSORG
 10
0.0
 20
0.0
 30
0.0
  9
$PUCSXDIR
 10
1.0
 20
0.0
 30
0.0
  9
$PUCSYDIR
 10
0.0
 20
1.0
 30
0.0
  9
$PUCSORTHOREF
  2

  9
$PUCSORTHOVIEW
 70
     0
  9
$PUCSORGTOP
 10
0.0
 20
0.0
 30
0.0
  9
$PUCSORGBOTTOM
 10
0.0
 20
0.0
 30
0.0
  9
$PUCSORGLEFT
 10
0.0
 20
0.0
 30
0.0
  9
$PUCSORGRIGHT
 10
0.0
 20
0.0
 30
0.0
  9
$PUCSORGFRONT
 10
0.0
 20
0.0
 30
0.0
  9
$PUCSORGBACK
 10
0.0
 20
0.0
 30
0.0
  9
$USERI1
 70
     0
  9
$USERI2
 70
     0
  9
$USERI3
 70
     0
  9
$USERI4
 70
     0
  9
$USERI5
 70
     0
  9
$USERR1
 40
0.0
  9
$USERR2
 40
0.0
  9
$USERR3
 40
0.0
  9
$USERR4
 40
0.0
  9
$USERR5
 40
0.0
  9
$WORLDVIEW
 70
     1
  9
$SHADEDGE
 70
     3
  9
$SHADEDIF
 70
    70
  9
$TILEMODE
 70
     1
  9
$MAXACTVP
 70
    64
  9
$PINSBASE
 10
0.0
 20
0.0
 30
0.0
  9
$PLIMCHECK
 70
     0
  9
$PEXTMIN
 10
0.0
 20
0.0
 30
0.0
  9
$PEXTMAX
 10
0.0
 20
0.0
 30
0.0
  9
$PLIMMIN
 10
0.0
 20
0.0
  9
$PLIMMAX
 10
12.0
 20
9.0
  9
$UNITMODE
 70
     0
  9
$VISRETAIN
 70
     1
  9
$PLINEGEN
 70
     0
  9
$PSLTSCALE
 70
     1
  9
$TREEDEPTH
 70
  3020
  9
$CMLSTYLE
  2
Standard
  9
$CMLJUST
 70
     0
  9
$CMLSCALE
 40
1.0
  9
$PROXYGRAPHICS
 70
     1
  9
$MEASUREMENT
 70
     0
  9
$CELWEIGHT
370
    -1
  9
$ENDCAPS
280
     0
  9
$JOINSTYLE
280
     0
  9
$LWDISPLAY
290
     1
  9
$INSUNITS
 70
     1
  9
$HYPERLINKBASE
  1

  9
$STYLESHEET
  1
ACAD.CTB
  9
$XEDIT
290
     1
  9
$CEPSNTYPE
380
     0
  9
$PSTYLEMODE
290
     1
  9
$FINGERPRINTGUID
  2
{FDEAD576-A652-11D2-9A35-0060089B3A3F}
  9
$VERSIONGUID
  2
{3DE6DCB7-2CB4-4F39-8DAB-358E4D0069B1}
  9
$EXTNAMES
290
     1
  9
$PSVPSCALE
 40
0.0
  9
$OLESTARTUP
290
     0
  9
$SORTENTS
280
   127
  9
$INDEXCTL
280
     0
  9
$HIDETEXT
280
     1
  9
$XCLIPFRAME
290
     0
  9
$HALOGAP
280
     0
  9
$OBSCOLOR
 70
   257
  9
$OBSLTYPE
280
     0
  9
$INTERSECTIONDISPLAY
280
     0
  9
$INTERSECTIONCOLOR
 70
   257
  9
$DIMASSOC
280
     2
  9
$PROJECTNAME
  1

  0
ENDSEC
  0
SECTION
  2
CLASSES
  0
CLASS
  1
ACDBDICTIONARYWDFLT
  2
AcDbDictionaryWithDefault
  3
ObjectDBX Classes
 90
        0
 91
        1
280
     0
281
     0
  0
CLASS
  1
DICTIONARYVAR
  2
AcDbDictionaryVar
  3
ObjectDBX Classes
 90
        0
 91
        3
280
     0
281
     0
  0
CLASS
  1
DIMASSOC
  2
AcDbDimAssoc
  3
"AcDbDimAssoc|Product Desc:     AcDim ARX App For Dimension|Company:          Autodesk, Inc.|WEB Address:      www.autodesk.com"
 90
        0
 91
        8
280
     0
281
     0
  0
CLASS
  1
TABLESTYLE
  2
AcDbTableStyle
  3
ObjectDBX Classes
 90
     2047
 91
        1
280
     0
281
     0
  0
CLASS
  1
SORTENTSTABLE
  2
AcDbSortentsTable
  3
ObjectDBX Classes
 90
        0
 91
        2
280
     0
281
     0
  0
ENDSEC
  0
SECTION
  2
TABLES
  0
TABLE
  2
VPORT
  5
8
330
0
100
AcDbSymbolTable
 70
     3
  0
VPORT
  5
3515
330
8
100
AcDbSymbolTableRecord
100
AcDbViewportTableRecord
  2
*Active
 70
     0
 10
0.0
 20
0.0
 11
1.0
 21
1.0
 12
7097.552087741559
 22
966.1014146425054
 13
0.0
 23
0.0
 14
0.5
 24
0.5
 15
0.5
 25
0.5
 16
0.0
 26
0.0
 36
1.0
 17
0.0
 27
0.0
 37
0.0
 40
1090.511274727729
 41
1.534704370179948
 42
50.0
 43
0.0
 44
0.0
 50
0.0
 51
0.0
 71
     0
 72
  1000
 73
     1
 74
     3
 75
     0
 76
     0
 77
     0
 78
     0
281
     0
 65
     1
110
0.0
120
0.0
130
0.0
111
1.0
121
0.0
131
0.0
112
0.0
122
1.0
132
0.0
 79
     1
146
0.0
  0
ENDTAB
  0
TABLE
  2
LTYPE
  5
5
330
0
100
AcDbSymbolTable
 70
     4
  0
LTYPE
  5
14
330
5
100
AcDbSymbolTableRecord
100
AcDbLinetypeTableRecord
  2
ByBlock
 70
     0
  3

 72
    65
 73
     0
 40
0.0
  0
LTYPE
  5
15
330
5
100
AcDbSymbolTableRecord
100
AcDbLinetypeTableRecord
  2
ByLayer
 70
     0
  3

 72
    65
 73
     0
 40
0.0
  0
LTYPE
  5
16
330
5
100
AcDbSymbolTableRecord
100
AcDbLinetypeTableRecord
  2
Continuous
 70
     0
  3
Solid line
 72
    65
 73
     0
 40
0.0
  0
LTYPE
  5
120A
330
5
100
AcDbSymbolTableRecord
100
AcDbLinetypeTableRecord
  2
CENTER2
 70
     0
  3
Center (.5x) ___ _ ___ _ ___ _ ___ _ ___ _ ___
 72
    65
 73
     4
 40
28.575
 49
19.05
 74
     0
 49
-3.174999999999998
 74
     0
 49
3.174999999999998
 74
     0
 49
-3.174999999999998
 74
     0
  0
LTYPE
  5
120B
330
5
100
AcDbSymbolTableRecord
100
AcDbLinetypeTableRecord
  2
HIDDEN2
 70
     0
  3
Hidden (.5x) _ _ _ _ _ _ _ _ _ _ _ _ _ _ _ _ _
 72
    65
 73
     2
 40
4.762499999999998
 49
3.174999999999998
 74
     0
 49
-1.587499999999999
 74
     0
  0
LTYPE
  5
2AAE
330
5
100
AcDbSymbolTableRecord
100
AcDbLinetypeTableRecord
  2
ACAD_ISO02W100
 70
     0
  3
ISO dash __ __ __ __ __ __ __ __ __ __ __ __ __
 72
    65
 73
     2
 40
15.0
 49
12.0
 74
     0
 49
-3.0
 74
     0
  0
ENDTAB
  0
TABLE
  2
LAYER
  5
2
102
{ACAD_XDICTIONARY
360
EDF
102
}
330
0
100
AcDbSymbolTable
 70
     8
  0
LAYER
  5
10
330
2
100
AcDbSymbolTableRecord
100
AcDbLayerTableRecord
  2
0
 70
     0
 62
     7
  6
Continuous
370
    -3
390
F
  0
LAYER
  5
107
330
2
100
AcDbSymbolTableRecord
100
AcDbLayerTableRecord
  2
Defpoints
 70
     0
 62
     7
  6
Continuous
290
     0
370
    -3
390
F
  0
LAYER
  5
108
330
2
100
AcDbSymbolTableRecord
100
AcDbLayerTableRecord
  2
Title Block
 70
     0
 62
     7
  6
Continuous
370
    -3
390
F
  0
LAYER
  5
120C
330
2
100
AcDbSymbolTableRecord
100
AcDbLayerTableRecord
  2
标注线
 70
     0
 62
     6
  6
Continuous
370
    -3
390
F
  0
LAYER
  5
120D
330
2
100
AcDbSymbolTableRecord
100
AcDbLayerTableRecord
  2
中心线
 70
     0
 62
     1
  6
CENTER2
370
    -3
390
F
  0
LAYER
  5
120E
330
2
100
AcDbSymbolTableRecord
100
AcDbLayerTableRecord
  2
粗实线
 70
     0
 62
     7
  6
Continuous
370
    60
390
F
  0
LAYER
  5
120F
330
2
100
AcDbSymbolTableRecord
100
AcDbLayerTableRecord
  2
虚线
 70
     0
 62
     3
  6
ACAD_ISO02W100
370
    -3
390
F
  0
LAYER
  5
2A10
330
2
100
AcDbSymbolTableRecord
100
AcDbLayerTableRecord
  2
标注
 70
     0
 62
    80
  6
Continuous
370
     5
390
F
1001
AcAecLayerStandard
1000

1000

  0
ENDTAB
  0
TABLE
  2
STYLE
  5
3
330
0
100
AcDbSymbolTable
 70
     3
  0
STYLE
  5
11
330
3
100
AcDbSymbolTableRecord
100
AcDbTextStyleTableRecord
  2
Standard
 70
     0
 40
0.0
 41
1.0
 50
0.0
 71
     0
 42
0.2
  3
TIMES.TTF
  4

1001
ACAD
1000
Times New Roman
1071
       18
  0
STYLE
  5
109
330
3
100
AcDbSymbolTableRecord
100
AcDbTextStyleTableRecord
  2
Roman
 70
     0
 40
0.0
 41
1.0
 50
0.0
 71
     0
 42
0.065
  3
romans
  4

  0
STYLE
  5
2AAD
330
3
100
AcDbSymbolTableRecord
100
AcDbTextStyleTableRecord
  2

 70
     1
 40
0.0
 41
1.0
 50
0.0
 71
     0
 42
0.2
  3
ltypeshp.shx
  4

  0
ENDTAB
  0
TABLE
  2
VIEW
  5
6
330
0
100
AcDbSymbolTable
 70
     0
  0
ENDTAB
  0
TABLE
  2
UCS
  5
7
330
0
100
AcDbSymbolTable
 70
     0
  0
ENDTAB
  0
TABLE
  2
APPID
  5
9
330
0
100
AcDbSymbolTable
 70
    13
  0
APPID
  5
12
330
9
100
AcDbSymbolTableRecord
100
AcDbRegAppTableRecord
  2
ACAD
 70
     0
  0
APPID
  5
925
330
9
100
AcDbSymbolTableRecord
100
AcDbRegAppTableRecord
  2
ACAD_DSTYLE_DIMTEXT_FILL
 70
     0
  0
APPID
  5
926
330
9
100
AcDbSymbolTableRecord
100
AcDbRegAppTableRecord
  2
ACAD_DSTYLE_DIMEXT_LENGTH
 70
     0
  0
APPID
  5
927
330
9
100
AcDbSymbolTableRecord
100
AcDbRegAppTableRecord
  2
ACAD_DSTYLE_DIMEXT_ENABLED
 70
     0
  0
APPID
  5
928
330
9
100
AcDbSymbolTableRecord
100
AcDbRegAppTableRecord
  2
ACAD_DSTYLE_DIM_LINETYPE
 70
     0
  0
APPID
  5
929
330
9
100
AcDbSymbolTableRecord
100
AcDbRegAppTableRecord
  2
ACAD_DSTYLE_DIM_EXT1_LINETYPE
 70
     0
  0
APPID
  5
92A
330
9
100
AcDbSymbolTableRecord
100
AcDbRegAppTableRecord
  2
ACAD_DSTYLE_DIM_EXT2_LINETYPE
 70
     0
  0
APPID
  5
9E6
330
9
100
AcDbSymbolTableRecord
100
AcDbRegAppTableRecord
  2
ACAD_DSTYLE_DIMJOGGED_JOGANGLE_SYMBOL
 70
     0
  0
APPID
  5
BFA
330
9
100
AcDbSymbolTableRecord
100
AcDbRegAppTableRecord
  2
ACAD_DSTYLE_DIMARC_LENGTH_SYMBOL
 70
     0
  0
APPID
  5
2506
330
9
100
AcDbSymbolTableRecord
100
AcDbRegAppTableRecord
  2
ACAD_EXEMPT_FROM_CAD_STANDARDS
 70
     0
  0
APPID
  5
2A11
330
9
100
AcDbSymbolTableRecord
100
AcDbRegAppTableRecord
  2
AcAecLayerStandard
 70
     0
  0
APPID
  5
3080
330
9
100
AcDbSymbolTableRecord
100
AcDbRegAppTableRecord
  2
DCO15
 70
     0
  0
APPID
  5
3098
330
9
100
AcDbSymbolTableRecord
100
AcDbRegAppTableRecord
  2
ACAD_PSEXT
 70
     0
  0
ENDTAB
  0
TABLE
  2
DIMSTYLE
  5
A
330
0
100
AcDbSymbolTable
 70
     5
100
AcDbDimStyleTable
 71
     2
340
10A
340
EDC
  0
DIMSTYLE
105
27
330
A
100
AcDbSymbolTableRecord
100
AcDbDimStyleTableRecord
  2
Standard
 70
     0
340
11
  0
DIMSTYLE
105
10A
102
{ACAD_REACTORS
330
2F98
330
2FA4
330
2FA7
330
2FAA
330
2FAD
330
2FB0
330
2FB3
330
2FB6
330
2FB9
330
2F92
102
}
330
A
100
AcDbSymbolTableRecord
100
AcDbDimStyleTableRecord
  2
ISO-25
 70
     0
 41
18.0
 42
10.0
 43
3.75
 44
5.0
 73
     0
 77
     1
 78
     8
140
20.0
141
15.0
143
0.03937007874016
147
3.0
171
     3
172
     1
176
     7
177
     7
178
     7
271
     0
272
     0
274
     3
283
     0
284
     8
340
11
371
     9
372
     9
1001
ACAD_DSTYLE_DIMEXT_LENGTH
1070
   378
1040
1.25
1001
ACAD_DSTYLE_DIMEXT_ENABLED
1070
   383
1070
     0
1001
ACAD_DSTYLE_DIMARC_LENGTH_SYMBOL
1070
   379
1070
     0
1001
ACAD_DSTYLE_DIMJOGGED_JOGANGLE_SYMBOL
1070
   384
1040
0.7853981633974483
  0
DIMSTYLE
105
EDC
330
A
100
AcDbSymbolTableRecord
100
AcDbDimStyleTableRecord
  2
副本ISO-25
 70
     0
 41
15.0
 42
0.625
 43
3.75
 44
1.25
 73
     0
 77
     1
 78
     8
 79
     2
140
20.0
141
2.5
143
0.03937007874016
147
5.0
172
     1
176
     6
177
     6
271
     1
272
     1
278
    44
283
     0
284
     8
340
11
  0
DIMSTYLE
105
EDD
330
A
100
AcDbSymbolTableRecord
100
AcDbDimStyleTableRecord
  2
01
 70
     0
 41
15.0
 42
0.625
 43
3.75
 44
1.25
 73
     0
 77
     1
 78
     8
140
15.0
141
2.5
143
0.03937007874016
147
0.625
171
     3
172
     1
176
     6
177
     6
271
     2
272
     2
274
     3
278
    44
283
     0
284
     8
340
11
371
     5
372
     5
  0
DIMSTYLE
105
EDE
330
A
100
AcDbSymbolTableRecord
100
AcDbDimStyleTableRecord
  2
副本01
 70
     0
 41
15.0
 42
0.625
 43
3.75
 44
1.25
 73
     0
 77
     1
 78
     9
 79
     2
140
18.0
141
0.5
143
0.03937007874
147
0.625
170
     1
176
     6
177
     6
271
     2
272
     2
283
     0
284
     8
285
    12
340
11
371
     5
372
     5
  0
ENDTAB
  0
TABLE
  2
BLOCK_RECORD
  5
1
330
0
100
AcDbSymbolTable
 70
    91
  0
BLOCK_RECORD
  5
1F
102
{ACAD_XDICTIONARY
360
904
102
}
330
1
100
AcDbSymbolTableRecord
100
AcDbBlockTableRecord
  2
*Model_Space
340
22
  0
BLOCK_RECORD
  5
58
330
1
100
AcDbSymbolTableRecord
100
AcDbBlockTableRecord
  2
*Paper_Space
340
59
  0
BLOCK_RECORD
  5
5D
330
1
100
AcDbSymbolTableRecord
100
AcDbBlockTableRecord
  2
*Paper_Space0
340
5E
  0
BLOCK_RECORD
  5
26F
330
1
100
AcDbSymbolTableRecord
100
AcDbBlockTableRecord
  2
*D1
340
0
  0
BLOCK_RECORD
  5
27B
330
1
100
AcDbSymbolTableRecord
100
AcDbBlockTableRecord
  2
*D2
340
0
  0
BLOCK_RECORD
  5
287
330
1
100
AcDbSymbolTableRecord
100
AcDbBlockTableRecord
  2
*D3
340
0
  0
BLOCK_RECORD
  5
293
330
1
100
AcDbSymbolTableRecord
100
AcDbBlockTableRecord
  2
*D4
340
0
  0
BLOCK_RECORD
  5
2F3
330
1
100
AcDbSymbolTableRecord
100
AcDbBlockTableRecord
  2
*D5
340
0
  0
BLOCK_RECORD
  5
88B
330
1
100
AcDbSymbolTableRecord
100
AcDbBlockTableRecord
  2
*D6
340
0
  0
BLOCK_RECORD
  5
897
330
1
100
AcDbSymbolTableRecord
100
AcDbBlockTableRecord
  2
*D7
340
0
  0
BLOCK_RECORD
  5
8A3
330
1
100
AcDbSymbolTableRecord
100
AcDbBlockTableRecord
  2
*D8
340
0
  0
BLOCK_RECORD
  5
8AF
330
1
100
AcDbSymbolTableRecord
100
AcDbBlockTableRecord
  2
*D9
340
0
  0
BLOCK_RECORD
  5
8BB
330
1
100
AcDbSymbolTableRecord
100
AcDbBlockTableRecord
  2
*D10
340
0
  0
BLOCK_RECORD
  5
1029
330
1
100
AcDbSymbolTableRecord
100
AcDbBlockTableRecord
  2
*D11
340
0
  0
BLOCK_RECORD
  5
106F
330
1
100
AcDbSymbolTableRecord
100
AcDbBlockTableRecord
  2
*D12
340
0
  0
BLOCK_RECORD
  5
1084
330
1
100
AcDbSymbolTableRecord
100
AcDbBlockTableRecord
  2
*D13
340
0
  0
BLOCK_RECORD
  5
1090
330
1
100
AcDbSymbolTableRecord
100
AcDbBlockTableRecord
  2
*D14
340
0
  0
BLOCK_RECORD
  5
109C
330
1
100
AcDbSymbolTableRecord
100
AcDbBlockTableRecord
  2
*D15
340
0
  0
BLOCK_RECORD
  5
10A8
330
1
100
AcDbSymbolTableRecord
100
AcDbBlockTableRecord
  2
*D16
340
0
  0
BLOCK_RECORD
  5
10B4
330
1
100
AcDbSymbolTableRecord
100
AcDbBlockTableRecord
  2
*D17
340
0
  0
BLOCK_RECORD
  5
10BF
330
1
100
AcDbSymbolTableRecord
100
AcDbBlockTableRecord
  2
*D18
340
0
  0
BLOCK_RECORD
  5
1102
330
1
100
AcDbSymbolTableRecord
100
AcDbBlockTableRecord
  2
*D19
340
0
  0
BLOCK_RECORD
  5
1141
330
1
100
AcDbSymbolTableRecord
100
AcDbBlockTableRecord
  2
*D20
340
0
  0
BLOCK_RECORD
  5
114D
330
1
100
AcDbSymbolTableRecord
100
AcDbBlockTableRecord
  2
*D21
340
0
  0
BLOCK_RECORD
  5
1395
330
1
100
AcDbSymbolTableRecord
100
AcDbBlockTableRecord
  2
*D22
340
0
  0
BLOCK_RECORD
  5
13AD
330
1
100
AcDbSymbolTableRecord
100
AcDbBlockTableRecord
  2
*D23
340
0
  0
BLOCK_RECORD
  5
164B
330
1
100
AcDbSymbolTableRecord
100
AcDbBlockTableRecord
  2
*D24
340
0
  0
BLOCK_RECORD
  5
1657
330
1
100
AcDbSymbolTableRecord
100
AcDbBlockTableRecord
  2
*D25
340
0
  0
BLOCK_RECORD
  5
166C
330
1
100
AcDbSymbolTableRecord
100
AcDbBlockTableRecord
  2
*D26
340
0
  0
BLOCK_RECORD
  5
1678
330
1
100
AcDbSymbolTableRecord
100
AcDbBlockTableRecord
  2
*D27
340
0
  0
BLOCK_RECORD
  5
1684
330
1
100
AcDbSymbolTableRecord
100
AcDbBlockTableRecord
  2
*D28
340
0
  0
BLOCK_RECORD
  5
1690
330
1
100
AcDbSymbolTableRecord
100
AcDbBlockTableRecord
  2
*D29
340
0
  0
BLOCK_RECORD
  5
169C
330
1
100
AcDbSymbolTableRecord
100
AcDbBlockTableRecord
  2
*D30
340
0
  0
BLOCK_RECORD
  5
16A7
330
1
100
AcDbSymbolTableRecord
100
AcDbBlockTableRecord
  2
*D31
340
0
  0
BLOCK_RECORD
  5
16B3
330
1
100
AcDbSymbolTableRecord
100
AcDbBlockTableRecord
  2
*D32
340
0
  0
BLOCK_RECORD
  5
16BF
330
1
100
AcDbSymbolTableRecord
100
AcDbBlockTableRecord
  2
*D33
340
0
  0
BLOCK_RECORD
  5
16CB
330
1
100
AcDbSymbolTableRecord
100
AcDbBlockTableRecord
  2
*D34
340
0
  0
BLOCK_RECORD
  5
16DA
330
1
100
AcDbSymbolTableRecord
100
AcDbBlockTableRecord
  2
*D35
340
0
  0
BLOCK_RECORD
  5
16E6
330
1
100
AcDbSymbolTableRecord
100
AcDbBlockTableRecord
  2
*D36
340
0
  0
BLOCK_RECORD
  5
1C53
330
1
100
AcDbSymbolTableRecord
100
AcDbBlockTableRecord
  2
*D37
340
0
  0
BLOCK_RECORD
  5
1C5F
330
1
100
AcDbSymbolTableRecord
100
AcDbBlockTableRecord
  2
*D38
340
0
  0
BLOCK_RECORD
  5
1C74
330
1
100
AcDbSymbolTableRecord
100
AcDbBlockTableRecord
  2
*D39
340
0
  0
BLOCK_RECORD
  5
1C80
330
1
100
AcDbSymbolTableRecord
100
AcDbBlockTableRecord
  2
*D40
340
0
  0
BLOCK_RECORD
  5
1C8C
330
1
100
AcDbSymbolTableRecord
100
AcDbBlockTableRecord
  2
*D41
340
0
  0
BLOCK_RECORD
  5
1C98
330
1
100
AcDbSymbolTableRecord
100
AcDbBlockTableRecord
  2
*D42
340
0
  0
BLOCK_RECORD
  5
1CA4
330
1
100
AcDbSymbolTableRecord
100
AcDbBlockTableRecord
  2
*D43
340
0
  0
BLOCK_RECORD
  5
1CBB
330
1
100
AcDbSymbolTableRecord
100
AcDbBlockTableRecord
  2
*D44
340
0
  0
BLOCK_RECORD
  5
1CC7
330
1
100
AcDbSymbolTableRecord
100
AcDbBlockTableRecord
  2
*D45
340
0
  0
BLOCK_RECORD
  5
1CD3
330
1
100
AcDbSymbolTableRecord
100
AcDbBlockTableRecord
  2
*D46
340
0
  0
BLOCK_RECORD
  5
1CE2
330
1
100
AcDbSymbolTableRecord
100
AcDbBlockTableRecord
  2
*D47
340
0
  0
BLOCK_RECORD
  5
1CEE
330
1
100
AcDbSymbolTableRecord
100
AcDbBlockTableRecord
  2
*D48
340
0
  0
BLOCK_RECORD
  5
1D39
330
1
100
AcDbSymbolTableRecord
100
AcDbBlockTableRecord
  2
*D49
340
0
  0
BLOCK_RECORD
  5
1DA9
330
1
100
AcDbSymbolTableRecord
100
AcDbBlockTableRecord
  2
*D50
340
0
  0
BLOCK_RECORD
  5
1DCB
330
1
100
AcDbSymbolTableRecord
100
AcDbBlockTableRecord
  2
*D51
340
0
  0
BLOCK_RECORD
  5
202E
330
1
100
AcDbSymbolTableRecord
100
AcDbBlockTableRecord
  2
*D52
340
0
  0
BLOCK_RECORD
  5
2046
330
1
100
AcDbSymbolTableRecord
100
AcDbBlockTableRecord
  2
*D53
340
0
  0
BLOCK_RECORD
  5
205E
330
1
100
AcDbSymbolTableRecord
100
AcDbBlockTableRecord
  2
*D54
340
0
  0
BLOCK_RECORD
  5
2076
330
1
100
AcDbSymbolTableRecord
100
AcDbBlockTableRecord
  2
*D55
340
0
  0
BLOCK_RECORD
  5
208E
330
1
100
AcDbSymbolTableRecord
100
AcDbBlockTableRecord
  2
*D56
340
0
  0
BLOCK_RECORD
  5
20A6
330
1
100
AcDbSymbolTableRecord
100
AcDbBlockTableRecord
  2
*D57
340
0
  0
BLOCK_RECORD
  5
20BE
330
1
100
AcDbSymbolTableRecord
100
AcDbBlockTableRecord
  2
*D58
340
0
  0
BLOCK_RECORD
  5
258E
330
1
100
AcDbSymbolTableRecord
100
AcDbBlockTableRecord
  2
*D59
340
0
  0
BLOCK_RECORD
  5
25A6
330
1
100
AcDbSymbolTableRecord
100
AcDbBlockTableRecord
  2
*D60
340
0
  0
BLOCK_RECORD
  5
2886
102
{ACAD_XDICTIONARY
360
28E2
102
}
330
1
100
AcDbSymbolTableRecord
100
AcDbBlockTableRecord
  2
A$C7DFB4140
340
0
1001
ACAD
1000
DesignCenter Data
1002
{
1070
     1
1070
     1
1002
}
  0
BLOCK_RECORD
  5
2AB5
330
1
100
AcDbSymbolTableRecord
100
AcDbBlockTableRecord
  2
*D62
340
0
  0
BLOCK_RECORD
  5
2C2F
330
1
100
AcDbSymbolTableRecord
100
AcDbBlockTableRecord
  2
*D63
340
0
  0
BLOCK_RECORD
  5
2C47
330
1
100
AcDbSymbolTableRecord
100
AcDbBlockTableRecord
  2
*D64
340
0
  0
BLOCK_RECORD
  5
2C5F
330
1
100
AcDbSymbolTableRecord
100
AcDbBlockTableRecord
  2
*D65
340
0
  0
BLOCK_RECORD
  5
2C7A
330
1
100
AcDbSymbolTableRecord
100
AcDbBlockTableRecord
  2
*D66
340
0
  0
BLOCK_RECORD
  5
2C98
330
1
100
AcDbSymbolTableRecord
100
AcDbBlockTableRecord
  2
*D67
340
0
  0
BLOCK_RECORD
  5
2CB6
330
1
100
AcDbSymbolTableRecord
100
AcDbBlockTableRecord
  2
*D68
340
0
  0
BLOCK_RECORD
  5
2CC6
330
1
100
AcDbSymbolTableRecord
100
AcDbBlockTableRecord
  2
*D69
340
0
  0
BLOCK_RECORD
  5
2CD6
330
1
100
AcDbSymbolTableRecord
100
AcDbBlockTableRecord
  2
*D70
340
0
  0
BLOCK_RECORD
  5
2CE6
330
1
100
AcDbSymbolTableRecord
100
AcDbBlockTableRecord
  2
*D71
340
0
  0
BLOCK_RECORD
  5
2D14
330
1
100
AcDbSymbolTableRecord
100
AcDbBlockTableRecord
  2
*D72
340
0
  0
BLOCK_RECORD
  5
2D24
330
1
100
AcDbSymbolTableRecord
100
AcDbBlockTableRecord
  2
*D73
340
0
  0
BLOCK_RECORD
  5
2D34
330
1
100
AcDbSymbolTableRecord
100
AcDbBlockTableRecord
  2
*D74
340
0
  0
BLOCK_RECORD
  5
2E69
330
1
100
AcDbSymbolTableRecord
100
AcDbBlockTableRecord
  2
*D75
340
0
  0
BLOCK_RECORD
  5
2E81
330
1
100
AcDbSymbolTableRecord
100
AcDbBlockTableRecord
  2
*D76
340
0
  0
BLOCK_RECORD
  5
2FBC
330
1
100
AcDbSymbolTableRecord
100
AcDbBlockTableRecord
  2
*D77
340
0
  0
BLOCK_RECORD
  5
2FC8
330
1
100
AcDbSymbolTableRecord
100
AcDbBlockTableRecord
  2
*D78
340
0
  0
BLOCK_RECORD
  5
2FD4
330
1
100
AcDbSymbolTableRecord
100
AcDbBlockTableRecord
  2
*D79
340
0
  0
BLOCK_RECORD
  5
2FE0
330
1
100
AcDbSymbolTableRecord
100
AcDbBlockTableRecord
  2
*D80
340
0
  0
BLOCK_RECORD
  5
2FEF
330
1
100
AcDbSymbolTableRecord
100
AcDbBlockTableRecord
  2
*D81
340
0
  0
BLOCK_RECORD
  5
2FFD
330
1
100
AcDbSymbolTableRecord
100
AcDbBlockTableRecord
  2
*D82
340
0
  0
BLOCK_RECORD
  5
3005
330
1
100
AcDbSymbolTableRecord
100
AcDbBlockTableRecord
  2
*D83
340
0
  0
BLOCK_RECORD
  5
300D
330
1
100
AcDbSymbolTableRecord
100
AcDbBlockTableRecord
  2
*D84
340
0
  0
BLOCK_RECORD
  5
3015
330
1
100
AcDbSymbolTableRecord
100
AcDbBlockTableRecord
  2
*D85
340
0
  0
BLOCK_RECORD
  5
3021
330
1
100
AcDbSymbolTableRecord
100
AcDbBlockTableRecord
  2
*D86
340
0
  0
BLOCK_RECORD
  5
3029
330
1
100
AcDbSymbolTableRecord
100
AcDbBlockTableRecord
  2
*D87
340
0
  0
BLOCK_RECORD
  5
3031
330
1
100
AcDbSymbolTableRecord
100
AcDbBlockTableRecord
  2
*D88
340
0
  0
BLOCK_RECORD
  5
303D
330
1
100
AcDbSymbolTableRecord
100
AcDbBlockTableRecord
  2
*D89
340
0
  0
BLOCK_RECORD
  5
3049
330
1
100
AcDbSymbolTableRecord
100
AcDbBlockTableRecord
  2
*D90
340
0
  0
ENDTAB
  0
ENDSEC
  0
SECTION
  2
BLOCKS
  0
BLOCK
  5
20
330
1F
100
AcDbEntity
  8
0
100
AcDbBlockBegin
  2
*Model_Space
 70
     0
 10
0.0
 20
0.0
 30
0.0
  3
*Model_Space
  1

  0
ENDBLK
  5
21
330
1F
100
AcDbEntity
  8
0
100
AcDbBlockEnd
  0
BLOCK
  5
5A
330
58
100
AcDbEntity
 67
     1
  8
0
100
AcDbBlockBegin
  2
*Paper_Space
 70
     0
 10
0.0
 20
0.0
 30
0.0
  3
*Paper_Space
  1

  0
ENDBLK
  5
5B
330
58
100
AcDbEntity
 67
     1
  8
0
100
AcDbBlockEnd
  0
BLOCK
  5
5F
330
5D
100
AcDbEntity
  8
0
100
AcDbBlockBegin
  2
*Paper_Space0
 70
     0
 10
0.0
 20
0.0
 30
0.0
  3
*Paper_Space0
  1

  0
ENDBLK
  5
60
330
5D
100
AcDbEntity
  8
0
100
AcDbBlockEnd
  0
BLOCK
  5
279
330
26F
100
AcDbEntity
  8
0
100
AcDbBlockBegin
  2
*D1
 70
     1
 10
0.0
 20
0.0
 30
0.0
  3
*D1
  1

  0
LINE
  5
29D1
330
26F
100
AcDbEntity
  8
0
370
     9
100
AcDbLine
 10
5458.507754662702
 20
994.5109650391753
 30
0.0
 11
5654.693182274056
 21
994.5109650391753
 31
0.0
  0
LINE
  5
29D2
330
26F
100
AcDbEntity
  8
0
370
     9
100
AcDbLine
 10
5483.307050468521
 20
454.5109650391752
 30
0.0
 11
5654.693182274056
 21
454.5109650391752
 31
0.0
  0
LINE
  5
29D3
330
26F
100
AcDbEntity
  8
0
370
     9
100
AcDbLine
 10
5649.693182274056
 20
976.510965039175
 30
0.0
 11
5649.693182274056
 21
472.510965039175
 31
0.0
  0
SOLID
  5
29D4
330
26F
100
AcDbEntity
  8
0
100
AcDbTrace
 10
5646.693182274056
 20
976.510965039175
 30
0.0
 11
5652.693182274056
 21
976.510965039175
 31
0.0
 12
5649.693182274056
 22
994.5109650391753
 32
0.0
 13
5649.693182274056
 23
994.5109650391753
 33
0.0
  0
SOLID
  5
29D5
330
26F
100
AcDbEntity
  8
0
100
AcDbTrace
 10
5646.693182274056
 20
472.510965039175
 30
0.0
 11
5652.693182274056
 21
472.510965039175
 31
0.0
 12
5649.693182274056
 22
454.5109650391752
 32
0.0
 13
5649.693182274056
 23
454.5109650391752
 33
0.0
  0
MTEXT
  5
29D6
330
26F
100
AcDbEntity
  8
0
 62
     0
100
AcDbMText
 10
5633.282944350479
 20
724.5109650391753
 30
0.0
 40
20.0
 41
0.0
 71
     5
 72
     1
  1
530(20-7/8")
 11
0.0000000000000001
 21
1.0
 31
0.0
 73
     1
 44
1.0
  0
POINT
  5
29D7
330
26F
100
AcDbEntity
  8
Defpoints
 62
     0
100
AcDbPoint
 10
5448.507754662702
 20
994.5109650391753
 30
0.0
  0
POINT
  5
29D8
330
26F
100
AcDbEntity
  8
Defpoints
 62
     0
100
AcDbPoint
 10
5473.307050468521
 20
454.5109650391752
 30
0.0
  0
POINT
  5
29D9
330
26F
100
AcDbEntity
  8
Defpoints
 62
     0
100
AcDbPoint
 10
5649.693182274056
 20
454.5109650391752
 30
0.0
  0
ENDBLK
  5
27A
330
26F
100
AcDbEntity
  8
0
100
AcDbBlockEnd
  0
BLOCK
  5
285
330
27B
100
AcDbEntity
  8
0
100
AcDbBlockBegin
  2
*D2
 70
     1
 10
0.0
 20
0.0
 30
0.0
  3
*D2
  1

  0
LINE
  5
29FE
330
27B
100
AcDbEntity
  8
0
370
     9
100
AcDbLine
 10
5463.364303370778
 20
1332.953168329486
 30
0.0
 11
5593.174805966445
 21
1332.953168329486
 31
0.0
  0
LINE
  5
29FF
330
27B
100
AcDbEntity
  8
0
370
     9
100
AcDbLine
 10
5519.145523442836
 20
852.8801298174132
 30
0.0
 11
5593.174805966445
 21
852.8801298174132
 31
0.0
  0
LINE
  5
2A00
330
27B
100
AcDbEntity
  8
0
370
     9
100
AcDbLine
 10
5588.174805966443
 20
1314.953168329486
 30
0.0
 11
5588.174805966443
 21
870.8801298174131
 31
0.0
  0
SOLID
  5
2A01
330
27B
100
AcDbEntity
  8
0
100
AcDbTrace
 10
5585.174805966443
 20
1314.953168329486
 30
0.0
 11
5591.174805966443
 21
1314.953168329486
 31
0.0
 12
5588.174805966443
 22
1332.953168329486
 32
0.0
 13
5588.174805966443
 23
1332.953168329486
 33
0.0
  0
SOLID
  5
2A02
330
27B
100
AcDbEntity
  8
0
100
AcDbTrace
 10
5585.174805966443
 20
870.8801298174131
 30
0.0
 11
5591.174805966443
 21
870.8801298174131
 31
0.0
 12
5588.174805966443
 22
852.8801298174132
 32
0.0
 13
5588.174805966443
 23
852.8801298174132
 33
0.0
  0
MTEXT
  5
2A03
330
27B
100
AcDbEntity
  8
0
 62
     0
100
AcDbMText
 10
5571.764568042866
 20
1092.916649073449
 30
0.0
 40
20.0
 41
0.0
 71
     5
 72
     1
  1
480(18-7/8")
 11
0.0000000000000001
 21
1.0
 31
0.0
 73
     1
 44
1.0
  0
POINT
  5
2A04
330
27B
100
AcDbEntity
  8
Defpoints
 62
     0
100
AcDbPoint
 10
5453.364303370779
 20
1332.953168329486
 30
0.0
  0
POINT
  5
2A05
330
27B
100
AcDbEntity
  8
Defpoints
 62
     0
100
AcDbPoint
 10
5509.145523442834
 20
852.8801298174132
 30
0.0
  0
POINT
  5
2A06
330
27B
100
AcDbEntity
  8
Defpoints
 62
     0
100
AcDbPoint
 10
5588.174805966443
 20
852.8801298174132
 30
0.0
  0
ENDBLK
  5
286
330
27B
100
AcDbEntity
  8
0
100
AcDbBlockEnd
  0
BLOCK
  5
291
330
287
100
AcDbEntity
  8
0
100
AcDbBlockBegin
  2
*D3
 70
     1
 10
0.0
 20
0.0
 30
0.0
  3
*D3
  1

  0
LINE
  5
2A07
330
287
100
AcDbEntity
  8
0
370
     9
100
AcDbLine
 10
4954.458765933214
 20
840.2663120610021
 30
0.0
 11
4954.458765933214
 21
756.0898830209305
 31
0.0
  0
LINE
  5
2A08
330
287
100
AcDbEntity
  8
0
370
     9
100
AcDbLine
 10
5494.336327565822
 20
831.3764892369276
 30
0.0
 11
5494.336327565822
 21
756.0898830209305
 31
0.0
  0
LINE
  5
2A09
330
287
100
AcDbEntity
  8
0
370
     9
100
AcDbLine
 10
4972.458765933215
 20
761.0898830209305
 30
0.0
 11
5476.336327565822
 21
761.0898830209305
 31
0.0
  0
SOLID
  5
2A0A
330
287
100
AcDbEntity
  8
0
100
AcDbTrace
 10
4972.458765933215
 20
764.0898830209305
 30
0.0
 11
4972.458765933215
 21
758.0898830209305
 31
0.0
 12
4954.458765933214
 22
761.0898830209305
 32
0.0
 13
4954.458765933214
 23
761.0898830209305
 33
0.0
  0
SOLID
  5
2A0B
330
287
100
AcDbEntity
  8
0
100
AcDbTrace
 10
5476.336327565822
 20
764.0898830209305
 30
0.0
 11
5476.336327565822
 21
758.0898830209305
 31
0.0
 12
5494.336327565822
 22
761.0898830209305
 32
0.0
 13
5494.336327565822
 23
761.0898830209305
 33
0.0
  0
MTEXT
  5
2A0C
330
287
100
AcDbEntity
  8
0
 62
     0
100
AcDbMText
 10
5204.986302689219
 20
777.5001209445066
 30
0.0
 40
20.0
 41
0.0
 71
     5
 72
     1
  1
540(21-1/4")
 73
     1
 44
1.0
  0
POINT
  5
2A0D
330
287
100
AcDbEntity
  8
Defpoints
 62
     0
100
AcDbPoint
 10
4954.458765933214
 20
850.2663120610021
 30
0.0
  0
POINT
  5
2A0E
330
287
100
AcDbEntity
  8
Defpoints
 62
     0
100
AcDbPoint
 10
5494.336327565822
 20
841.3764892369277
 30
0.0
  0
POINT
  5
2A0F
330
287
100
AcDbEntity
  8
Defpoints
 62
     0
100
AcDbPoint
 10
5494.336327565822
 20
761.0898830209305
 30
0.0
  0
ENDBLK
  5
292
330
287
100
AcDbEntity
  8
0
100
AcDbBlockEnd
  0
BLOCK
  5
29D
330
293
100
AcDbEntity
  8
0
100
AcDbBlockBegin
  2
*D4
 70
     1
 10
0.0
 20
0.0
 30
0.0
  3
*D4
  1

  0
LINE
  5
29EC
330
293
100
AcDbEntity
  8
0
370
     9
100
AcDbLine
 10
4924.397546749517
 20
503.1483094314043
 30
0.0
 11
4924.397546749517
 21
327.5204431705398
 31
0.0
  0
LINE
  5
29ED
330
293
100
AcDbEntity
  8
0
370
     9
100
AcDbLine
 10
5524.397546749518
 20
505.0307263865128
 30
0.0
 11
5524.397546749518
 21
327.5204431705398
 31
0.0
  0
LINE
  5
29EE
330
293
100
AcDbEntity
  8
0
370
     9
100
AcDbLine
 10
4942.397546749518
 20
332.5204431705399
 30
0.0
 11
5506.397546749518
 21
332.5204431705399
 31
0.0
  0
SOLID
  5
29EF
330
293
100
AcDbEntity
  8
0
100
AcDbTrace
 10
4942.397546749518
 20
335.5204431705399
 30
0.0
 11
4942.397546749518
 21
329.5204431705399
 31
0.0
 12
4924.397546749517
 22
332.5204431705399
 32
0.0
 13
4924.397546749517
 23
332.5204431705399
 33
0.0
  0
SOLID
  5
29F0
330
293
100
AcDbEntity
  8
0
100
AcDbTrace
 10
5506.397546749518
 20
335.5204431705399
 30
0.0
 11
5506.397546749518
 21
329.5204431705399
 31
0.0
 12
5524.397546749518
 22
332.5204431705399
 32
0.0
 13
5524.397546749518
 23
332.5204431705399
 33
0.0
  0
MTEXT
  5
29F1
330
293
100
AcDbEntity
  8
0
 62
     0
100
AcDbMText
 10
5204.986302689219
 20
348.930681094116
 30
0.0
 40
20.0
 41
0.0
 71
     5
 72
     1
  1
590(23-1/4")
 73
     1
 44
1.0
  0
POINT
  5
29F2
330
293
100
AcDbEntity
  8
Defpoints
 62
     0
100
AcDbPoint
 10
4924.397546749517
 20
513.1483094314043
 30
0.0
  0
POINT
  5
29F3
330
293
100
AcDbEntity
  8
Defpoints
 62
     0
100
AcDbPoint
 10
5524.397546749518
 20
515.0307263865129
 30
0.0
  0
POINT
  5
29F4
330
293
100
AcDbEntity
  8
Defpoints
 62
     0
100
AcDbPoint
 10
5524.397546749518
 20
332.5204431705399
 30
0.0
  0
ENDBLK
  5
29E
330
293
100
AcDbEntity
  8
0
100
AcDbBlockEnd
  0
BLOCK
  5
2FD
330
2F3
100
AcDbEntity
  8
0
100
AcDbBlockBegin
  2
*D5
 70
     1
 10
0.0
 20
0.0
 30
0.0
  3
*D5
  1

  0
LINE
  5
29F5
330
2F3
100
AcDbEntity
  8
0
370
     9
100
AcDbLine
 10
5554.15044802033
 20
1328.814219073068
 30
0.0
 11
5577.503320162509
 21
1328.814219073068
 31
0.0
  0
LINE
  5
29F6
330
2F3
100
AcDbEntity
  8
0
370
     9
100
AcDbLine
 10
5453.80193572081
 20
1099.583395503455
 30
0.0
 11
5577.503320162509
 21
1099.583395503455
 31
0.0
  0
LINE
  5
29F7
330
2F3
100
AcDbEntity
  8
0
370
     9
100
AcDbLine
 10
5572.50332016251
 20
1310.814219073068
 30
0.0
 11
5572.50332016251
 21
1117.583395503455
 31
0.0
  0
SOLID
  5
29F8
330
2F3
100
AcDbEntity
  8
0
100
AcDbTrace
 10
5569.503320162509
 20
1310.814219073068
 30
0.0
 11
5575.503320162511
 21
1310.814219073068
 31
0.0
 12
5572.50332016251
 22
1328.814219073068
 32
0.0
 13
5572.50332016251
 23
1328.814219073068
 33
0.0
  0
SOLID
  5
29F9
330
2F3
100
AcDbEntity
  8
0
100
AcDbTrace
 10
5569.503320162509
 20
1117.583395503455
 30
0.0
 11
5575.503320162511
 21
1117.583395503455
 31
0.0
 12
5572.50332016251
 22
1099.583395503455
 32
0.0
 13
5572.50332016251
 23
1099.583395503455
 33
0.0
  0
MTEXT
  5
29FA
330
2F3
100
AcDbEntity
  8
0
 62
     0
100
AcDbMText
 10
5556.093082238933
 20
1214.198807288262
 30
0.0
 40
20.0
 41
0.0
 71
     5
 72
     1
  1
228(9")
 11
0.0000000000000001
 21
1.0
 31
0.0
 73
     1
 44
1.0
  0
POINT
  5
29FB
330
2F3
100
AcDbEntity
  8
Defpoints
 62
     0
100
AcDbPoint
 10
5544.150448020328
 20
1328.814219073068
 30
0.0
  0
POINT
  5
29FC
330
2F3
100
AcDbEntity
  8
Defpoints
 62
     0
100
AcDbPoint
 10
5443.801935720808
 20
1099.583395503455
 30
0.0
  0
POINT
  5
29FD
330
2F3
100
AcDbEntity
  8
Defpoints
 62
     0
100
AcDbPoint
 10
5572.50332016251
 20
1099.583395503455
 30
0.0
  0
ENDBLK
  5
2FE
330
2F3
100
AcDbEntity
  8
0
100
AcDbBlockEnd
  0
BLOCK
  5
895
330
88B
100
AcDbEntity
  8
0
100
AcDbBlockBegin
  2
*D6
 70
     1
 10
0.0
 20
0.0
 30
0.0
  3
*D6
  1

  0
LINE
  5
2799
330
88B
100
AcDbEntity
  8
0
370
     9
100
AcDbLine
 10
2862.422333734231
 20
3063.019962620931
 30
0.0
 11
2885.775205876413
 21
3063.019962620931
 31
0.0
  0
LINE
  5
279A
330
88B
100
AcDbEntity
  8
0
370
     9
100
AcDbLine
 10
2845.180296430621
 20
2859.819962620928
 30
0.0
 11
2885.775205876413
 21
2859.819962620928
 31
0.0
  0
LINE
  5
279B
330
88B
100
AcDbEntity
  8
0
370
     9
100
AcDbLine
 10
2880.775205876414
 20
3045.01996262093
 30
0.0
 11
2880.775205876414
 21
2877.819962620929
 31
0.0
  0
SOLID
  5
279C
330
88B
100
AcDbEntity
  8
0
100
AcDbTrace
 10
2877.775205876414
 20
3045.01996262093
 30
0.0
 11
2883.775205876414
 21
3045.01996262093
 31
0.0
 12
2880.775205876414
 22
3063.019962620931
 32
0.0
 13
2880.775205876414
 23
3063.019962620931
 33
0.0
  0
SOLID
  5
279D
330
88B
100
AcDbEntity
  8
0
100
AcDbTrace
 10
2877.775205876414
 20
2877.819962620929
 30
0.0
 11
2883.775205876414
 21
2877.819962620929
 31
0.0
 12
2880.775205876414
 22
2859.819962620928
 32
0.0
 13
2880.775205876414
 23
2859.819962620928
 33
0.0
  0
MTEXT
  5
279E
330
88B
100
AcDbEntity
  8
0
 62
     0
100
AcDbMText
 10
2864.364967952838
 20
2961.419962620929
 30
0.0
 40
20.0
 41
0.0
 71
     5
 72
     1
  1
203mm(8")
 11
0.0000000000000001
 21
1.0
 31
0.0
 73
     1
 44
1.0
  0
POINT
  5
279F
330
88B
100
AcDbEntity
  8
Defpoints
 62
     0
100
AcDbPoint
 10
2852.422333734231
 20
3063.019962620931
 30
0.0
  0
POINT
  5
27A0
330
88B
100
AcDbEntity
  8
Defpoints
 62
     0
100
AcDbPoint
 10
2835.180296430621
 20
2859.819962620928
 30
0.0
  0
POINT
  5
27A1
330
88B
100
AcDbEntity
  8
Defpoints
 62
     0
100
AcDbPoint
 10
2880.775205876414
 20
2859.819962620928
 30
0.0
  0
ENDBLK
  5
896
330
88B
100
AcDbEntity
  8
0
100
AcDbBlockEnd
  0
BLOCK
  5
8A1
330
897
100
AcDbEntity
  8
0
100
AcDbBlockBegin
  2
*D7
 70
     1
 10
0.0
 20
0.0
 30
0.0
  3
*D7
  1

  0
LINE
  5
27A2
330
897
100
AcDbEntity
  8
0
370
     9
100
AcDbLine
 10
2232.669432463422
 20
2237.354052979267
 30
0.0
 11
2232.669432463422
 21
2061.726186718402
 31
0.0
  0
LINE
  5
27A3
330
897
100
AcDbEntity
  8
0
370
     9
100
AcDbLine
 10
2832.669432463422
 20
2239.236469934376
 30
0.0
 11
2832.669432463422
 21
2061.726186718402
 31
0.0
  0
LINE
  5
27A4
330
897
100
AcDbEntity
  8
0
370
     9
100
AcDbLine
 10
2250.669432463422
 20
2066.726186718403
 30
0.0
 11
2814.669432463422
 21
2066.726186718403
 31
0.0
  0
SOLID
  5
27A5
330
897
100
AcDbEntity
  8
0
100
AcDbTrace
 10
2250.669432463422
 20
2069.726186718403
 30
0.0
 11
2250.669432463422
 21
2063.726186718403
 31
0.0
 12
2232.669432463422
 22
2066.726186718403
 32
0.0
 13
2232.669432463422
 23
2066.726186718403
 33
0.0
  0
SOLID
  5
27A6
330
897
100
AcDbEntity
  8
0
100
AcDbTrace
 10
2814.669432463422
 20
2069.726186718403
 30
0.0
 11
2814.669432463422
 21
2063.726186718403
 31
0.0
 12
2832.669432463422
 22
2066.726186718403
 32
0.0
 13
2832.669432463422
 23
2066.726186718403
 33
0.0
  0
MTEXT
  5
27A7
330
897
100
AcDbEntity
  8
0
 62
     0
100
AcDbMText
 10
2532.669432463422
 20
2083.136424641979
 30
0.0
 40
20.0
 41
0.0
 71
     5
 72
     1
  1
590mm(23-1/4")
 73
     1
 44
1.0
  0
POINT
  5
27A8
330
897
100
AcDbEntity
  8
Defpoints
 62
     0
100
AcDbPoint
 10
2232.669432463422
 20
2247.354052979267
 30
0.0
  0
POINT
  5
27A9
330
897
100
AcDbEntity
  8
Defpoints
 62
     0
100
AcDbPoint
 10
2832.669432463422
 20
2249.236469934376
 30
0.0
  0
POINT
  5
27AA
330
897
100
AcDbEntity
  8
Defpoints
 62
     0
100
AcDbPoint
 10
2832.669432463422
 20
2066.726186718403
 30
0.0
  0
ENDBLK
  5
8A2
330
897
100
AcDbEntity
  8
0
100
AcDbBlockEnd
  0
BLOCK
  5
8AD
330
8A3
100
AcDbEntity
  8
0
100
AcDbBlockBegin
  2
*D8
 70
     1
 10
0.0
 20
0.0
 30
0.0
  3
*D8
  1

  0
LINE
  5
27AB
330
8A3
100
AcDbEntity
  8
0
370
     9
100
AcDbLine
 10
2262.730651647118
 20
2206.102890830627
 30
0.0
 11
2262.730651647118
 21
2121.926461790556
 31
0.0
  0
LINE
  5
27AC
330
8A3
100
AcDbEntity
  8
0
370
     9
100
AcDbLine
 10
2802.608213279726
 20
2197.213068006552
 30
0.0
 11
2802.608213279726
 21
2121.926461790556
 31
0.0
  0
LINE
  5
27AD
330
8A3
100
AcDbEntity
  8
0
370
     9
100
AcDbLine
 10
2280.730651647118
 20
2126.926461790556
 30
0.0
 11
2784.608213279726
 21
2126.926461790556
 31
0.0
  0
SOLID
  5
27AE
330
8A3
100
AcDbEntity
  8
0
100
AcDbTrace
 10
2280.730651647118
 20
2129.926461790556
 30
0.0
 11
2280.730651647118
 21
2123.926461790555
 31
0.0
 12
2262.730651647118
 22
2126.926461790556
 32
0.0
 13
2262.730651647118
 23
2126.926461790556
 33
0.0
  0
SOLID
  5
27AF
330
8A3
100
AcDbEntity
  8
0
100
AcDbTrace
 10
2784.608213279726
 20
2129.926461790556
 30
0.0
 11
2784.608213279726
 21
2123.926461790555
 31
0.0
 12
2802.608213279726
 22
2126.926461790556
 32
0.0
 13
2802.608213279726
 23
2126.926461790556
 33
0.0
  0
MTEXT
  5
27B0
330
8A3
100
AcDbEntity
  8
0
 62
     0
100
AcDbMText
 10
2532.669432463422
 20
2143.336699714132
 30
0.0
 40
20.0
 41
0.0
 71
     5
 72
     1
  1
540mm(21-1/4")
 73
     1
 44
1.0
  0
POINT
  5
27B1
330
8A3
100
AcDbEntity
  8
Defpoints
 62
     0
100
AcDbPoint
 10
2262.730651647118
 20
2216.102890830627
 30
0.0
  0
POINT
  5
27B2
330
8A3
100
AcDbEntity
  8
Defpoints
 62
     0
100
AcDbPoint
 10
2802.608213279726
 20
2207.213068006552
 30
0.0
  0
POINT
  5
27B3
330
8A3
100
AcDbEntity
  8
Defpoints
 62
     0
100
AcDbPoint
 10
2802.608213279726
 20
2126.926461790556
 30
0.0
  0
ENDBLK
  5
8AE
330
8A3
100
AcDbEntity
  8
0
100
AcDbBlockEnd
  0
BLOCK
  5
8B9
330
8AF
100
AcDbEntity
  8
0
100
AcDbBlockBegin
  2
*D9
 70
     1
 10
0.0
 20
0.0
 30
0.0
  3
*D9
  1

  0
LINE
  5
27B4
330
8AF
100
AcDbEntity
  8
0
370
     9
100
AcDbLine
 10
2771.636189084682
 20
2698.789747099111
 30
0.0
 11
2901.446691680347
 21
2698.789747099111
 31
0.0
  0
LINE
  5
27B5
330
8AF
100
AcDbEntity
  8
0
370
     9
100
AcDbLine
 10
2827.417409156739
 20
2218.716708587038
 30
0.0
 11
2901.446691680347
 21
2218.716708587038
 31
0.0
  0
LINE
  5
27B6
330
8AF
100
AcDbEntity
  8
0
370
     9
100
AcDbLine
 10
2896.446691680348
 20
2680.789747099111
 30
0.0
 11
2896.446691680348
 21
2236.716708587038
 31
0.0
  0
SOLID
  5
27B7
330
8AF
100
AcDbEntity
  8
0
100
AcDbTrace
 10
2893.446691680347
 20
2680.789747099111
 30
0.0
 11
2899.446691680347
 21
2680.789747099111
 31
0.0
 12
2896.446691680348
 22
2698.789747099111
 32
0.0
 13
2896.446691680348
 23
2698.789747099111
 33
0.0
  0
SOLID
  5
27B8
330
8AF
100
AcDbEntity
  8
0
100
AcDbTrace
 10
2893.446691680347
 20
2236.716708587038
 30
0.0
 11
2899.446691680347
 21
2236.716708587038
 31
0.0
 12
2896.446691680348
 22
2218.716708587038
 32
0.0
 13
2896.446691680348
 23
2218.716708587038
 33
0.0
  0
MTEXT
  5
27B9
330
8AF
100
AcDbEntity
  8
0
 62
     0
100
AcDbMText
 10
2880.036453756771
 20
2458.753227843075
 30
0.0
 40
20.0
 41
0.0
 71
     5
 72
     1
  1
480mm(18-7/8")
 11
0.0000000000000001
 21
1.0
 31
0.0
 73
     1
 44
1.0
  0
POINT
  5
27BA
330
8AF
100
AcDbEntity
  8
Defpoints
 62
     0
100
AcDbPoint
 10
2761.636189084682
 20
2698.789747099111
 30
0.0
  0
POINT
  5
27BB
330
8AF
100
AcDbEntity
  8
Defpoints
 62
     0
100
AcDbPoint
 10
2817.417409156739
 20
2218.716708587038
 30
0.0
  0
POINT
  5
27BC
330
8AF
100
AcDbEntity
  8
Defpoints
 62
     0
100
AcDbPoint
 10
2896.446691680348
 20
2218.716708587038
 30
0.0
  0
ENDBLK
  5
8BA
330
8AF
100
AcDbEntity
  8
0
100
AcDbBlockEnd
  0
BLOCK
  5
8C5
330
8BB
100
AcDbEntity
  8
0
100
AcDbBlockBegin
  2
*D10
 70
     1
 10
0.0
 20
0.0
 30
0.0
  3
*D10
  1

  0
LINE
  5
27BD
330
8BB
100
AcDbEntity
  8
0
370
     9
100
AcDbLine
 10
2766.779640376605
 20
2728.716708587038
 30
0.0
 11
2962.965067987961
 21
2728.716708587038
 31
0.0
  0
LINE
  5
27BE
330
8BB
100
AcDbEntity
  8
0
370
     9
100
AcDbLine
 10
2791.578936182425
 20
2188.716708587038
 30
0.0
 11
2962.965067987961
 21
2188.716708587038
 31
0.0
  0
LINE
  5
27BF
330
8BB
100
AcDbEntity
  8
0
370
     9
100
AcDbLine
 10
2957.96506798796
 20
2710.716708587038
 30
0.0
 11
2957.96506798796
 21
2206.716708587038
 31
0.0
  0
SOLID
  5
27C0
330
8BB
100
AcDbEntity
  8
0
100
AcDbTrace
 10
2954.96506798796
 20
2710.716708587038
 30
0.0
 11
2960.96506798796
 21
2710.716708587038
 31
0.0
 12
2957.96506798796
 22
2728.716708587038
 32
0.0
 13
2957.96506798796
 23
2728.716708587038
 33
0.0
  0
SOLID
  5
27C1
330
8BB
100
AcDbEntity
  8
0
100
AcDbTrace
 10
2954.96506798796
 20
2206.716708587038
 30
0.0
 11
2960.96506798796
 21
2206.716708587038
 31
0.0
 12
2957.96506798796
 22
2188.716708587038
 32
0.0
 13
2957.96506798796
 23
2188.716708587038
 33
0.0
  0
MTEXT
  5
27C2
330
8BB
100
AcDbEntity
  8
0
 62
     0
100
AcDbMText
 10
2941.554830064384
 20
2458.716708587038
 30
0.0
 40
20.0
 41
0.0
 71
     5
 72
     1
  1
530mm(20-7/8")
 11
0.0000000000000001
 21
1.0
 31
0.0
 73
     1
 44
1.0
  0
POINT
  5
27C3
330
8BB
100
AcDbEntity
  8
Defpoints
 62
     0
100
AcDbPoint
 10
2756.779640376605
 20
2728.716708587038
 30
0.0
  0
POINT
  5
27C4
330
8BB
100
AcDbEntity
  8
Defpoints
 62
     0
100
AcDbPoint
 10
2781.578936182425
 20
2188.716708587038
 30
0.0
  0
POINT
  5
27C5
330
8BB
100
AcDbEntity
  8
Defpoints
 62
     0
100
AcDbPoint
 10
2957.96506798796
 20
2188.716708587038
 30
0.0
  0
ENDBLK
  5
8C6
330
8BB
100
AcDbEntity
  8
0
100
AcDbBlockEnd
  0
BLOCK
  5
1033
330
1029
100
AcDbEntity
  8
0
100
AcDbBlockBegin
  2
*D11
 70
     1
 10
0.0
 20
0.0
 30
0.0
  3
*D11
  1

  0
LINE
  5
107B
330
1029
100
AcDbEntity
  8
0
 62
     6
370
    -2
100
AcDbLine
 10
4949.566576624278
 20
449.5603843294511
 30
0.0
 11
4949.566576624278
 21
314.8433050808371
 31
0.0
  0
LINE
  5
107C
330
1029
100
AcDbEntity
  8
0
 62
     6
370
    -2
100
AcDbLine
 10
5525.080355086894
 20
449.5603843294583
 30
0.0
 11
5525.080355086894
 21
314.8433050808371
 31
0.0
  0
LINE
  5
107D
330
1029
100
AcDbEntity
  8
0
 62
     6
370
    -2
100
AcDbLine
 10
4964.566576624278
 20
316.0933050808371
 30
0.0
 11
5510.080355086894
 21
316.0933050808371
 31
0.0
  0
SOLID
  5
107E
330
1029
100
AcDbEntity
  8
0
 62
     6
100
AcDbTrace
 10
4964.566576624278
 20
318.5933050808371
 30
0.0
 11
4964.566576624278
 21
313.5933050808371
 31
0.0
 12
4949.566576624278
 22
316.0933050808371
 32
0.0
 13
4949.566576624278
 23
316.0933050808371
 33
0.0
  0
SOLID
  5
107F
330
1029
100
AcDbEntity
  8
0
 62
     6
100
AcDbTrace
 10
5510.080355086894
 20
318.5933050808371
 30
0.0
 11
5510.080355086894
 21
313.5933050808371
 31
0.0
 12
5525.080355086894
 22
316.0933050808371
 32
0.0
 13
5525.080355086894
 23
316.0933050808371
 33
0.0
  0
MTEXT
  5
1080
330
1029
100
AcDbEntity
  8
0
 62
     0
100
AcDbMText
 10
5237.323465855586
 20
333.5518487001594
 30
0.0
 40
20.0
 41
0.0
 71
     5
 72
     1
  1
575,5
 73
     1
 44
1.0
  0
POINT
  5
1081
330
1029
100
AcDbEntity
  8
Defpoints
 62
     0
100
AcDbPoint
 10
4949.566576624278
 20
450.1853843294511
 30
0.0
  0
POINT
  5
1082
330
1029
100
AcDbEntity
  8
Defpoints
 62
     0
100
AcDbPoint
 10
5525.080355086894
 20
450.1853843294584
 30
0.0
  0
POINT
  5
1083
330
1029
100
AcDbEntity
  8
Defpoints
 62
     0
100
AcDbPoint
 10
5525.080355086894
 20
316.0933050808371
 30
0.0
  0
ENDBLK
  5
1034
330
1029
100
AcDbEntity
  8
0
100
AcDbBlockEnd
  0
BLOCK
  5
1079
330
106F
100
AcDbEntity
  8
0
100
AcDbBlockBegin
  2
*D12
 70
     1
 10
0.0
 20
0.0
 30
0.0
  3
*D12
  1

  0
LINE
  5
11C5
330
106F
100
AcDbEntity
  8
0
 62
     6
370
    -2
100
AcDbLine
 10
5507.201064943156
 20
533.0578980954253
 30
0.0
 11
5507.201064943156
 21
353.358498492284
 31
0.0
  0
LINE
  5
11C6
330
106F
100
AcDbEntity
  8
0
 62
     6
370
    -2
100
AcDbLine
 10
4967.445866768026
 20
533.0578980955964
 30
0.0
 11
4967.445866768026
 21
353.358498492284
 31
0.0
  0
LINE
  5
11C7
330
106F
100
AcDbEntity
  8
0
 62
     6
370
    -2
100
AcDbLine
 10
5492.201064943158
 20
354.608498492284
 30
0.0
 11
4982.445866768027
 21
354.608498492284
 31
0.0
  0
SOLID
  5
11C8
330
106F
100
AcDbEntity
  8
0
 62
     6
100
AcDbTrace
 10
5492.201064943158
 20
357.108498492284
 30
0.0
 11
5492.201064943158
 21
352.108498492284
 31
0.0
 12
5507.201064943156
 22
354.608498492284
 32
0.0
 13
5507.201064943156
 23
354.608498492284
 33
0.0
  0
SOLID
  5
11C9
330
106F
100
AcDbEntity
  8
0
 62
     6
100
AcDbTrace
 10
4982.445866768027
 20
357.108498492284
 30
0.0
 11
4982.445866768027
 21
352.108498492284
 31
0.0
 12
4967.445866768026
 22
354.608498492284
 32
0.0
 13
4967.445866768026
 23
354.608498492284
 33
0.0
  0
MTEXT
  5
11CA
330
106F
100
AcDbEntity
  8
0
 62
     0
100
AcDbMText
 10
5237.323465855592
 20
372.0670421116062
 30
0.0
 40
20.0
 41
0.0
 71
     5
 72
     1
  1
539,8
 73
     1
 44
1.0
  0
POINT
  5
11CB
330
106F
100
AcDbEntity
  8
Defpoints
 62
     0
100
AcDbPoint
 10
5507.201064943156
 20
533.6828980954253
 30
0.0
  0
POINT
  5
11CC
330
106F
100
AcDbEntity
  8
Defpoints
 62
     0
100
AcDbPoint
 10
4967.445866768026
 20
533.6828980955964
 30
0.0
  0
POINT
  5
11CD
330
106F
100
AcDbEntity
  8
Defpoints
 62
     0
100
AcDbPoint
 10
4967.445866768026
 20
354.608498492284
 30
0.0
  0
ENDBLK
  5
107A
330
106F
100
AcDbEntity
  8
0
100
AcDbBlockEnd
  0
BLOCK
  5
108E
330
1084
100
AcDbEntity
  8
0
100
AcDbBlockBegin
  2
*D13
 70
     1
 10
0.0
 20
0.0
 30
0.0
  3
*D13
  1

  0
LINE
  5
1085
330
1084
100
AcDbEntity
  8
0
 62
     6
370
    -2
100
AcDbLine
 10
4934.566576624274
 20
449.5603843294511
 30
0.0
 11
4934.566576624274
 21
279.079213763579
 31
0.0
  0
LINE
  5
1086
330
1084
100
AcDbEntity
  8
0
 62
     6
370
    -2
100
AcDbLine
 10
5540.080355086899
 20
449.5603843294511
 30
0.0
 11
5540.080355086899
 21
279.079213763579
 31
0.0
  0
LINE
  5
1087
330
1084
100
AcDbEntity
  8
0
 62
     6
370
    -2
100
AcDbLine
 10
4949.566576624274
 20
280.329213763579
 30
0.0
 11
5525.080355086899
 21
280.329213763579
 31
0.0
  0
SOLID
  5
1088
330
1084
100
AcDbEntity
  8
0
 62
     6
100
AcDbTrace
 10
4949.566576624274
 20
282.829213763579
 30
0.0
 11
4949.566576624274
 21
277.829213763579
 31
0.0
 12
4934.566576624274
 22
280.329213763579
 32
0.0
 13
4934.566576624274
 23
280.329213763579
 33
0.0
  0
SOLID
  5
1089
330
1084
100
AcDbEntity
  8
0
 62
     6
100
AcDbTrace
 10
5525.080355086899
 20
282.829213763579
 30
0.0
 11
5525.080355086899
 21
277.829213763579
 31
0.0
 12
5540.080355086899
 22
280.329213763579
 32
0.0
 13
5540.080355086899
 23
280.329213763579
 33
0.0
  0
MTEXT
  5
108A
330
1084
100
AcDbEntity
  8
0
 62
     0
100
AcDbMText
 10
5237.323465855586
 20
297.7877573829013
 30
0.0
 40
20.0
 41
0.0
 71
     5
 72
     1
  1
605,5
 73
     1
 44
1.0
  0
POINT
  5
108B
330
1084
100
AcDbEntity
  8
Defpoints
 62
     0
100
AcDbPoint
 10
4934.566576624274
 20
450.1853843294511
 30
0.0
  0
POINT
  5
108C
330
1084
100
AcDbEntity
  8
Defpoints
 62
     0
100
AcDbPoint
 10
5540.080355086899
 20
450.1853843294511
 30
0.0
  0
POINT
  5
108D
330
1084
100
AcDbEntity
  8
Defpoints
 62
     0
100
AcDbPoint
 10
5540.080355086899
 20
280.329213763579
 30
0.0
  0
ENDBLK
  5
108F
330
1084
100
AcDbEntity
  8
0
100
AcDbBlockEnd
  0
BLOCK
  5
109A
330
1090
100
AcDbEntity
  8
0
100
AcDbBlockBegin
  2
*D14
 70
     1
 10
0.0
 20
0.0
 30
0.0
  3
*D14
  1

  0
LINE
  5
11CE
330
1090
100
AcDbEntity
  8
0
 62
     6
370
    -2
100
AcDbLine
 10
5237.948465855589
 20
910.2584228415237
 30
0.0
 11
5596.704569738981
 21
910.2584228415237
 31
0.0
  0
LINE
  5
11CF
330
1090
100
AcDbEntity
  8
0
 62
     6
370
    -2
100
AcDbLine
 10
5407.887246671894
 20
430.1853843294503
 30
0.0
 11
5596.704569738981
 21
430.1853843294503
 31
0.0
  0
LINE
  5
11D0
330
1090
100
AcDbEntity
  8
0
 62
     6
370
    -2
100
AcDbLine
 10
5595.454569738979
 20
895.2584228415236
 30
0.0
 11
5595.454569738979
 21
445.1853843294503
 31
0.0
  0
SOLID
  5
11D1
330
1090
100
AcDbEntity
  8
0
 62
     6
100
AcDbTrace
 10
5592.954569738981
 20
895.2584228415236
 30
0.0
 11
5597.95456973898
 21
895.2584228415236
 31
0.0
 12
5595.454569738979
 22
910.2584228415237
 32
0.0
 13
5595.454569738979
 23
910.2584228415237
 33
0.0
  0
SOLID
  5
11D2
330
1090
100
AcDbEntity
  8
0
 62
     6
100
AcDbTrace
 10
5592.954569738981
 20
445.1853843294503
 30
0.0
 11
5597.95456973898
 21
445.1853843294503
 31
0.0
 12
5595.454569738979
 22
430.1853843294503
 32
0.0
 13
5595.454569738979
 23
430.1853843294503
 33
0.0
  0
MTEXT
  5
11D3
330
1090
100
AcDbEntity
  8
0
 62
     0
100
AcDbMText
 10
5577.996026119659
 20
670.2219035854879
 30
0.0
 40
20.0
 41
0.0
 71
     5
 72
     1
  1
480,1
 11
0.0000000000000001
 21
1.0
 31
0.0
 73
     1
 44
1.0
  0
POINT
  5
11D4
330
1090
100
AcDbEntity
  8
Defpoints
 62
     0
100
AcDbPoint
 10
5237.323465855587
 20
910.2584228415237
 30
0.0
  0
POINT
  5
11D5
330
1090
100
AcDbEntity
  8
Defpoints
 62
     0
100
AcDbPoint
 10
5407.262246671893
 20
430.1853843294503
 30
0.0
  0
POINT
  5
11D6
330
1090
100
AcDbEntity
  8
Defpoints
 62
     0
100
AcDbPoint
 10
5595.454569738979
 20
430.1853843294503
 30
0.0
  0
ENDBLK
  5
109B
330
1090
100
AcDbEntity
  8
0
100
AcDbBlockEnd
  0
BLOCK
  5
10A6
330
109C
100
AcDbEntity
  8
0
100
AcDbBlockBegin
  2
*D15
 70
     1
 10
0.0
 20
0.0
 30
0.0
  3
*D15
  1

  0
LINE
  5
11BC
330
109C
100
AcDbEntity
  8
0
 62
     6
370
    -2
100
AcDbLine
 10
5490.705355086895
 20
925.2584228415207
 30
0.0
 11
5640.740692691175
 21
925.2584228415207
 31
0.0
  0
LINE
  5
11BD
330
109C
100
AcDbEntity
  8
0
 62
     6
370
    -2
100
AcDbLine
 10
5490.705355086898
 20
415.1853843294547
 30
0.0
 11
5640.740692691175
 21
415.1853843294547
 31
0.0
  0
LINE
  5
11BE
330
109C
100
AcDbEntity
  8
0
 62
     6
370
    -2
100
AcDbLine
 10
5639.490692691175
 20
910.2584228415206
 30
0.0
 11
5639.490692691175
 21
430.1853843294546
 31
0.0
  0
SOLID
  5
11BF
330
109C
100
AcDbEntity
  8
0
 62
     6
100
AcDbTrace
 10
5636.990692691175
 20
910.2584228415206
 30
0.0
 11
5641.990692691176
 21
910.2584228415206
 31
0.0
 12
5639.490692691175
 22
925.2584228415207
 32
0.0
 13
5639.490692691175
 23
925.2584228415207
 33
0.0
  0
SOLID
  5
11C0
330
109C
100
AcDbEntity
  8
0
 62
     6
100
AcDbTrace
 10
5636.990692691175
 20
430.1853843294546
 30
0.0
 11
5641.990692691176
 21
430.1853843294546
 31
0.0
 12
5639.490692691175
 22
415.1853843294547
 32
0.0
 13
5639.490692691175
 23
415.1853843294547
 33
0.0
  0
MTEXT
  5
11C1
330
109C
100
AcDbEntity
  8
0
 62
     0
100
AcDbMText
 10
5622.032149071853
 20
670.2219035854887
 30
0.0
 40
20.0
 41
0.0
 71
     5
 72
     1
  1
510,1
 11
0.0000000000000001
 21
1.0
 31
0.0
 73
     1
 44
1.0
  0
POINT
  5
11C2
330
109C
100
AcDbEntity
  8
Defpoints
 62
     0
100
AcDbPoint
 10
5490.080355086895
 20
925.2584228415207
 30
0.0
  0
POINT
  5
11C3
330
109C
100
AcDbEntity
  8
Defpoints
 62
     0
100
AcDbPoint
 10
5490.080355086899
 20
415.1853843294547
 30
0.0
  0
POINT
  5
11C4
330
109C
100
AcDbEntity
  8
Defpoints
 62
     0
100
AcDbPoint
 10
5639.490692691175
 20
415.1853843294547
 30
0.0
  0
ENDBLK
  5
10A7
330
109C
100
AcDbEntity
  8
0
100
AcDbBlockEnd
  0
BLOCK
  5
10B2
330
10A8
100
AcDbEntity
  8
0
100
AcDbBlockBegin
  2
*D16
 70
     1
 10
0.0
 20
0.0
 30
0.0
  3
*D16
  1

  0
LINE
  5
11B3
330
10A8
100
AcDbEntity
  8
0
 62
     6
370
    -2
100
AcDbLine
 10
5490.705355086895
 20
940.2584228415244
 30
0.0
 11
5685.694211044316
 21
940.2584228415244
 31
0.0
  0
LINE
  5
11B4
330
10A8
100
AcDbEntity
  8
0
 62
     6
370
    -2
100
AcDbLine
 10
5490.705355086898
 20
400.1853843294546
 30
0.0
 11
5685.694211044316
 21
400.1853843294546
 31
0.0
  0
LINE
  5
11B5
330
10A8
100
AcDbEntity
  8
0
 62
     6
370
    -2
100
AcDbLine
 10
5684.444211044316
 20
925.2584228415244
 30
0.0
 11
5684.444211044316
 21
415.1853843294547
 31
0.0
  0
SOLID
  5
11B6
330
10A8
100
AcDbEntity
  8
0
 62
     6
100
AcDbTrace
 10
5681.944211044316
 20
925.2584228415244
 30
0.0
 11
5686.944211044316
 21
925.2584228415244
 31
0.0
 12
5684.444211044316
 22
940.2584228415244
 32
0.0
 13
5684.444211044316
 23
940.2584228415244
 33
0.0
  0
SOLID
  5
11B7
330
10A8
100
AcDbEntity
  8
0
 62
     6
100
AcDbTrace
 10
5681.944211044316
 20
415.1853843294547
 30
0.0
 11
5686.944211044316
 21
415.1853843294547
 31
0.0
 12
5684.444211044316
 22
400.1853843294546
 32
0.0
 13
5684.444211044316
 23
400.1853843294546
 33
0.0
  0
MTEXT
  5
11B8
330
10A8
100
AcDbEntity
  8
0
 62
     0
100
AcDbMText
 10
5666.985667424994
 20
670.2219035854905
 30
0.0
 40
20.0
 41
0.0
 71
     5
 72
     1
  1
540,1
 11
0.0000000000000001
 21
1.0
 31
0.0
 73
     1
 44
1.0
  0
POINT
  5
11B9
330
10A8
100
AcDbEntity
  8
Defpoints
 62
     0
100
AcDbPoint
 10
5490.080355086895
 20
940.2584228415244
 30
0.0
  0
POINT
  5
11BA
330
10A8
100
AcDbEntity
  8
Defpoints
 62
     0
100
AcDbPoint
 10
5490.080355086899
 20
400.1853843294546
 30
0.0
  0
POINT
  5
11BB
330
10A8
100
AcDbEntity
  8
Defpoints
 62
     0
100
AcDbPoint
 10
5684.444211044316
 20
400.1853843294546
 30
0.0
  0
ENDBLK
  5
10B3
330
10A8
100
AcDbEntity
  8
0
100
AcDbBlockEnd
  0
BLOCK
  5
10BD
330
10B4
100
AcDbEntity
  8
0
100
AcDbBlockBegin
  2
*D17
 70
     1
 10
0.0
 20
0.0
 30
0.0
  3
*D17
  1

  0
LINE
  5
11F1
330
10B4
100
AcDbEntity
  8
0
 62
     6
370
    -2
100
AcDbLine
 10
4814.560353166694
 20
967.1871056472067
 30
0.0
 11
4891.874700679311
 21
967.1871056472076
 31
0.0
  0
LINE
  5
11F2
330
10B4
100
AcDbEntity
  8
0
 62
     6
370
    -2
100
AcDbLine
 10
4891.874700679311
 20
967.1871056472076
 30
0.0
 11
4934.548818290593
 21
931.770154331218
 31
0.0
  0
MTEXT
  5
11F3
330
10B4
100
AcDbEntity
  8
0
 62
     0
100
AcDbMText
 10
4850.717526923002
 20
982.3601409752534
 30
0.0
 40
20.0
 41
0.0
 71
     5
 72
     1
  1
4-R50
 73
     1
 44
1.0
  0
SOLID
  5
11F4
330
10B4
100
AcDbEntity
  8
0
 62
     6
100
AcDbTrace
 10
4936.145423347891
 20
933.6939142671292
 30
0.0
 11
4932.952213233299
 21
929.8463943953064
 31
0.0
 12
4946.091377906061
 22
922.1905239874423
 32
0.0
 13
4946.091377906061
 23
922.1905239874423
 33
0.0
  0
LINE
  5
11F5
330
10B4
100
AcDbEntity
  8
0
 62
     6
370
    -2
100
AcDbLine
 10
4982.066576624278
 20
890.258422841528
 30
0.0
 11
4987.066576624278
 21
890.2584228415285
 31
0.0
  0
LINE
  5
11F6
330
10B4
100
AcDbEntity
  8
0
 62
     6
370
    -2
100
AcDbLine
 10
4984.566576624278
 20
887.7584228415285
 30
0.0
 11
4984.566576624278
 21
892.7584228415282
 31
0.0
  0
POINT
  5
11F7
330
10B4
100
AcDbEntity
  8
Defpoints
 62
     0
100
AcDbPoint
 10
4946.091377906061
 20
922.1905239874423
 30
0.0
  0
POINT
  5
11F8
330
10B4
100
AcDbEntity
  8
Defpoints
 62
     0
100
AcDbPoint
 10
4984.566576624278
 20
890.2584228415285
 30
0.0
  0
ENDBLK
  5
10BE
330
10B4
100
AcDbEntity
  8
0
100
AcDbBlockEnd
  0
BLOCK
  5
10C9
330
10BF
100
AcDbEntity
  8
0
100
AcDbBlockBegin
  2
*D18
 70
     1
 10
0.0
 20
0.0
 30
0.0
  3
*D18
  1

  0
LINE
  5
11F9
330
10BF
100
AcDbEntity
  8
0
 62
     6
370
    -2
100
AcDbLine
 10
5100.431342739661
 20
828.5049780816999
 30
0.0
 11
5047.572654924231
 21
828.5049780816999
 31
0.0
  0
LINE
  5
11FA
330
10BF
100
AcDbEntity
  8
0
 62
     6
370
    -2
100
AcDbLine
 10
5047.572654924231
 20
828.5049780816999
 30
0.0
 11
5019.867893107125
 21
855.4394616320051
 31
0.0
  0
LINE
  5
11FB
330
10BF
100
AcDbEntity
  8
0
 62
     6
370
    -2
100
AcDbLine
 10
4973.262633544867
 20
900.7489504961988
 30
0.0
 11
4962.507573645884
 21
911.2049863879358
 31
0.0
  0
MTEXT
  5
11FC
330
10BF
100
AcDbEntity
  8
0
 62
     0
100
AcDbMText
 10
5076.501998831947
 20
843.9375664018161
 30
0.0
 40
20.0
 41
0.0
 71
     5
 72
     1
  1
\U+220535
 73
     1
 44
1.0
  0
LINE
  5
11FD
330
10BF
100
AcDbEntity
  8
0
 62
     6
370
    -2
100
AcDbLine
 10
4984.017693443849
 20
890.2929146044616
 30
0.0
 11
5009.112833208142
 21
865.8954975237421
 31
0.0
  0
SOLID
  5
11FE
330
10BF
100
AcDbEntity
  8
0
 62
     6
100
AcDbTrace
 10
4975.00530619349
 20
902.5414604793622
 30
0.0
 11
4971.519960896245
 21
898.9564405130348
 31
0.0
 12
4984.017693443849
 22
890.2929146044616
 32
0.0
 13
4984.017693443849
 23
890.2929146044616
 33
0.0
  0
SOLID
  5
11FF
330
10BF
100
AcDbEntity
  8
0
 62
     6
100
AcDbTrace
 10
5021.610565755748
 20
857.2319716151687
 30
0.0
 11
5018.125220458503
 21
853.6469516488409
 31
0.0
 12
5009.112833208142
 22
865.8954975237421
 32
0.0
 13
5009.112833208142
 23
865.8954975237421
 33
0.0
  0
POINT
  5
1200
330
10BF
100
AcDbEntity
  8
Defpoints
 62
     0
100
AcDbPoint
 10
5009.112833208142
 20
865.8954975237421
 30
0.0
  0
POINT
  5
1201
330
10BF
100
AcDbEntity
  8
Defpoints
 62
     0
100
AcDbPoint
 10
4984.017693443849
 20
890.2929146044616
 30
0.0
  0
ENDBLK
  5
10CA
330
10BF
100
AcDbEntity
  8
0
100
AcDbBlockEnd
  0
BLOCK
  5
110C
330
1102
100
AcDbEntity
  8
0
100
AcDbBlockBegin
  2
*D19
 70
     1
 10
0.0
 20
0.0
 30
0.0
  3
*D19
  1

  0
LINE
  5
131B
330
1102
100
AcDbEntity
  8
0
 62
     6
370
    -2
100
AcDbLine
 10
5237.948465855589
 20
740.2584228415236
 30
0.0
 11
5364.337478623269
 21
740.2584228415236
 31
0.0
  0
LINE
  5
131C
330
1102
100
AcDbEntity
  8
0
 62
     6
370
    -2
100
AcDbLine
 10
5391.139984367659
 20
910.2584228415244
 30
0.0
 11
5361.837478623271
 21
910.2584228415246
 31
0.0
  0
LINE
  5
131D
330
1102
100
AcDbEntity
  8
0
 62
     6
370
    -2
100
AcDbLine
 10
5363.08747862327
 20
755.2584228415237
 30
0.0
 11
5363.08747862327
 21
895.2584228415245
 31
0.0
  0
SOLID
  5
131E
330
1102
100
AcDbEntity
  8
0
 62
     6
100
AcDbTrace
 10
5360.587478623271
 20
755.2584228415237
 30
0.0
 11
5365.587478623271
 21
755.2584228415237
 31
0.0
 12
5363.08747862327
 22
740.2584228415236
 32
0.0
 13
5363.08747862327
 23
740.2584228415236
 33
0.0
  0
SOLID
  5
131F
330
1102
100
AcDbEntity
  8
0
 62
     6
100
AcDbTrace
 10
5360.587478623271
 20
895.2584228415245
 30
0.0
 11
5365.587478623271
 21
895.2584228415245
 31
0.0
 12
5363.08747862327
 22
910.2584228415246
 32
0.0
 13
5363.08747862327
 23
910.2584228415246
 33
0.0
  0
MTEXT
  5
1320
330
1102
100
AcDbEntity
  8
0
 62
     0
100
AcDbMText
 10
5347.885604073884
 20
825.2584228415248
 30
0.0
 40
20.0
 41
0.0
 71
     5
 72
     1
  1
170
 11
0.0000000000000001
 21
1.0
 31
0.0
 73
     1
 44
1.0
  0
POINT
  5
1321
330
1102
100
AcDbEntity
  8
Defpoints
 62
     0
100
AcDbPoint
 10
5237.323465855587
 20
740.2584228415236
 30
0.0
  0
POINT
  5
1322
330
1102
100
AcDbEntity
  8
Defpoints
 62
     0
100
AcDbPoint
 10
5391.764984367659
 20
910.2584228415244
 30
0.0
  0
POINT
  5
1323
330
1102
100
AcDbEntity
  8
Defpoints
 62
     0
100
AcDbPoint
 10
5363.08747862327
 20
910.2584228415246
 30
0.0
  0
ENDBLK
  5
110D
330
1102
100
AcDbEntity
  8
0
100
AcDbBlockEnd
  0
BLOCK
  5
114B
330
1141
100
AcDbEntity
  8
0
100
AcDbBlockBegin
  2
*D20
 70
     1
 10
0.0
 20
0.0
 30
0.0
  3
*D20
  1

  0
LINE
  5
1142
330
1141
100
AcDbEntity
  8
0
 62
     6
370
    -2
100
AcDbLine
 10
5266.58472379109
 20
1282.488638363341
 30
0.0
 11
5278.385020829792
 21
1282.488638363341
 31
0.0
  0
LINE
  5
1143
330
1141
100
AcDbEntity
  8
0
 62
     6
370
    -2
100
AcDbLine
 10
5237.979056719956
 20
1045.25781479373
 30
0.0
 11
5278.385020829792
 21
1045.25781479373
 31
0.0
  0
LINE
  5
1144
330
1141
100
AcDbEntity
  8
0
 62
     6
370
    -2
100
AcDbLine
 10
5277.135020829792
 20
1267.488638363341
 30
0.0
 11
5277.135020829792
 21
1060.25781479373
 31
0.0
  0
SOLID
  5
1145
330
1141
100
AcDbEntity
  8
0
 62
     6
100
AcDbTrace
 10
5274.635020829792
 20
1267.488638363341
 30
0.0
 11
5279.635020829791
 21
1267.488638363341
 31
0.0
 12
5277.135020829792
 22
1282.488638363341
 32
0.0
 13
5277.135020829792
 23
1282.488638363341
 33
0.0
  0
SOLID
  5
1146
330
1141
100
AcDbEntity
  8
0
 62
     6
100
AcDbTrace
 10
5274.635020829792
 20
1060.25781479373
 30
0.0
 11
5279.635020829791
 21
1060.25781479373
 31
0.0
 12
5277.135020829792
 22
1045.25781479373
 32
0.0
 13
5277.135020829792
 23
1045.25781479373
 33
0.0
  0
MTEXT
  5
1147
330
1141
100
AcDbEntity
  8
0
 62
     0
100
AcDbMText
 10
5261.961985501745
 20
1163.873226578543
 30
0.0
 40
20.0
 41
0.0
 71
     5
 72
     1
  1
203
 11
0.0000000000000001
 21
1.0
 31
0.0
 73
     1
 44
1.0
  0
POINT
  5
1148
330
1141
100
AcDbEntity
  8
Defpoints
 62
     0
100
AcDbPoint
 10
5265.959723791088
 20
1282.488638363341
 30
0.0
  0
POINT
  5
1149
330
1141
100
AcDbEntity
  8
Defpoints
 62
     0
100
AcDbPoint
 10
5237.354056719956
 20
1045.25781479373
 30
0.0
  0
POINT
  5
114A
330
1141
100
AcDbEntity
  8
Defpoints
 62
     0
100
AcDbPoint
 10
5277.135020829792
 20
1045.25781479373
 30
0.0
  0
ENDBLK
  5
114C
330
1141
100
AcDbEntity
  8
0
100
AcDbBlockEnd
  0
BLOCK
  5
115A
330
114D
100
AcDbEntity
  8
0
100
AcDbBlockBegin
  2
*D21
 70
     1
 10
0.0
 20
0.0
 30
0.0
  3
*D21
  1

  0
LINE
  5
114E
330
114D
100
AcDbEntity
  8
0
 62
     6
370
    -2
100
AcDbLine
 10
5366.079307290956
 20
1274.488638363341
 30
0.0
 11
5396.641319577724
 21
1274.488638363341
 31
0.0
  0
LINE
  5
114F
330
114D
100
AcDbEntity
  8
0
 62
     6
370
    -2
100
AcDbLine
 10
5366.079307290956
 20
1282.488638363341
 30
0.0
 11
5396.641319577724
 21
1282.488638363341
 31
0.0
  0
LINE
  5
1150
330
114D
100
AcDbEntity
  8
0
 62
     6
370
    -2
100
AcDbLine
 10
5395.391319577724
 20
1259.488638363341
 30
0.0
 11
5395.391319577724
 21
1244.488638363341
 31
0.0
  0
LINE
  5
1151
330
114D
100
AcDbEntity
  8
0
 62
     6
370
    -2
100
AcDbLine
 10
5395.391319577724
 20
1297.488638363341
 30
0.0
 11
5395.391319577724
 21
1312.488638363341
 31
0.0
  0
LINE
  5
1152
330
114D
100
AcDbEntity
  8
0
 62
     6
370
    -2
100
AcDbLine
 10
5395.391319577724
 20
1312.488638363341
 30
0.0
 11
5411.667455122064
 21
1312.488638363341
 31
0.0
  0
LINE
  5
1153
330
114D
100
AcDbEntity
  8
0
 62
     6
370
    -2
100
AcDbLine
 10
5395.391319577724
 20
1274.488638363341
 30
0.0
 11
5395.391319577724
 21
1282.488638363341
 31
0.0
  0
SOLID
  5
1154
330
114D
100
AcDbEntity
  8
0
 62
     6
100
AcDbTrace
 10
5392.891319577724
 20
1259.488638363341
 30
0.0
 11
5397.891319577723
 21
1259.488638363341
 31
0.0
 12
5395.391319577724
 22
1274.488638363341
 32
0.0
 13
5395.391319577724
 23
1274.488638363341
 33
0.0
  0
SOLID
  5
1155
330
114D
100
AcDbEntity
  8
0
 62
     6
100
AcDbTrace
 10
5392.891319577724
 20
1297.488638363341
 30
0.0
 11
5397.891319577723
 21
1297.488638363341
 31
0.0
 12
5395.391319577724
 22
1282.488638363341
 32
0.0
 13
5395.391319577724
 23
1282.488638363341
 33
0.0
  0
MTEXT
  5
1156
330
114D
100
AcDbEntity
  8
0
 62
     0
100
AcDbMText
 10
5406.029387349894
 20
1327.661673691388
 30
0.0
 40
20.0
 41
0.0
 71
     5
 72
     1
  1
8
 73
     1
 44
1.0
  0
POINT
  5
1157
330
114D
100
AcDbEntity
  8
Defpoints
 62
     0
100
AcDbPoint
 10
5365.454307290955
 20
1274.488638363341
 30
0.0
  0
POINT
  5
1158
330
114D
100
AcDbEntity
  8
Defpoints
 62
     0
100
AcDbPoint
 10
5365.454307290955
 20
1282.488638363341
 30
0.0
  0
POINT
  5
1159
330
114D
100
AcDbEntity
  8
Defpoints
 62
     0
100
AcDbPoint
 10
5395.391319577724
 20
1282.488638363341
 30
0.0
  0
ENDBLK
  5
115B
330
114D
100
AcDbEntity
  8
0
100
AcDbBlockEnd
  0
BLOCK
  5
139F
330
1395
100
AcDbEntity
  8
0
100
AcDbBlockBegin
  2
*D22
 70
     1
 10
0.0
 20
0.0
 30
0.0
  3
*D22
  1

  0
LINE
  5
13DF
330
1395
100
AcDbEntity
  8
0
 62
     6
370
    -2
100
AcDbLine
 10
5350.581019828201
 20
678.3552617691308
 30
0.0
 11
5296.828316151201
 21
678.3552617691308
 31
0.0
  0
LINE
  5
13E0
330
1395
100
AcDbEntity
  8
0
 62
     6
370
    -2
100
AcDbLine
 10
5296.828316151201
 20
678.3552617691308
 30
0.0
 11
5271.973630581234
 21
704.2117019853129
 31
0.0
  0
LINE
  5
13E1
330
1395
100
AcDbEntity
  8
0
 62
     6
370
    -2
100
AcDbLine
 10
5202.673301129944
 20
776.3051436977357
 30
0.0
 11
5192.27825171225
 21
787.1191599545991
 31
0.0
  0
MTEXT
  5
13E2
330
1395
100
AcDbEntity
  8
0
 62
     0
100
AcDbMText
 10
5326.204667989701
 20
693.787850089246
 30
0.0
 40
20.0
 41
0.0
 71
     5
 72
     1
  1
%%C90
 73
     1
 44
1.0
  0
LINE
  5
13E3
330
1395
100
AcDbEntity
  8
0
 62
     6
370
    -2
100
AcDbLine
 10
5213.068350547636
 20
765.4911274408719
 30
0.0
 11
5261.57858116354
 21
715.0257182421762
 31
0.0
  0
SOLID
  5
13E4
330
1395
100
AcDbEntity
  8
0
 62
     6
100
AcDbTrace
 10
5204.475637172754
 20
778.037651934018
 30
0.0
 11
5200.870965087133
 21
774.5726354614535
 31
0.0
 12
5213.068350547636
 22
765.4911274408719
 32
0.0
 13
5213.068350547636
 23
765.4911274408719
 33
0.0
  0
SOLID
  5
13E5
330
1395
100
AcDbEntity
  8
0
 62
     6
100
AcDbTrace
 10
5273.775966624044
 20
705.9442102215953
 30
0.0
 11
5270.171294538425
 21
702.4791937490307
 31
0.0
 12
5261.57858116354
 22
715.0257182421762
 32
0.0
 13
5261.57858116354
 23
715.0257182421762
 33
0.0
  0
POINT
  5
13E6
330
1395
100
AcDbEntity
  8
Defpoints
 62
     0
100
AcDbPoint
 10
5261.57858116354
 20
715.0257182421762
 30
0.0
  0
POINT
  5
13E7
330
1395
100
AcDbEntity
  8
Defpoints
 62
     0
100
AcDbPoint
 10
5213.068350547636
 20
765.4911274408719
 30
0.0
  0
ENDBLK
  5
13A0
330
1395
100
AcDbEntity
  8
0
100
AcDbBlockEnd
  0
BLOCK
  5
13B7
330
13AD
100
AcDbEntity
  8
0
100
AcDbBlockBegin
  2
*D23
 70
     1
 10
0.0
 20
0.0
 30
0.0
  3
*D23
  1

  0
LINE
  5
13E8
330
13AD
100
AcDbEntity
  8
0
 62
     6
370
    -2
100
AcDbLine
 10
5109.329818776068
 20
661.3488698943987
 30
0.0
 11
5177.76168611565
 21
661.3488698943987
 31
0.0
  0
LINE
  5
13E9
330
13AD
100
AcDbEntity
  8
0
 62
     6
370
    -2
100
AcDbLine
 10
5177.76168611565
 20
661.3488698943987
 30
0.0
 11
5199.36882650597
 21
689.9747738903934
 31
0.0
  0
LINE
  5
13EA
330
13AD
100
AcDbEntity
  8
0
 62
     6
370
    -2
100
AcDbLine
 10
5275.278105205205
 20
790.5420717926546
 30
0.0
 11
5284.314924097971
 21
802.5143691619714
 31
0.0
  0
MTEXT
  5
13EB
330
13AD
100
AcDbEntity
  8
0
 62
     0
100
AcDbMText
 10
5141.04575244586
 20
676.7814582145141
 30
0.0
 40
20.0
 41
0.0
 71
     5
 72
     1
  1
%%C116
 73
     1
 44
1.0
  0
LINE
  5
13EC
330
13AD
100
AcDbEntity
  8
0
 62
     6
370
    -2
100
AcDbLine
 10
5266.241286312439
 20
778.569774423338
 30
0.0
 11
5208.405645398737
 21
701.9470712597104
 31
0.0
  0
SOLID
  5
13ED
330
13AD
100
AcDbEntity
  8
0
 62
     6
100
AcDbTrace
 10
5273.282722310318
 20
792.0482082747826
 30
0.0
 11
5277.273488100091
 21
789.0359353105272
 31
0.0
 12
5266.241286312439
 22
778.569774423338
 32
0.0
 13
5266.241286312439
 23
778.569774423338
 33
0.0
  0
SOLID
  5
13EE
330
13AD
100
AcDbEntity
  8
0
 62
     6
100
AcDbTrace
 10
5197.373443611085
 20
691.480910372521
 30
0.0
 11
5201.364209400857
 21
688.4686374082656
 31
0.0
 12
5208.405645398737
 22
701.9470712597104
 32
0.0
 13
5208.405645398737
 23
701.9470712597104
 33
0.0
  0
POINT
  5
13EF
330
13AD
100
AcDbEntity
  8
Defpoints
 62
     0
100
AcDbPoint
 10
5208.405645398737
 20
701.9470712597104
 30
0.0
  0
POINT
  5
13F0
330
13AD
100
AcDbEntity
  8
Defpoints
 62
     0
100
AcDbPoint
 10
5266.241286312439
 20
778.569774423338
 30
0.0
  0
ENDBLK
  5
13B8
330
13AD
100
AcDbEntity
  8
0
100
AcDbBlockEnd
  0
BLOCK
  5
1655
330
164B
100
AcDbEntity
  8
0
100
AcDbBlockBegin
  2
*D24
 70
     1
 10
0.0
 20
0.0
 30
0.0
  3
*D24
  1

  0
LINE
  5
1663
330
164B
100
AcDbEntity
  8
0
 62
     6
370
    -2
100
AcDbLine
 10
7490.15325533348
 20
449.5603863262441
 30
0.0
 11
7490.15325533348
 21
314.8433070776304
 31
0.0
  0
LINE
  5
1664
330
164B
100
AcDbEntity
  8
0
 62
     6
370
    -2
100
AcDbLine
 10
8065.667033796097
 20
449.5603863262515
 30
0.0
 11
8065.667033796097
 21
314.8433070776304
 31
0.0
  0
LINE
  5
1665
330
164B
100
AcDbEntity
  8
0
 62
     6
370
    -2
100
AcDbLine
 10
7505.153255333482
 20
316.0933070776303
 30
0.0
 11
8050.667033796099
 21
316.0933070776303
 31
0.0
  0
SOLID
  5
1666
330
164B
100
AcDbEntity
  8
0
 62
     6
100
AcDbTrace
 10
7505.153255333482
 20
318.5933070776304
 30
0.0
 11
7505.153255333482
 21
313.5933070776304
 31
0.0
 12
7490.15325533348
 22
316.0933070776303
 32
0.0
 13
7490.15325533348
 23
316.0933070776303
 33
0.0
  0
SOLID
  5
1667
330
164B
100
AcDbEntity
  8
0
 62
     6
100
AcDbTrace
 10
8050.667033796099
 20
318.5933070776304
 30
0.0
 11
8050.667033796099
 21
313.5933070776304
 31
0.0
 12
8065.667033796097
 22
316.0933070776303
 32
0.0
 13
8065.667033796097
 23
316.0933070776303
 33
0.0
  0
MTEXT
  5
1668
330
164B
100
AcDbEntity
  8
0
 62
     0
100
AcDbMText
 10
7777.910144564788
 20
333.5518506969526
 30
0.0
 40
20.0
 41
0.0
 71
     5
 72
     1
  1
575,5
 73
     1
 44
1.0
  0
POINT
  5
1669
330
164B
100
AcDbEntity
  8
Defpoints
 62
     0
100
AcDbPoint
 10
7490.15325533348
 20
450.1853863262442
 30
0.0
  0
POINT
  5
166A
330
164B
100
AcDbEntity
  8
Defpoints
 62
     0
100
AcDbPoint
 10
8065.667033796097
 20
450.1853863262517
 30
0.0
  0
POINT
  5
166B
330
164B
100
AcDbEntity
  8
Defpoints
 62
     0
100
AcDbPoint
 10
8065.667033796097
 20
316.0933070776303
 30
0.0
  0
ENDBLK
  5
1656
330
164B
100
AcDbEntity
  8
0
100
AcDbBlockEnd
  0
BLOCK
  5
1661
330
1657
100
AcDbEntity
  8
0
100
AcDbBlockBegin
  2
*D25
 70
     1
 10
0.0
 20
0.0
 30
0.0
  3
*D25
  1

  0
LINE
  5
16FB
330
1657
100
AcDbEntity
  8
0
 62
     6
370
    -2
100
AcDbLine
 10
8047.78774365236
 20
533.0579000922215
 30
0.0
 11
8047.78774365236
 21
353.35850048908
 31
0.0
  0
LINE
  5
16FC
330
1657
100
AcDbEntity
  8
0
 62
     6
370
    -2
100
AcDbLine
 10
7508.032545477226
 20
533.0579000923925
 30
0.0
 11
7508.032545477226
 21
353.35850048908
 31
0.0
  0
LINE
  5
16FD
330
1657
100
AcDbEntity
  8
0
 62
     6
370
    -2
100
AcDbLine
 10
8032.78774365236
 20
354.60850048908
 30
0.0
 11
7523.032545477227
 21
354.60850048908
 31
0.0
  0
SOLID
  5
16FE
330
1657
100
AcDbEntity
  8
0
 62
     6
100
AcDbTrace
 10
8032.78774365236
 20
357.10850048908
 30
0.0
 11
8032.78774365236
 21
352.10850048908
 31
0.0
 12
8047.78774365236
 22
354.60850048908
 32
0.0
 13
8047.78774365236
 23
354.60850048908
 33
0.0
  0
SOLID
  5
16FF
330
1657
100
AcDbEntity
  8
0
 62
     6
100
AcDbTrace
 10
7523.032545477227
 20
357.10850048908
 30
0.0
 11
7523.032545477227
 21
352.10850048908
 31
0.0
 12
7508.032545477226
 22
354.60850048908
 32
0.0
 13
7508.032545477226
 23
354.60850048908
 33
0.0
  0
MTEXT
  5
1700
330
1657
100
AcDbEntity
  8
0
 62
     0
100
AcDbMText
 10
7777.910144564794
 20
372.0670441084024
 30
0.0
 40
20.0
 41
0.0
 71
     5
 72
     1
  1
539,8
 73
     1
 44
1.0
  0
POINT
  5
1701
330
1657
100
AcDbEntity
  8
Defpoints
 62
     0
100
AcDbPoint
 10
8047.78774365236
 20
533.6829000922215
 30
0.0
  0
POINT
  5
1702
330
1657
100
AcDbEntity
  8
Defpoints
 62
     0
100
AcDbPoint
 10
7508.032545477226
 20
533.6829000923925
 30
0.0
  0
POINT
  5
1703
330
1657
100
AcDbEntity
  8
Defpoints
 62
     0
100
AcDbPoint
 10
7508.032545477226
 20
354.60850048908
 30
0.0
  0
ENDBLK
  5
1662
330
1657
100
AcDbEntity
  8
0
100
AcDbBlockEnd
  0
BLOCK
  5
1676
330
166C
100
AcDbEntity
  8
0
100
AcDbBlockBegin
  2
*D26
 70
     1
 10
0.0
 20
0.0
 30
0.0
  3
*D26
  1

  0
LINE
  5
166D
330
166C
100
AcDbEntity
  8
0
 62
     6
370
    -2
100
AcDbLine
 10
7475.153255333477
 20
449.5603863262441
 30
0.0
 11
7475.153255333477
 21
279.0792157603722
 31
0.0
  0
LINE
  5
166E
330
166C
100
AcDbEntity
  8
0
 62
     6
370
    -2
100
AcDbLine
 10
8080.667033796101
 20
449.5603863262441
 30
0.0
 11
8080.667033796101
 21
279.0792157603722
 31
0.0
  0
LINE
  5
166F
330
166C
100
AcDbEntity
  8
0
 62
     6
370
    -2
100
AcDbLine
 10
7490.153255333476
 20
280.3292157603722
 30
0.0
 11
8065.667033796101
 21
280.3292157603722
 31
0.0
  0
SOLID
  5
1670
330
166C
100
AcDbEntity
  8
0
 62
     6
100
AcDbTrace
 10
7490.153255333476
 20
282.8292157603722
 30
0.0
 11
7490.153255333476
 21
277.8292157603722
 31
0.0
 12
7475.153255333477
 22
280.3292157603722
 32
0.0
 13
7475.153255333477
 23
280.3292157603722
 33
0.0
  0
SOLID
  5
1671
330
166C
100
AcDbEntity
  8
0
 62
     6
100
AcDbTrace
 10
8065.667033796101
 20
282.8292157603722
 30
0.0
 11
8065.667033796101
 21
277.8292157603722
 31
0.0
 12
8080.667033796101
 22
280.3292157603722
 32
0.0
 13
8080.667033796101
 23
280.3292157603722
 33
0.0
  0
MTEXT
  5
1672
330
166C
100
AcDbEntity
  8
0
 62
     0
100
AcDbMText
 10
7777.910144564788
 20
297.7877593796945
 30
0.0
 40
20.0
 41
0.0
 71
     5
 72
     1
  1
605,5
 73
     1
 44
1.0
  0
POINT
  5
1673
330
166C
100
AcDbEntity
  8
Defpoints
 62
     0
100
AcDbPoint
 10
7475.153255333477
 20
450.1853863262442
 30
0.0
  0
POINT
  5
1674
330
166C
100
AcDbEntity
  8
Defpoints
 62
     0
100
AcDbPoint
 10
8080.667033796101
 20
450.1853863262442
 30
0.0
  0
POINT
  5
1675
330
166C
100
AcDbEntity
  8
Defpoints
 62
     0
100
AcDbPoint
 10
8080.667033796101
 20
280.3292157603722
 30
0.0
  0
ENDBLK
  5
1677
330
166C
100
AcDbEntity
  8
0
100
AcDbBlockEnd
  0
BLOCK
  5
1682
330
1678
100
AcDbEntity
  8
0
100
AcDbBlockBegin
  2
*D27
 70
     1
 10
0.0
 20
0.0
 30
0.0
  3
*D27
  1

  0
LINE
  5
1704
330
1678
100
AcDbEntity
  8
0
 62
     6
370
    -2
100
AcDbLine
 10
7778.535144564791
 20
910.258424838317
 30
0.0
 11
8137.291248448184
 21
910.258424838317
 31
0.0
  0
LINE
  5
1705
330
1678
100
AcDbEntity
  8
0
 62
     6
370
    -2
100
AcDbLine
 10
7948.473925381096
 20
430.1853863262436
 30
0.0
 11
8137.291248448184
 21
430.1853863262436
 31
0.0
  0
LINE
  5
1706
330
1678
100
AcDbEntity
  8
0
 62
     6
370
    -2
100
AcDbLine
 10
8136.041248448185
 20
895.2584248383168
 30
0.0
 11
8136.041248448185
 21
445.1853863262435
 31
0.0
  0
SOLID
  5
1707
330
1678
100
AcDbEntity
  8
0
 62
     6
100
AcDbTrace
 10
8133.541248448182
 20
895.2584248383168
 30
0.0
 11
8138.541248448182
 21
895.2584248383168
 31
0.0
 12
8136.041248448185
 22
910.258424838317
 32
0.0
 13
8136.041248448185
 23
910.258424838317
 33
0.0
  0
SOLID
  5
1708
330
1678
100
AcDbEntity
  8
0
 62
     6
100
AcDbTrace
 10
8133.541248448182
 20
445.1853863262435
 30
0.0
 11
8138.541248448182
 21
445.1853863262435
 31
0.0
 12
8136.041248448185
 22
430.1853863262436
 32
0.0
 13
8136.041248448185
 23
430.1853863262436
 33
0.0
  0
MTEXT
  5
1709
330
1678
100
AcDbEntity
  8
0
 62
     0
100
AcDbMText
 10
8118.58270482886
 20
670.2219055822816
 30
0.0
 40
20.0
 41
0.0
 71
     5
 72
     1
  1
480,1
 11
0.0000000000000001
 21
1.0
 31
0.0
 73
     1
 44
1.0
  0
POINT
  5
170A
330
1678
100
AcDbEntity
  8
Defpoints
 62
     0
100
AcDbPoint
 10
7777.910144564791
 20
910.258424838317
 30
0.0
  0
POINT
  5
170B
330
1678
100
AcDbEntity
  8
Defpoints
 62
     0
100
AcDbPoint
 10
7947.848925381092
 20
430.1853863262436
 30
0.0
  0
POINT
  5
170C
330
1678
100
AcDbEntity
  8
Defpoints
 62
     0
100
AcDbPoint
 10
8136.041248448185
 20
430.1853863262436
 30
0.0
  0
ENDBLK
  5
1683
330
1678
100
AcDbEntity
  8
0
100
AcDbBlockEnd
  0
BLOCK
  5
168E
330
1684
100
AcDbEntity
  8
0
100
AcDbBlockBegin
  2
*D28
 70
     1
 10
0.0
 20
0.0
 30
0.0
  3
*D28
  1

  0
LINE
  5
16F2
330
1684
100
AcDbEntity
  8
0
 62
     6
370
    -2
100
AcDbLine
 10
8031.292033796097
 20
925.2584248383142
 30
0.0
 11
8181.327371400376
 21
925.2584248383142
 31
0.0
  0
LINE
  5
16F3
330
1684
100
AcDbEntity
  8
0
 62
     6
370
    -2
100
AcDbLine
 10
8031.2920337961
 20
415.185386326248
 30
0.0
 11
8181.327371400376
 21
415.1853863262478
 31
0.0
  0
LINE
  5
16F4
330
1684
100
AcDbEntity
  8
0
 62
     6
370
    -2
100
AcDbLine
 10
8180.077371400377
 20
910.2584248383141
 30
0.0
 11
8180.077371400377
 21
430.1853863262477
 31
0.0
  0
SOLID
  5
16F5
330
1684
100
AcDbEntity
  8
0
 62
     6
100
AcDbTrace
 10
8177.577371400378
 20
910.2584248383141
 30
0.0
 11
8182.577371400377
 21
910.2584248383141
 31
0.0
 12
8180.077371400377
 22
925.2584248383142
 32
0.0
 13
8180.077371400377
 23
925.2584248383142
 33
0.0
  0
SOLID
  5
16F6
330
1684
100
AcDbEntity
  8
0
 62
     6
100
AcDbTrace
 10
8177.577371400378
 20
430.1853863262477
 30
0.0
 11
8182.577371400377
 21
430.1853863262477
 31
0.0
 12
8180.077371400377
 22
415.1853863262478
 32
0.0
 13
8180.077371400377
 23
415.1853863262478
 33
0.0
  0
MTEXT
  5
16F7
330
1684
100
AcDbEntity
  8
0
 62
     0
100
AcDbMText
 10
8162.618827781056
 20
670.2219055822824
 30
0.0
 40
20.0
 41
0.0
 71
     5
 72
     1
  1
510,1
 11
0.0000000000000001
 21
1.0
 31
0.0
 73
     1
 44
1.0
  0
POINT
  5
16F8
330
1684
100
AcDbEntity
  8
Defpoints
 62
     0
100
AcDbPoint
 10
8030.667033796097
 20
925.2584248383142
 30
0.0
  0
POINT
  5
16F9
330
1684
100
AcDbEntity
  8
Defpoints
 62
     0
100
AcDbPoint
 10
8030.667033796101
 20
415.185386326248
 30
0.0
  0
POINT
  5
16FA
330
1684
100
AcDbEntity
  8
Defpoints
 62
     0
100
AcDbPoint
 10
8180.077371400377
 20
415.1853863262478
 30
0.0
  0
ENDBLK
  5
168F
330
1684
100
AcDbEntity
  8
0
100
AcDbBlockEnd
  0
BLOCK
  5
169A
330
1690
100
AcDbEntity
  8
0
100
AcDbBlockBegin
  2
*D29
 70
     1
 10
0.0
 20
0.0
 30
0.0
  3
*D29
  1

  0
LINE
  5
1691
330
1690
100
AcDbEntity
  8
0
 62
     6
370
    -2
100
AcDbLine
 10
8031.292033796097
 20
940.2584248383176
 30
0.0
 11
8226.280889753518
 21
940.2584248383176
 31
0.0
  0
LINE
  5
1692
330
1690
100
AcDbEntity
  8
0
 62
     6
370
    -2
100
AcDbLine
 10
8031.2920337961
 20
400.185386326248
 30
0.0
 11
8226.280889753518
 21
400.1853863262478
 31
0.0
  0
LINE
  5
1693
330
1690
100
AcDbEntity
  8
0
 62
     6
370
    -2
100
AcDbLine
 10
8225.030889753517
 20
925.2584248383175
 30
0.0
 11
8225.030889753517
 21
415.1853863262478
 31
0.0
  0
SOLID
  5
1694
330
1690
100
AcDbEntity
  8
0
 62
     6
100
AcDbTrace
 10
8222.530889753519
 20
925.2584248383175
 30
0.0
 11
8227.530889753518
 21
925.2584248383175
 31
0.0
 12
8225.030889753517
 22
940.2584248383176
 32
0.0
 13
8225.030889753517
 23
940.2584248383176
 33
0.0
  0
SOLID
  5
1695
330
1690
100
AcDbEntity
  8
0
 62
     6
100
AcDbTrace
 10
8222.530889753519
 20
415.1853863262478
 30
0.0
 11
8227.530889753518
 21
415.1853863262478
 31
0.0
 12
8225.030889753517
 22
400.1853863262478
 32
0.0
 13
8225.030889753517
 23
400.1853863262478
 33
0.0
  0
MTEXT
  5
1696
330
1690
100
AcDbEntity
  8
0
 62
     0
100
AcDbMText
 10
8207.572346134195
 20
670.221905582284
 30
0.0
 40
20.0
 41
0.0
 71
     5
 72
     1
  1
540,1
 11
0.0000000000000001
 21
1.0
 31
0.0
 73
     1
 44
1.0
  0
POINT
  5
1697
330
1690
100
AcDbEntity
  8
Defpoints
 62
     0
100
AcDbPoint
 10
8030.667033796097
 20
940.2584248383176
 30
0.0
  0
POINT
  5
1698
330
1690
100
AcDbEntity
  8
Defpoints
 62
     0
100
AcDbPoint
 10
8030.667033796101
 20
400.185386326248
 30
0.0
  0
POINT
  5
1699
330
1690
100
AcDbEntity
  8
Defpoints
 62
     0
100
AcDbPoint
 10
8225.030889753517
 20
400.1853863262478
 30
0.0
  0
ENDBLK
  5
169B
330
1690
100
AcDbEntity
  8
0
100
AcDbBlockEnd
  0
BLOCK
  5
16A5
330
169C
100
AcDbEntity
  8
0
100
AcDbBlockBegin
  2
*D30
 70
     1
 10
0.0
 20
0.0
 30
0.0
  3
*D30
  1

  0
LINE
  5
171F
330
169C
100
AcDbEntity
  8
0
 62
     6
370
    -2
100
AcDbLine
 10
7355.147031875894
 20
967.1871076439996
 30
0.0
 11
7432.461379388517
 21
967.1871076439991
 31
0.0
  0
LINE
  5
1720
330
169C
100
AcDbEntity
  8
0
 62
     6
370
    -2
100
AcDbLine
 10
7432.461379388517
 20
967.1871076439991
 30
0.0
 11
7475.135496999797
 21
931.7701563280104
 31
0.0
  0
MTEXT
  5
1721
330
169C
100
AcDbEntity
  8
0
 62
     0
100
AcDbMText
 10
7391.304205632206
 20
982.3601429720458
 30
0.0
 40
20.0
 41
0.0
 71
     5
 72
     1
  1
4-R50
 73
     1
 44
1.0
  0
SOLID
  5
1722
330
169C
100
AcDbEntity
  8
0
 62
     6
100
AcDbTrace
 10
7476.732102057095
 20
933.6939162639216
 30
0.0
 11
7473.538891942502
 21
929.8463963920999
 31
0.0
 12
7486.678056615265
 22
922.1905259842342
 32
0.0
 13
7486.678056615265
 23
922.1905259842342
 33
0.0
  0
LINE
  5
1723
330
169C
100
AcDbEntity
  8
0
 62
     6
370
    -2
100
AcDbLine
 10
7522.653255333482
 20
890.2584248383204
 30
0.0
 11
7527.653255333482
 21
890.258424838321
 31
0.0
  0
LINE
  5
1724
330
169C
100
AcDbEntity
  8
0
 62
     6
370
    -2
100
AcDbLine
 10
7525.153255333482
 20
887.7584248383209
 30
0.0
 11
7525.153255333482
 21
892.7584248383205
 31
0.0
  0
POINT
  5
1725
330
169C
100
AcDbEntity
  8
Defpoints
 62
     0
100
AcDbPoint
 10
7486.678056615265
 20
922.1905259842342
 30
0.0
  0
POINT
  5
1726
330
169C
100
AcDbEntity
  8
Defpoints
 62
     0
100
AcDbPoint
 10
7525.153255333482
 20
890.258424838321
 30
0.0
  0
ENDBLK
  5
16A6
330
169C
100
AcDbEntity
  8
0
100
AcDbBlockEnd
  0
BLOCK
  5
16B1
330
16A7
100
AcDbEntity
  8
0
100
AcDbBlockBegin
  2
*D31
 70
     1
 10
0.0
 20
0.0
 30
0.0
  3
*D31
  1

  0
LINE
  5
1727
330
16A7
100
AcDbEntity
  8
0
 62
     6
370
    -2
100
AcDbLine
 10
7641.018021448863
 20
828.5049800784923
 30
0.0
 11
7588.159333633436
 21
828.5049800784927
 31
0.0
  0
LINE
  5
1728
330
16A7
100
AcDbEntity
  8
0
 62
     6
370
    -2
100
AcDbLine
 10
7588.159333633436
 20
828.5049800784927
 30
0.0
 11
7560.454571816328
 21
855.4394636287979
 31
0.0
  0
LINE
  5
1729
330
16A7
100
AcDbEntity
  8
0
 62
     6
370
    -2
100
AcDbLine
 10
7513.84931225407
 20
900.7489524929919
 30
0.0
 11
7503.094252355086
 21
911.2049883847287
 31
0.0
  0
MTEXT
  5
172A
330
16A7
100
AcDbEntity
  8
0
 62
     0
100
AcDbMText
 10
7617.088677541151
 20
843.9375683986085
 30
0.0
 40
20.0
 41
0.0
 71
     5
 72
     1
  1
\U+220535
 73
     1
 44
1.0
  0
LINE
  5
172B
330
16A7
100
AcDbEntity
  8
0
 62
     6
370
    -2
100
AcDbLine
 10
7524.604372153051
 20
890.2929166012549
 30
0.0
 11
7549.699511917345
 21
865.8954995205354
 31
0.0
  0
SOLID
  5
172C
330
16A7
100
AcDbEntity
  8
0
 62
     6
100
AcDbTrace
 10
7515.591984902693
 20
902.5414624761557
 30
0.0
 11
7512.106639605446
 21
898.9564425098281
 31
0.0
 12
7524.604372153051
 22
890.2929166012549
 32
0.0
 13
7524.604372153051
 23
890.2929166012549
 33
0.0
  0
SOLID
  5
172D
330
16A7
100
AcDbEntity
  8
0
 62
     6
100
AcDbTrace
 10
7562.197244464951
 20
857.2319736119618
 30
0.0
 11
7558.711899167703
 21
853.6469536456342
 31
0.0
 12
7549.699511917345
 22
865.8954995205354
 32
0.0
 13
7549.699511917345
 23
865.8954995205354
 33
0.0
  0
POINT
  5
172E
330
16A7
100
AcDbEntity
  8
Defpoints
 62
     0
100
AcDbPoint
 10
7549.699511917345
 20
865.8954995205354
 30
0.0
  0
POINT
  5
172F
330
16A7
100
AcDbEntity
  8
Defpoints
 62
     0
100
AcDbPoint
 10
7524.604372153051
 20
890.2929166012549
 30
0.0
  0
ENDBLK
  5
16B2
330
16A7
100
AcDbEntity
  8
0
100
AcDbBlockEnd
  0
BLOCK
  5
16BD
330
16B3
100
AcDbEntity
  8
0
100
AcDbBlockBegin
  2
*D32
 70
     1
 10
0.0
 20
0.0
 30
0.0
  3
*D32
  1

  0
LINE
  5
16B4
330
16B3
100
AcDbEntity
  8
0
 62
     6
370
    -2
100
AcDbLine
 10
7778.535144564791
 20
740.258424838317
 30
0.0
 11
7904.924157332472
 21
740.258424838317
 31
0.0
  0
LINE
  5
16B5
330
16B3
100
AcDbEntity
  8
0
 62
     6
370
    -2
100
AcDbLine
 10
7931.726663076862
 20
910.2584248383175
 30
0.0
 11
7902.424157332473
 21
910.2584248383175
 31
0.0
  0
LINE
  5
16B6
330
16B3
100
AcDbEntity
  8
0
 62
     6
370
    -2
100
AcDbLine
 10
7903.674157332473
 20
755.2584248383168
 30
0.0
 11
7903.674157332473
 21
895.2584248383177
 31
0.0
  0
SOLID
  5
16B7
330
16B3
100
AcDbEntity
  8
0
 62
     6
100
AcDbTrace
 10
7901.174157332474
 20
755.2584248383168
 30
0.0
 11
7906.174157332472
 21
755.2584248383168
 31
0.0
 12
7903.674157332473
 22
740.258424838317
 32
0.0
 13
7903.674157332473
 23
740.258424838317
 33
0.0
  0
SOLID
  5
16B8
330
16B3
100
AcDbEntity
  8
0
 62
     6
100
AcDbTrace
 10
7901.174157332474
 20
895.2584248383177
 30
0.0
 11
7906.174157332472
 21
895.2584248383177
 31
0.0
 12
7903.674157332473
 22
910.2584248383175
 32
0.0
 13
7903.674157332473
 23
910.2584248383175
 33
0.0
  0
MTEXT
  5
16B9
330
16B3
100
AcDbEntity
  8
0
 62
     0
100
AcDbMText
 10
7888.472282783084
 20
825.2584248383183
 30
0.0
 40
20.0
 41
0.0
 71
     5
 72
     1
  1
170
 11
0.0000000000000001
 21
1.0
 31
0.0
 73
     1
 44
1.0
  0
POINT
  5
16BA
330
16B3
100
AcDbEntity
  8
Defpoints
 62
     0
100
AcDbPoint
 10
7777.910144564791
 20
740.258424838317
 30
0.0
  0
POINT
  5
16BB
330
16B3
100
AcDbEntity
  8
Defpoints
 62
     0
100
AcDbPoint
 10
7932.351663076862
 20
910.2584248383175
 30
0.0
  0
POINT
  5
16BC
330
16B3
100
AcDbEntity
  8
Defpoints
 62
     0
100
AcDbPoint
 10
7903.674157332473
 20
910.2584248383175
 30
0.0
  0
ENDBLK
  5
16BE
330
16B3
100
AcDbEntity
  8
0
100
AcDbBlockEnd
  0
BLOCK
  5
16C9
330
16BF
100
AcDbEntity
  8
0
100
AcDbBlockBegin
  2
*D33
 70
     1
 10
0.0
 20
0.0
 30
0.0
  3
*D33
  1

  0
LINE
  5
16C0
330
16BF
100
AcDbEntity
  8
0
 62
     6
370
    -2
100
AcDbLine
 10
7807.171402500292
 20
1282.488640360134
 30
0.0
 11
7818.971699538995
 21
1282.488640360134
 31
0.0
  0
LINE
  5
16C1
330
16BF
100
AcDbEntity
  8
0
 62
     6
370
    -2
100
AcDbLine
 10
7778.565735429158
 20
1045.257816790523
 30
0.0
 11
7818.971699538995
 21
1045.257816790523
 31
0.0
  0
LINE
  5
16C2
330
16BF
100
AcDbEntity
  8
0
 62
     6
370
    -2
100
AcDbLine
 10
7817.721699538994
 20
1267.488640360134
 30
0.0
 11
7817.721699538994
 21
1060.257816790523
 31
0.0
  0
SOLID
  5
16C3
330
16BF
100
AcDbEntity
  8
0
 62
     6
100
AcDbTrace
 10
7815.221699538994
 20
1267.488640360134
 30
0.0
 11
7820.221699538993
 21
1267.488640360134
 31
0.0
 12
7817.721699538994
 22
1282.488640360134
 32
0.0
 13
7817.721699538994
 23
1282.488640360134
 33
0.0
  0
SOLID
  5
16C4
330
16BF
100
AcDbEntity
  8
0
 62
     6
100
AcDbTrace
 10
7815.221699538994
 20
1060.257816790523
 30
0.0
 11
7820.221699538993
 21
1060.257816790523
 31
0.0
 12
7817.721699538994
 22
1045.257816790523
 32
0.0
 13
7817.721699538994
 23
1045.257816790523
 33
0.0
  0
MTEXT
  5
16C5
330
16BF
100
AcDbEntity
  8
0
 62
     0
100
AcDbMText
 10
7802.548664210947
 20
1163.873228575336
 30
0.0
 40
20.0
 41
0.0
 71
     5
 72
     1
  1
203
 11
0.0000000000000001
 21
1.0
 31
0.0
 73
     1
 44
1.0
  0
POINT
  5
16C6
330
16BF
100
AcDbEntity
  8
Defpoints
 62
     0
100
AcDbPoint
 10
7806.546402500291
 20
1282.488640360134
 30
0.0
  0
POINT
  5
16C7
330
16BF
100
AcDbEntity
  8
Defpoints
 62
     0
100
AcDbPoint
 10
7777.940735429158
 20
1045.257816790523
 30
0.0
  0
POINT
  5
16C8
330
16BF
100
AcDbEntity
  8
Defpoints
 62
     0
100
AcDbPoint
 10
7817.721699538994
 20
1045.257816790523
 30
0.0
  0
ENDBLK
  5
16CA
330
16BF
100
AcDbEntity
  8
0
100
AcDbBlockEnd
  0
BLOCK
  5
16D8
330
16CB
100
AcDbEntity
  8
0
100
AcDbBlockBegin
  2
*D34
 70
     1
 10
0.0
 20
0.0
 30
0.0
  3
*D34
  1

  0
LINE
  5
16CC
330
16CB
100
AcDbEntity
  8
0
 62
     6
370
    -2
100
AcDbLine
 10
7906.665986000156
 20
1274.488640360134
 30
0.0
 11
7937.227998286926
 21
1274.488640360134
 31
0.0
  0
LINE
  5
16CD
330
16CB
100
AcDbEntity
  8
0
 62
     6
370
    -2
100
AcDbLine
 10
7906.665986000156
 20
1282.488640360134
 30
0.0
 11
7937.227998286926
 21
1282.488640360134
 31
0.0
  0
LINE
  5
16CE
330
16CB
100
AcDbEntity
  8
0
 62
     6
370
    -2
100
AcDbLine
 10
7935.977998286926
 20
1259.488640360134
 30
0.0
 11
7935.977998286926
 21
1244.488640360134
 31
0.0
  0
LINE
  5
16CF
330
16CB
100
AcDbEntity
  8
0
 62
     6
370
    -2
100
AcDbLine
 10
7935.977998286926
 20
1297.488640360134
 30
0.0
 11
7935.977998286926
 21
1312.488640360134
 31
0.0
  0
LINE
  5
16D0
330
16CB
100
AcDbEntity
  8
0
 62
     6
370
    -2
100
AcDbLine
 10
7935.977998286926
 20
1312.488640360134
 30
0.0
 11
7952.254133831266
 21
1312.488640360134
 31
0.0
  0
LINE
  5
16D1
330
16CB
100
AcDbEntity
  8
0
 62
     6
370
    -2
100
AcDbLine
 10
7935.977998286926
 20
1274.488640360134
 30
0.0
 11
7935.977998286926
 21
1282.488640360134
 31
0.0
  0
SOLID
  5
16D2
330
16CB
100
AcDbEntity
  8
0
 62
     6
100
AcDbTrace
 10
7933.477998286926
 20
1259.488640360134
 30
0.0
 11
7938.477998286926
 21
1259.488640360134
 31
0.0
 12
7935.977998286926
 22
1274.488640360134
 32
0.0
 13
7935.977998286926
 23
1274.488640360134
 33
0.0
  0
SOLID
  5
16D3
330
16CB
100
AcDbEntity
  8
0
 62
     6
100
AcDbTrace
 10
7933.477998286926
 20
1297.488640360134
 30
0.0
 11
7938.477998286926
 21
1297.488640360134
 31
0.0
 12
7935.977998286926
 22
1282.488640360134
 32
0.0
 13
7935.977998286926
 23
1282.488640360134
 33
0.0
  0
MTEXT
  5
16D4
330
16CB
100
AcDbEntity
  8
0
 62
     0
100
AcDbMText
 10
7946.616066059096
 20
1327.661675688182
 30
0.0
 40
20.0
 41
0.0
 71
     5
 72
     1
  1
8
 73
     1
 44
1.0
  0
POINT
  5
16D5
330
16CB
100
AcDbEntity
  8
Defpoints
 62
     0
100
AcDbPoint
 10
7906.040986000157
 20
1274.488640360134
 30
0.0
  0
POINT
  5
16D6
330
16CB
100
AcDbEntity
  8
Defpoints
 62
     0
100
AcDbPoint
 10
7906.040986000157
 20
1282.488640360134
 30
0.0
  0
POINT
  5
16D7
330
16CB
100
AcDbEntity
  8
Defpoints
 62
     0
100
AcDbPoint
 10
7935.977998286926
 20
1282.488640360134
 30
0.0
  0
ENDBLK
  5
16D9
330
16CB
100
AcDbEntity
  8
0
100
AcDbBlockEnd
  0
BLOCK
  5
16E4
330
16DA
100
AcDbEntity
  8
0
100
AcDbBlockBegin
  2
*D35
 70
     1
 10
0.0
 20
0.0
 30
0.0
  3
*D35
  1

  0
LINE
  5
170D
330
16DA
100
AcDbEntity
  8
0
 62
     6
370
    -2
100
AcDbLine
 10
7891.167698537401
 20
678.3552637659222
 30
0.0
 11
7837.414994860401
 21
678.3552637659212
 31
0.0
  0
LINE
  5
170E
330
16DA
100
AcDbEntity
  8
0
 62
     6
370
    -2
100
AcDbLine
 10
7837.414994860401
 20
678.3552637659212
 30
0.0
 11
7812.560309290436
 21
704.2117039821046
 31
0.0
  0
LINE
  5
170F
330
16DA
100
AcDbEntity
  8
0
 62
     6
370
    -2
100
AcDbLine
 10
7743.259979839148
 20
776.3051456945277
 30
0.0
 11
7732.864930421452
 21
787.1191619513916
 31
0.0
  0
MTEXT
  5
1710
330
16DA
100
AcDbEntity
  8
0
 62
     0
100
AcDbMText
 10
7866.791346698903
 20
693.7878520860374
 30
0.0
 40
20.0
 41
0.0
 71
     5
 72
     1
  1
%%C90
 73
     1
 44
1.0
  0
LINE
  5
1711
330
16DA
100
AcDbEntity
  8
0
 62
     6
370
    -2
100
AcDbLine
 10
7753.655029256842
 20
765.4911294376642
 30
0.0
 11
7802.165259872741
 21
715.0257202389679
 31
0.0
  0
SOLID
  5
1712
330
16DA
100
AcDbEntity
  8
0
 62
     6
100
AcDbTrace
 10
7745.062315881958
 20
778.0376539308099
 30
0.0
 11
7741.457643796337
 21
774.5726374582456
 31
0.0
 12
7753.655029256842
 22
765.4911294376642
 32
0.0
 13
7753.655029256842
 23
765.4911294376642
 33
0.0
  0
SOLID
  5
1713
330
16DA
100
AcDbEntity
  8
0
 62
     6
100
AcDbTrace
 10
7814.362645333246
 20
705.9442122183867
 30
0.0
 11
7810.757973247624
 21
702.4791957458225
 31
0.0
 12
7802.165259872741
 22
715.0257202389679
 32
0.0
 13
7802.165259872741
 23
715.0257202389679
 33
0.0
  0
POINT
  5
1714
330
16DA
100
AcDbEntity
  8
Defpoints
 62
     0
100
AcDbPoint
 10
7802.165259872741
 20
715.0257202389679
 30
0.0
  0
POINT
  5
1715
330
16DA
100
AcDbEntity
  8
Defpoints
 62
     0
100
AcDbPoint
 10
7753.655029256842
 20
765.4911294376642
 30
0.0
  0
ENDBLK
  5
16E5
330
16DA
100
AcDbEntity
  8
0
100
AcDbBlockEnd
  0
BLOCK
  5
16F0
330
16E6
100
AcDbEntity
  8
0
100
AcDbBlockBegin
  2
*D36
 70
     1
 10
0.0
 20
0.0
 30
0.0
  3
*D36
  1

  0
LINE
  5
1716
330
16E6
100
AcDbEntity
  8
0
 62
     6
370
    -2
100
AcDbLine
 10
7649.91649748527
 20
661.3488718911923
 30
0.0
 11
7718.348364824852
 21
661.3488718911926
 31
0.0
  0
LINE
  5
1717
330
16E6
100
AcDbEntity
  8
0
 62
     6
370
    -2
100
AcDbLine
 10
7718.348364824852
 20
661.3488718911926
 30
0.0
 11
7739.955505215174
 21
689.9747758871868
 31
0.0
  0
LINE
  5
1718
330
16E6
100
AcDbEntity
  8
0
 62
     6
370
    -2
100
AcDbLine
 10
7815.864783914406
 20
790.5420737894467
 30
0.0
 11
7824.901602807173
 21
802.5143711587627
 31
0.0
  0
MTEXT
  5
1719
330
16E6
100
AcDbEntity
  8
0
 62
     0
100
AcDbMText
 10
7681.63243115506
 20
676.7814602113075
 30
0.0
 40
20.0
 41
0.0
 71
     5
 72
     1
  1
%%C116
 73
     1
 44
1.0
  0
LINE
  5
171A
330
16E6
100
AcDbEntity
  8
0
 62
     6
370
    -2
100
AcDbLine
 10
7806.827965021641
 20
778.56977642013
 30
0.0
 11
7748.992324107939
 21
701.9470732565037
 31
0.0
  0
SOLID
  5
171B
330
16E6
100
AcDbEntity
  8
0
 62
     6
100
AcDbTrace
 10
7813.869401019521
 20
792.0482102715745
 30
0.0
 11
7817.860166809293
 21
789.0359373073192
 31
0.0
 12
7806.827965021641
 22
778.56977642013
 32
0.0
 13
7806.827965021641
 23
778.56977642013
 33
0.0
  0
SOLID
  5
171C
330
16E6
100
AcDbEntity
  8
0
 62
     6
100
AcDbTrace
 10
7737.960122320287
 20
691.4809123693144
 30
0.0
 11
7741.95088811006
 21
688.468639405059
 31
0.0
 12
7748.992324107939
 22
701.9470732565037
 32
0.0
 13
7748.992324107939
 23
701.9470732565037
 33
0.0
  0
POINT
  5
171D
330
16E6
100
AcDbEntity
  8
Defpoints
 62
     0
100
AcDbPoint
 10
7748.992324107939
 20
701.9470732565037
 30
0.0
  0
POINT
  5
171E
330
16E6
100
AcDbEntity
  8
Defpoints
 62
     0
100
AcDbPoint
 10
7806.827965021641
 20
778.56977642013
 30
0.0
  0
ENDBLK
  5
16F1
330
16E6
100
AcDbEntity
  8
0
100
AcDbBlockEnd
  0
BLOCK
  5
1C5D
330
1C53
100
AcDbEntity
  8
0
100
AcDbBlockBegin
  2
*D37
 70
     1
 10
0.0
 20
0.0
 30
0.0
  3
*D37
  1

  0
LINE
  5
1C6B
330
1C53
100
AcDbEntity
  8
0
 62
     6
370
    -2
100
AcDbLine
 10
10093.72059999293
 20
449.5603883230366
 30
0.0
 11
10093.72059999293
 21
314.8433090744228
 31
0.0
  0
LINE
  5
1C6C
330
1C53
100
AcDbEntity
  8
0
 62
     6
370
    -2
100
AcDbLine
 10
10669.23437845554
 20
449.5603883230439
 30
0.0
 11
10669.23437845554
 21
314.8433090744228
 31
0.0
  0
LINE
  5
1C6D
330
1C53
100
AcDbEntity
  8
0
 62
     6
370
    -2
100
AcDbLine
 10
10108.72059999293
 20
316.0933090744228
 30
0.0
 11
10654.23437845554
 21
316.0933090744228
 31
0.0
  0
SOLID
  5
1C6E
330
1C53
100
AcDbEntity
  8
0
 62
     6
100
AcDbTrace
 10
10108.72059999293
 20
318.5933090744228
 30
0.0
 11
10108.72059999293
 21
313.5933090744228
 31
0.0
 12
10093.72059999293
 22
316.0933090744228
 32
0.0
 13
10093.72059999293
 23
316.0933090744228
 33
0.0
  0
SOLID
  5
1C6F
330
1C53
100
AcDbEntity
  8
0
 62
     6
100
AcDbTrace
 10
10654.23437845554
 20
318.5933090744228
 30
0.0
 11
10654.23437845554
 21
313.5933090744228
 31
0.0
 12
10669.23437845554
 22
316.0933090744228
 32
0.0
 13
10669.23437845554
 23
316.0933090744228
 33
0.0
  0
MTEXT
  5
1C70
330
1C53
100
AcDbEntity
  8
0
 62
     0
100
AcDbMText
 10
10381.47748922424
 20
333.551852693745
 30
0.0
 40
20.0
 41
0.0
 71
     5
 72
     1
  1
575,5
 73
     1
 44
1.0
  0
POINT
  5
1C71
330
1C53
100
AcDbEntity
  8
Defpoints
 62
     0
100
AcDbPoint
 10
10093.72059999293
 20
450.1853883230368
 30
0.0
  0
POINT
  5
1C72
330
1C53
100
AcDbEntity
  8
Defpoints
 62
     0
100
AcDbPoint
 10
10669.23437845554
 20
450.1853883230441
 30
0.0
  0
POINT
  5
1C73
330
1C53
100
AcDbEntity
  8
Defpoints
 62
     0
100
AcDbPoint
 10
10669.23437845554
 20
316.0933090744228
 30
0.0
  0
ENDBLK
  5
1C5E
330
1C53
100
AcDbEntity
  8
0
100
AcDbBlockEnd
  0
BLOCK
  5
1C69
330
1C5F
100
AcDbEntity
  8
0
100
AcDbBlockBegin
  2
*D38
 70
     1
 10
0.0
 20
0.0
 30
0.0
  3
*D38
  1

  0
LINE
  5
1D03
330
1C5F
100
AcDbEntity
  8
0
 62
     6
370
    -2
100
AcDbLine
 10
10651.35508831181
 20
533.0579020890138
 30
0.0
 11
10651.35508831181
 21
353.3585024858725
 31
0.0
  0
LINE
  5
1D04
330
1C5F
100
AcDbEntity
  8
0
 62
     6
370
    -2
100
AcDbLine
 10
10111.59989013667
 20
533.0579020891848
 30
0.0
 11
10111.59989013667
 21
353.3585024858725
 31
0.0
  0
LINE
  5
1D05
330
1C5F
100
AcDbEntity
  8
0
 62
     6
370
    -2
100
AcDbLine
 10
10636.35508831181
 20
354.6085024858725
 30
0.0
 11
10126.59989013667
 21
354.6085024858725
 31
0.0
  0
SOLID
  5
1D06
330
1C5F
100
AcDbEntity
  8
0
 62
     6
100
AcDbTrace
 10
10636.35508831181
 20
357.1085024858725
 30
0.0
 11
10636.35508831181
 21
352.1085024858725
 31
0.0
 12
10651.35508831181
 22
354.6085024858725
 32
0.0
 13
10651.35508831181
 23
354.6085024858725
 33
0.0
  0
SOLID
  5
1D07
330
1C5F
100
AcDbEntity
  8
0
 62
     6
100
AcDbTrace
 10
10126.59989013667
 20
357.1085024858725
 30
0.0
 11
10126.59989013667
 21
352.1085024858725
 31
0.0
 12
10111.59989013667
 22
354.6085024858725
 32
0.0
 13
10111.59989013667
 23
354.6085024858725
 33
0.0
  0
MTEXT
  5
1D08
330
1C5F
100
AcDbEntity
  8
0
 62
     0
100
AcDbMText
 10
10381.47748922424
 20
372.0670461051947
 30
0.0
 40
20.0
 41
0.0
 71
     5
 72
     1
  1
539,8
 73
     1
 44
1.0
  0
POINT
  5
1D09
330
1C5F
100
AcDbEntity
  8
Defpoints
 62
     0
100
AcDbPoint
 10
10651.35508831181
 20
533.682902089014
 30
0.0
  0
POINT
  5
1D0A
330
1C5F
100
AcDbEntity
  8
Defpoints
 62
     0
100
AcDbPoint
 10
10111.59989013667
 20
533.6829020891848
 30
0.0
  0
POINT
  5
1D0B
330
1C5F
100
AcDbEntity
  8
Defpoints
 62
     0
100
AcDbPoint
 10
10111.59989013667
 20
354.6085024858725
 30
0.0
  0
ENDBLK
  5
1C6A
330
1C5F
100
AcDbEntity
  8
0
100
AcDbBlockEnd
  0
BLOCK
  5
1C7E
330
1C74
100
AcDbEntity
  8
0
100
AcDbBlockBegin
  2
*D39
 70
     1
 10
0.0
 20
0.0
 30
0.0
  3
*D39
  1

  0
LINE
  5
1C75
330
1C74
100
AcDbEntity
  8
0
 62
     6
370
    -2
100
AcDbLine
 10
10078.72059999292
 20
449.5603883230366
 30
0.0
 11
10078.72059999292
 21
279.0792177571646
 31
0.0
  0
LINE
  5
1C76
330
1C74
100
AcDbEntity
  8
0
 62
     6
370
    -2
100
AcDbLine
 10
10684.23437845555
 20
449.5603883230366
 30
0.0
 11
10684.23437845555
 21
279.0792177571646
 31
0.0
  0
LINE
  5
1C77
330
1C74
100
AcDbEntity
  8
0
 62
     6
370
    -2
100
AcDbLine
 10
10093.72059999292
 20
280.3292177571647
 30
0.0
 11
10669.23437845555
 21
280.3292177571647
 31
0.0
  0
SOLID
  5
1C78
330
1C74
100
AcDbEntity
  8
0
 62
     6
100
AcDbTrace
 10
10093.72059999292
 20
282.8292177571647
 30
0.0
 11
10093.72059999292
 21
277.8292177571647
 31
0.0
 12
10078.72059999292
 22
280.3292177571647
 32
0.0
 13
10078.72059999292
 23
280.3292177571647
 33
0.0
  0
SOLID
  5
1C79
330
1C74
100
AcDbEntity
  8
0
 62
     6
100
AcDbTrace
 10
10669.23437845555
 20
282.8292177571647
 30
0.0
 11
10669.23437845555
 21
277.8292177571647
 31
0.0
 12
10684.23437845555
 22
280.3292177571647
 32
0.0
 13
10684.23437845555
 23
280.3292177571647
 33
0.0
  0
MTEXT
  5
1C7A
330
1C74
100
AcDbEntity
  8
0
 62
     0
100
AcDbMText
 10
10381.47748922424
 20
297.7877613764869
 30
0.0
 40
20.0
 41
0.0
 71
     5
 72
     1
  1
605,5
 73
     1
 44
1.0
  0
POINT
  5
1C7B
330
1C74
100
AcDbEntity
  8
Defpoints
 62
     0
100
AcDbPoint
 10
10078.72059999292
 20
450.1853883230368
 30
0.0
  0
POINT
  5
1C7C
330
1C74
100
AcDbEntity
  8
Defpoints
 62
     0
100
AcDbPoint
 10
10684.23437845555
 20
450.1853883230368
 30
0.0
  0
POINT
  5
1C7D
330
1C74
100
AcDbEntity
  8
Defpoints
 62
     0
100
AcDbPoint
 10
10684.23437845555
 20
280.3292177571647
 30
0.0
  0
ENDBLK
  5
1C7F
330
1C74
100
AcDbEntity
  8
0
100
AcDbBlockEnd
  0
BLOCK
  5
1C8A
330
1C80
100
AcDbEntity
  8
0
100
AcDbBlockBegin
  2
*D40
 70
     1
 10
0.0
 20
0.0
 30
0.0
  3
*D40
  1

  0
LINE
  5
1D0C
330
1C80
100
AcDbEntity
  8
0
 62
     6
370
    -2
100
AcDbLine
 10
10382.10248922424
 20
910.2584268351094
 30
0.0
 11
10740.85859310763
 21
910.2584268351094
 31
0.0
  0
LINE
  5
1D0D
330
1C80
100
AcDbEntity
  8
0
 62
     6
370
    -2
100
AcDbLine
 10
10552.04127004054
 20
430.1853883230362
 30
0.0
 11
10740.85859310763
 21
430.1853883230362
 31
0.0
  0
LINE
  5
1D0E
330
1C80
100
AcDbEntity
  8
0
 62
     6
370
    -2
100
AcDbLine
 10
10739.60859310763
 20
895.2584268351094
 30
0.0
 11
10739.60859310763
 21
445.1853883230362
 31
0.0
  0
SOLID
  5
1D0F
330
1C80
100
AcDbEntity
  8
0
 62
     6
100
AcDbTrace
 10
10737.10859310763
 20
895.2584268351094
 30
0.0
 11
10742.10859310763
 21
895.2584268351094
 31
0.0
 12
10739.60859310763
 22
910.2584268351094
 32
0.0
 13
10739.60859310763
 23
910.2584268351094
 33
0.0
  0
SOLID
  5
1D10
330
1C80
100
AcDbEntity
  8
0
 62
     6
100
AcDbTrace
 10
10737.10859310763
 20
445.1853883230362
 30
0.0
 11
10742.10859310763
 21
445.1853883230362
 31
0.0
 12
10739.60859310763
 22
430.1853883230362
 32
0.0
 13
10739.60859310763
 23
430.1853883230362
 33
0.0
  0
MTEXT
  5
1D11
330
1C80
100
AcDbEntity
  8
0
 62
     0
100
AcDbMText
 10
10722.15004948831
 20
670.2219075790742
 30
0.0
 40
20.0
 41
0.0
 71
     5
 72
     1
  1
480,1
 11
0.0000000000000001
 21
1.0
 31
0.0
 73
     1
 44
1.0
  0
POINT
  5
1D12
330
1C80
100
AcDbEntity
  8
Defpoints
 62
     0
100
AcDbPoint
 10
10381.47748922424
 20
910.2584268351094
 30
0.0
  0
POINT
  5
1D13
330
1C80
100
AcDbEntity
  8
Defpoints
 62
     0
100
AcDbPoint
 10
10551.41627004054
 20
430.1853883230362
 30
0.0
  0
POINT
  5
1D14
330
1C80
100
AcDbEntity
  8
Defpoints
 62
     0
100
AcDbPoint
 10
10739.60859310763
 20
430.1853883230362
 30
0.0
  0
ENDBLK
  5
1C8B
330
1C80
100
AcDbEntity
  8
0
100
AcDbBlockEnd
  0
BLOCK
  5
1C96
330
1C8C
100
AcDbEntity
  8
0
100
AcDbBlockBegin
  2
*D41
 70
     1
 10
0.0
 20
0.0
 30
0.0
  3
*D41
  1

  0
LINE
  5
1CFA
330
1C8C
100
AcDbEntity
  8
0
 62
     6
370
    -2
100
AcDbLine
 10
10634.85937845554
 20
925.2584268351062
 30
0.0
 11
10784.89471605982
 21
925.2584268351062
 31
0.0
  0
LINE
  5
1CFB
330
1C8C
100
AcDbEntity
  8
0
 62
     6
370
    -2
100
AcDbLine
 10
10634.85937845555
 20
415.1853883230404
 30
0.0
 11
10784.89471605982
 21
415.1853883230404
 31
0.0
  0
LINE
  5
1CFC
330
1C8C
100
AcDbEntity
  8
0
 62
     6
370
    -2
100
AcDbLine
 10
10783.64471605982
 20
910.2584268351064
 30
0.0
 11
10783.64471605982
 21
430.1853883230402
 31
0.0
  0
SOLID
  5
1CFD
330
1C8C
100
AcDbEntity
  8
0
 62
     6
100
AcDbTrace
 10
10781.14471605982
 20
910.2584268351064
 30
0.0
 11
10786.14471605982
 21
910.2584268351064
 31
0.0
 12
10783.64471605982
 22
925.2584268351062
 32
0.0
 13
10783.64471605982
 23
925.2584268351062
 33
0.0
  0
SOLID
  5
1CFE
330
1C8C
100
AcDbEntity
  8
0
 62
     6
100
AcDbTrace
 10
10781.14471605982
 20
430.1853883230402
 30
0.0
 11
10786.14471605982
 21
430.1853883230402
 31
0.0
 12
10783.64471605982
 22
415.1853883230404
 32
0.0
 13
10783.64471605982
 23
415.1853883230404
 33
0.0
  0
MTEXT
  5
1CFF
330
1C8C
100
AcDbEntity
  8
0
 62
     0
100
AcDbMText
 10
10766.1861724405
 20
670.221907579075
 30
0.0
 40
20.0
 41
0.0
 71
     5
 72
     1
  1
510,1
 11
0.0000000000000001
 21
1.0
 31
0.0
 73
     1
 44
1.0
  0
POINT
  5
1D00
330
1C8C
100
AcDbEntity
  8
Defpoints
 62
     0
100
AcDbPoint
 10
10634.23437845554
 20
925.2584268351062
 30
0.0
  0
POINT
  5
1D01
330
1C8C
100
AcDbEntity
  8
Defpoints
 62
     0
100
AcDbPoint
 10
10634.23437845555
 20
415.1853883230404
 30
0.0
  0
POINT
  5
1D02
330
1C8C
100
AcDbEntity
  8
Defpoints
 62
     0
100
AcDbPoint
 10
10783.64471605982
 20
415.1853883230404
 30
0.0
  0
ENDBLK
  5
1C97
330
1C8C
100
AcDbEntity
  8
0
100
AcDbBlockEnd
  0
BLOCK
  5
1CA2
330
1C98
100
AcDbEntity
  8
0
100
AcDbBlockBegin
  2
*D42
 70
     1
 10
0.0
 20
0.0
 30
0.0
  3
*D42
  1

  0
LINE
  5
1C99
330
1C98
100
AcDbEntity
  8
0
 62
     6
370
    -2
100
AcDbLine
 10
10634.85937845554
 20
940.25842683511
 30
0.0
 11
10829.84823441296
 21
940.25842683511
 31
0.0
  0
LINE
  5
1C9A
330
1C98
100
AcDbEntity
  8
0
 62
     6
370
    -2
100
AcDbLine
 10
10634.85937845555
 20
400.1853883230404
 30
0.0
 11
10829.84823441296
 21
400.1853883230404
 31
0.0
  0
LINE
  5
1C9B
330
1C98
100
AcDbEntity
  8
0
 62
     6
370
    -2
100
AcDbLine
 10
10828.59823441296
 20
925.25842683511
 30
0.0
 11
10828.59823441296
 21
415.1853883230404
 31
0.0
  0
SOLID
  5
1C9C
330
1C98
100
AcDbEntity
  8
0
 62
     6
100
AcDbTrace
 10
10826.09823441296
 20
925.25842683511
 30
0.0
 11
10831.09823441296
 21
925.25842683511
 31
0.0
 12
10828.59823441296
 22
940.25842683511
 32
0.0
 13
10828.59823441296
 23
940.25842683511
 33
0.0
  0
SOLID
  5
1C9D
330
1C98
100
AcDbEntity
  8
0
 62
     6
100
AcDbTrace
 10
10826.09823441296
 20
415.1853883230404
 30
0.0
 11
10831.09823441296
 21
415.1853883230404
 31
0.0
 12
10828.59823441296
 22
400.1853883230404
 32
0.0
 13
10828.59823441296
 23
400.1853883230404
 33
0.0
  0
MTEXT
  5
1C9E
330
1C98
100
AcDbEntity
  8
0
 62
     0
100
AcDbMText
 10
10811.13969079364
 20
670.2219075790767
 30
0.0
 40
20.0
 41
0.0
 71
     5
 72
     1
  1
540,1
 11
0.0000000000000001
 21
1.0
 31
0.0
 73
     1
 44
1.0
  0
POINT
  5
1C9F
330
1C98
100
AcDbEntity
  8
Defpoints
 62
     0
100
AcDbPoint
 10
10634.23437845554
 20
940.25842683511
 30
0.0
  0
POINT
  5
1CA0
330
1C98
100
AcDbEntity
  8
Defpoints
 62
     0
100
AcDbPoint
 10
10634.23437845555
 20
400.1853883230404
 30
0.0
  0
POINT
  5
1CA1
330
1C98
100
AcDbEntity
  8
Defpoints
 62
     0
100
AcDbPoint
 10
10828.59823441296
 20
400.1853883230404
 30
0.0
  0
ENDBLK
  5
1CA3
330
1C98
100
AcDbEntity
  8
0
100
AcDbBlockEnd
  0
BLOCK
  5
1CAD
330
1CA4
100
AcDbEntity
  8
0
100
AcDbBlockBegin
  2
*D43
 70
     1
 10
0.0
 20
0.0
 30
0.0
  3
*D43
  1

  0
LINE
  5
1D27
330
1CA4
100
AcDbEntity
  8
0
 62
     6
370
    -2
100
AcDbLine
 10
9958.714376535345
 20
967.1871096407912
 30
0.0
 11
10036.02872404796
 21
967.1871096407912
 31
0.0
  0
LINE
  5
1D28
330
1CA4
100
AcDbEntity
  8
0
 62
     6
370
    -2
100
AcDbLine
 10
10036.02872404796
 20
967.1871096407912
 30
0.0
 11
10078.70284165924
 21
931.7701583248018
 31
0.0
  0
MTEXT
  5
1D29
330
1CA4
100
AcDbEntity
  8
0
 62
     0
100
AcDbMText
 10
9994.871550291652
 20
982.3601449688373
 30
0.0
 40
20.0
 41
0.0
 71
     5
 72
     1
  1
4-R50
 73
     1
 44
1.0
  0
SOLID
  5
1D2A
330
1CA4
100
AcDbEntity
  8
0
 62
     6
100
AcDbTrace
 10
10080.29944671654
 20
933.693918260713
 30
0.0
 11
10077.10623660195
 21
929.8463983888906
 31
0.0
 12
10090.24540127471
 22
922.1905279810259
 32
0.0
 13
10090.24540127471
 23
922.1905279810259
 33
0.0
  0
LINE
  5
1D2B
330
1CA4
100
AcDbEntity
  8
0
 62
     6
370
    -2
100
AcDbLine
 10
10126.22059999293
 20
890.2584268351137
 30
0.0
 11
10131.22059999293
 21
890.2584268351128
 31
0.0
  0
LINE
  5
1D2C
330
1CA4
100
AcDbEntity
  8
0
 62
     6
370
    -2
100
AcDbLine
 10
10128.72059999293
 20
887.7584268351128
 30
0.0
 11
10128.72059999293
 21
892.7584268351129
 31
0.0
  0
POINT
  5
1D2D
330
1CA4
100
AcDbEntity
  8
Defpoints
 62
     0
100
AcDbPoint
 10
10090.24540127471
 20
922.1905279810259
 30
0.0
  0
POINT
  5
1D2E
330
1CA4
100
AcDbEntity
  8
Defpoints
 62
     0
100
AcDbPoint
 10
10128.72059999293
 20
890.2584268351128
 30
0.0
  0
ENDBLK
  5
1CAE
330
1CA4
100
AcDbEntity
  8
0
100
AcDbBlockEnd
  0
BLOCK
  5
1CC5
330
1CBB
100
AcDbEntity
  8
0
100
AcDbBlockBegin
  2
*D44
 70
     1
 10
0.0
 20
0.0
 30
0.0
  3
*D44
  1

  0
LINE
  5
1CBC
330
1CBB
100
AcDbEntity
  8
0
 62
     6
370
    -2
100
AcDbLine
 10
10382.10248922424
 20
740.2584268351094
 30
0.0
 11
10508.49150199192
 21
740.2584268351092
 31
0.0
  0
LINE
  5
1CBD
330
1CBB
100
AcDbEntity
  8
0
 62
     6
370
    -2
100
AcDbLine
 10
10535.29400773631
 20
910.2584268351101
 30
0.0
 11
10505.99150199192
 21
910.2584268351101
 31
0.0
  0
LINE
  5
1CBE
330
1CBB
100
AcDbEntity
  8
0
 62
     6
370
    -2
100
AcDbLine
 10
10507.24150199192
 20
755.2584268351092
 30
0.0
 11
10507.24150199192
 21
895.2584268351101
 31
0.0
  0
SOLID
  5
1CBF
330
1CBB
100
AcDbEntity
  8
0
 62
     6
100
AcDbTrace
 10
10504.74150199192
 20
755.2584268351092
 30
0.0
 11
10509.74150199192
 21
755.2584268351092
 31
0.0
 12
10507.24150199192
 22
740.2584268351092
 32
0.0
 13
10507.24150199192
 23
740.2584268351092
 33
0.0
  0
SOLID
  5
1CC0
330
1CBB
100
AcDbEntity
  8
0
 62
     6
100
AcDbTrace
 10
10504.74150199192
 20
895.2584268351101
 30
0.0
 11
10509.74150199192
 21
895.2584268351101
 31
0.0
 12
10507.24150199192
 22
910.2584268351101
 32
0.0
 13
10507.24150199192
 23
910.2584268351101
 33
0.0
  0
MTEXT
  5
1CC1
330
1CBB
100
AcDbEntity
  8
0
 62
     0
100
AcDbMText
 10
10492.03962744253
 20
825.2584268351112
 30
0.0
 40
20.0
 41
0.0
 71
     5
 72
     1
  1
170
 11
0.0000000000000001
 21
1.0
 31
0.0
 73
     1
 44
1.0
  0
POINT
  5
1CC2
330
1CBB
100
AcDbEntity
  8
Defpoints
 62
     0
100
AcDbPoint
 10
10381.47748922424
 20
740.2584268351094
 30
0.0
  0
POINT
  5
1CC3
330
1CBB
100
AcDbEntity
  8
Defpoints
 62
     0
100
AcDbPoint
 10
10535.91900773631
 20
910.2584268351101
 30
0.0
  0
POINT
  5
1CC4
330
1CBB
100
AcDbEntity
  8
Defpoints
 62
     0
100
AcDbPoint
 10
10507.24150199192
 20
910.2584268351101
 30
0.0
  0
ENDBLK
  5
1CC6
330
1CBB
100
AcDbEntity
  8
0
100
AcDbBlockEnd
  0
BLOCK
  5
1CD1
330
1CC7
100
AcDbEntity
  8
0
100
AcDbBlockBegin
  2
*D45
 70
     1
 10
0.0
 20
0.0
 30
0.0
  3
*D45
  1

  0
LINE
  5
1CC8
330
1CC7
100
AcDbEntity
  8
0
 62
     6
370
    -2
100
AcDbLine
 10
10410.73874715974
 20
1282.488642356927
 30
0.0
 11
10422.53904419844
 21
1282.488642356927
 31
0.0
  0
LINE
  5
1CC9
330
1CC7
100
AcDbEntity
  8
0
 62
     6
370
    -2
100
AcDbLine
 10
10382.1330800886
 20
1045.257818787316
 30
0.0
 11
10422.53904419844
 21
1045.257818787316
 31
0.0
  0
LINE
  5
1CCA
330
1CC7
100
AcDbEntity
  8
0
 62
     6
370
    -2
100
AcDbLine
 10
10421.28904419844
 20
1267.488642356927
 30
0.0
 11
10421.28904419844
 21
1060.257818787316
 31
0.0
  0
SOLID
  5
1CCB
330
1CC7
100
AcDbEntity
  8
0
 62
     6
100
AcDbTrace
 10
10418.78904419844
 20
1267.488642356927
 30
0.0
 11
10423.78904419844
 21
1267.488642356927
 31
0.0
 12
10421.28904419844
 22
1282.488642356927
 32
0.0
 13
10421.28904419844
 23
1282.488642356927
 33
0.0
  0
SOLID
  5
1CCC
330
1CC7
100
AcDbEntity
  8
0
 62
     6
100
AcDbTrace
 10
10418.78904419844
 20
1060.257818787316
 30
0.0
 11
10423.78904419844
 21
1060.257818787316
 31
0.0
 12
10421.28904419844
 22
1045.257818787316
 32
0.0
 13
10421.28904419844
 23
1045.257818787316
 33
0.0
  0
MTEXT
  5
1CCD
330
1CC7
100
AcDbEntity
  8
0
 62
     0
100
AcDbMText
 10
10406.11600887039
 20
1163.873230572128
 30
0.0
 40
20.0
 41
0.0
 71
     5
 72
     1
  1
203
 11
0.0000000000000001
 21
1.0
 31
0.0
 73
     1
 44
1.0
  0
POINT
  5
1CCE
330
1CC7
100
AcDbEntity
  8
Defpoints
 62
     0
100
AcDbPoint
 10
10410.11374715974
 20
1282.488642356927
 30
0.0
  0
POINT
  5
1CCF
330
1CC7
100
AcDbEntity
  8
Defpoints
 62
     0
100
AcDbPoint
 10
10381.5080800886
 20
1045.257818787316
 30
0.0
  0
POINT
  5
1CD0
330
1CC7
100
AcDbEntity
  8
Defpoints
 62
     0
100
AcDbPoint
 10
10421.28904419844
 20
1045.257818787316
 30
0.0
  0
ENDBLK
  5
1CD2
330
1CC7
100
AcDbEntity
  8
0
100
AcDbBlockEnd
  0
BLOCK
  5
1CE0
330
1CD3
100
AcDbEntity
  8
0
100
AcDbBlockBegin
  2
*D46
 70
     1
 10
0.0
 20
0.0
 30
0.0
  3
*D46
  1

  0
LINE
  5
1CD4
330
1CD3
100
AcDbEntity
  8
0
 62
     6
370
    -2
100
AcDbLine
 10
10510.2333306596
 20
1274.488642356927
 30
0.0
 11
10540.79534294637
 21
1274.488642356927
 31
0.0
  0
LINE
  5
1CD5
330
1CD3
100
AcDbEntity
  8
0
 62
     6
370
    -2
100
AcDbLine
 10
10510.2333306596
 20
1282.488642356927
 30
0.0
 11
10540.79534294637
 21
1282.488642356927
 31
0.0
  0
LINE
  5
1CD6
330
1CD3
100
AcDbEntity
  8
0
 62
     6
370
    -2
100
AcDbLine
 10
10539.54534294637
 20
1259.488642356927
 30
0.0
 11
10539.54534294637
 21
1244.488642356927
 31
0.0
  0
LINE
  5
1CD7
330
1CD3
100
AcDbEntity
  8
0
 62
     6
370
    -2
100
AcDbLine
 10
10539.54534294637
 20
1297.488642356926
 30
0.0
 11
10539.54534294637
 21
1312.488642356927
 31
0.0
  0
LINE
  5
1CD8
330
1CD3
100
AcDbEntity
  8
0
 62
     6
370
    -2
100
AcDbLine
 10
10539.54534294637
 20
1312.488642356927
 30
0.0
 11
10555.82147849071
 21
1312.488642356927
 31
0.0
  0
LINE
  5
1CD9
330
1CD3
100
AcDbEntity
  8
0
 62
     6
370
    -2
100
AcDbLine
 10
10539.54534294637
 20
1274.488642356927
 30
0.0
 11
10539.54534294637
 21
1282.488642356927
 31
0.0
  0
SOLID
  5
1CDA
330
1CD3
100
AcDbEntity
  8
0
 62
     6
100
AcDbTrace
 10
10537.04534294637
 20
1259.488642356927
 30
0.0
 11
10542.04534294637
 21
1259.488642356927
 31
0.0
 12
10539.54534294637
 22
1274.488642356927
 32
0.0
 13
10539.54534294637
 23
1274.488642356927
 33
0.0
  0
SOLID
  5
1CDB
330
1CD3
100
AcDbEntity
  8
0
 62
     6
100
AcDbTrace
 10
10537.04534294637
 20
1297.488642356926
 30
0.0
 11
10542.04534294637
 21
1297.488642356926
 31
0.0
 12
10539.54534294637
 22
1282.488642356927
 32
0.0
 13
10539.54534294637
 23
1282.488642356927
 33
0.0
  0
MTEXT
  5
1CDC
330
1CD3
100
AcDbEntity
  8
0
 62
     0
100
AcDbMText
 10
10550.18341071854
 20
1327.661677684974
 30
0.0
 40
20.0
 41
0.0
 71
     5
 72
     1
  1
8
 73
     1
 44
1.0
  0
POINT
  5
1CDD
330
1CD3
100
AcDbEntity
  8
Defpoints
 62
     0
100
AcDbPoint
 10
10509.6083306596
 20
1274.488642356927
 30
0.0
  0
POINT
  5
1CDE
330
1CD3
100
AcDbEntity
  8
Defpoints
 62
     0
100
AcDbPoint
 10
10509.6083306596
 20
1282.488642356927
 30
0.0
  0
POINT
  5
1CDF
330
1CD3
100
AcDbEntity
  8
Defpoints
 62
     0
100
AcDbPoint
 10
10539.54534294637
 20
1282.488642356927
 30
0.0
  0
ENDBLK
  5
1CE1
330
1CD3
100
AcDbEntity
  8
0
100
AcDbBlockEnd
  0
BLOCK
  5
1CEC
330
1CE2
100
AcDbEntity
  8
0
100
AcDbBlockBegin
  2
*D47
 70
     1
 10
0.0
 20
0.0
 30
0.0
  3
*D47
  1

  0
LINE
  5
1D15
330
1CE2
100
AcDbEntity
  8
0
 62
     6
370
    -2
100
AcDbLine
 10
10494.73504319685
 20
678.355265762716
 30
0.0
 11
10440.98233951985
 21
678.355265762716
 31
0.0
  0
LINE
  5
1D16
330
1CE2
100
AcDbEntity
  8
0
 62
     6
370
    -2
100
AcDbLine
 10
10440.98233951985
 20
678.355265762716
 30
0.0
 11
10416.12765394988
 21
704.2117059788989
 31
0.0
  0
LINE
  5
1D17
330
1CE2
100
AcDbEntity
  8
0
 62
     6
370
    -2
100
AcDbLine
 10
10346.82732449859
 20
776.3051476913201
 30
0.0
 11
10336.4322750809
 21
787.119163948184
 31
0.0
  0
MTEXT
  5
1D18
330
1CE2
100
AcDbEntity
  8
0
 62
     0
100
AcDbMText
 10
10470.35869135835
 20
693.7878540828322
 30
0.0
 40
20.0
 41
0.0
 71
     5
 72
     1
  1
%%C90
 73
     1
 44
1.0
  0
LINE
  5
1D19
330
1CE2
100
AcDbEntity
  8
0
 62
     6
370
    -2
100
AcDbLine
 10
10357.22237391629
 20
765.4911314344571
 30
0.0
 11
10405.73260453219
 21
715.0257222357621
 31
0.0
  0
SOLID
  5
1D1A
330
1CE2
100
AcDbEntity
  8
0
 62
     6
100
AcDbTrace
 10
10348.6296605414
 20
778.0376559276027
 30
0.0
 11
10345.02498845578
 21
774.5726394550382
 31
0.0
 12
10357.22237391629
 22
765.4911314344571
 32
0.0
 13
10357.22237391629
 23
765.4911314344571
 33
0.0
  0
SOLID
  5
1D1B
330
1CE2
100
AcDbEntity
  8
0
 62
     6
100
AcDbTrace
 10
10417.92998999269
 20
705.944214215181
 30
0.0
 11
10414.32531790707
 21
702.4791977426164
 31
0.0
 12
10405.73260453219
 22
715.0257222357621
 32
0.0
 13
10405.73260453219
 23
715.0257222357621
 33
0.0
  0
POINT
  5
1D1C
330
1CE2
100
AcDbEntity
  8
Defpoints
 62
     0
100
AcDbPoint
 10
10405.73260453219
 20
715.0257222357621
 30
0.0
  0
POINT
  5
1D1D
330
1CE2
100
AcDbEntity
  8
Defpoints
 62
     0
100
AcDbPoint
 10
10357.22237391629
 20
765.4911314344571
 30
0.0
  0
ENDBLK
  5
1CED
330
1CE2
100
AcDbEntity
  8
0
100
AcDbBlockEnd
  0
BLOCK
  5
1CF8
330
1CEE
100
AcDbEntity
  8
0
100
AcDbBlockBegin
  2
*D48
 70
     1
 10
0.0
 20
0.0
 30
0.0
  3
*D48
  1

  0
LINE
  5
1D1E
330
1CEE
100
AcDbEntity
  8
0
 62
     6
370
    -2
100
AcDbLine
 10
10253.48384214472
 20
661.3488738879857
 30
0.0
 11
10321.9157094843
 21
661.348873887985
 31
0.0
  0
LINE
  5
1D1F
330
1CEE
100
AcDbEntity
  8
0
 62
     6
370
    -2
100
AcDbLine
 10
10321.9157094843
 20
661.348873887985
 30
0.0
 11
10343.52284987462
 21
689.9747778839792
 31
0.0
  0
LINE
  5
1D20
330
1CEE
100
AcDbEntity
  8
0
 62
     6
370
    -2
100
AcDbLine
 10
10419.43212857386
 20
790.5420757862393
 30
0.0
 11
10428.46894746662
 21
802.5143731555562
 31
0.0
  0
MTEXT
  5
1D21
330
1CEE
100
AcDbEntity
  8
0
 62
     0
100
AcDbMText
 10
10285.19977581451
 20
676.7814622081012
 30
0.0
 40
20.0
 41
0.0
 71
     5
 72
     1
  1
%%C116
 73
     1
 44
1.0
  0
LINE
  5
1D22
330
1CEE
100
AcDbEntity
  8
0
 62
     6
370
    -2
100
AcDbLine
 10
10410.39530968109
 20
778.5697784169223
 30
0.0
 11
10352.55966876739
 21
701.947075253296
 31
0.0
  0
SOLID
  5
1D23
330
1CEE
100
AcDbEntity
  8
0
 62
     6
100
AcDbTrace
 10
10417.43674567897
 20
792.048212268367
 30
0.0
 11
10421.42751146874
 21
789.0359393041117
 31
0.0
 12
10410.39530968109
 22
778.5697784169223
 32
0.0
 13
10410.39530968109
 23
778.5697784169223
 33
0.0
  0
SOLID
  5
1D24
330
1CEE
100
AcDbEntity
  8
0
 62
     6
100
AcDbTrace
 10
10341.52746697973
 20
691.4809143661067
 30
0.0
 11
10345.51823276951
 21
688.4686414018515
 31
0.0
 12
10352.55966876739
 22
701.947075253296
 32
0.0
 13
10352.55966876739
 23
701.947075253296
 33
0.0
  0
POINT
  5
1D25
330
1CEE
100
AcDbEntity
  8
Defpoints
 62
     0
100
AcDbPoint
 10
10352.55966876739
 20
701.947075253296
 30
0.0
  0
POINT
  5
1D26
330
1CEE
100
AcDbEntity
  8
Defpoints
 62
     0
100
AcDbPoint
 10
10410.39530968109
 20
778.5697784169223
 30
0.0
  0
ENDBLK
  5
1CF9
330
1CEE
100
AcDbEntity
  8
0
100
AcDbBlockEnd
  0
BLOCK
  5
1D43
330
1D39
100
AcDbEntity
  8
0
100
AcDbBlockBegin
  2
*D49
 70
     1
 10
0.0
 20
0.0
 30
0.0
  3
*D49
  1

  0
LINE
  5
1D50
330
1D39
100
AcDbEntity
  8
0
 62
     6
370
    -2
100
AcDbLine
 10
10534.65373706641
 20
819.2037005099992
 30
0.0
 11
10587.51242488184
 21
819.2037005099992
 31
0.0
  0
LINE
  5
1D51
330
1D39
100
AcDbEntity
  8
0
 62
     6
370
    -2
100
AcDbLine
 10
10587.51242488184
 20
819.2037005099992
 30
0.0
 11
10605.72865953656
 21
850.098355232768
 31
0.0
  0
LINE
  5
1D52
330
1D39
100
AcDbEntity
  8
0
 62
     6
370
    -2
100
AcDbLine
 10
10638.7427239711
 20
906.0900648826063
 30
0.0
 11
10646.36135422523
 21
919.0112286479532
 31
0.0
  0
MTEXT
  5
1D53
330
1D39
100
AcDbEntity
  8
0
 62
     0
100
AcDbMText
 10
10558.58308097412
 20
834.6362888301145
 30
0.0
 40
20.0
 41
0.0
 71
     5
 72
     1
  1
\U+220535
 73
     1
 44
1.0
  0
LINE
  5
1D54
330
1D39
100
AcDbEntity
  8
0
 62
     6
370
    -2
100
AcDbLine
 10
10631.12409371697
 20
893.1689011172592
 30
0.0
 11
10613.34728979068
 21
863.019518998116
 31
0.0
  0
SOLID
  5
1D55
330
1D39
100
AcDbEntity
  8
0
 62
     6
100
AcDbTrace
 10
10636.58919667687
 20
907.3598365916277
 30
0.0
 11
10640.89625126532
 21
904.8202931735859
 31
0.0
 12
10631.12409371697
 22
893.1689011172592
 32
0.0
 13
10631.12409371697
 23
893.1689011172592
 33
0.0
  0
SOLID
  5
1D56
330
1D39
100
AcDbEntity
  8
0
 62
     6
100
AcDbTrace
 10
10603.57513224233
 20
851.3681269417894
 30
0.0
 11
10607.88218683078
 21
848.8285835237475
 31
0.0
 12
10613.34728979068
 22
863.019518998116
 32
0.0
 13
10613.34728979068
 23
863.019518998116
 33
0.0
  0
POINT
  5
1D57
330
1D39
100
AcDbEntity
  8
Defpoints
 62
     0
100
AcDbPoint
 10
10613.34728979068
 20
863.019518998116
 30
0.0
  0
POINT
  5
1D58
330
1D39
100
AcDbEntity
  8
Defpoints
 62
     0
100
AcDbPoint
 10
10631.12409371697
 20
893.1689011172592
 30
0.0
  0
ENDBLK
  5
1D44
330
1D39
100
AcDbEntity
  8
0
100
AcDbBlockEnd
  0
BLOCK
  5
1DB3
330
1DA9
100
AcDbEntity
  8
0
100
AcDbBlockBegin
  2
*D50
 70
     1
 10
0.0
 20
0.0
 30
0.0
  3
*D50
  1

  0
LINE
  5
1DE6
330
1DA9
100
AcDbEntity
  8
0
 62
     6
370
    -2
100
AcDbLine
 10
4996.565263325996
 20
877.4692060641019
 30
0.0
 11
4996.565263325996
 21
834.1024107734622
 31
0.0
  0
LINE
  5
1DE7
330
1DA9
100
AcDbEntity
  8
0
 62
     6
370
    -2
100
AcDbLine
 10
4934.566576624278
 20
877.4692060641022
 30
0.0
 11
4934.566576624278
 21
834.1024107734622
 31
0.0
  0
LINE
  5
1DE8
330
1DA9
100
AcDbEntity
  8
0
 62
     6
370
    -2
100
AcDbLine
 10
4981.565263325996
 20
835.3524107734623
 30
0.0
 11
4949.566576624278
 21
835.3524107734623
 31
0.0
  0
LINE
  5
1DE9
330
1DA9
100
AcDbEntity
  8
0
 62
     6
370
    -2
100
AcDbLine
 10
4934.566576624278
 20
835.3524107734623
 30
0.0
 11
4863.455699793939
 21
835.3524107734623
 31
0.0
  0
SOLID
  5
1DEA
330
1DA9
100
AcDbEntity
  8
0
 62
     6
100
AcDbTrace
 10
4981.565263325996
 20
837.8524107734625
 30
0.0
 11
4981.565263325996
 21
832.8524107734622
 31
0.0
 12
4996.565263325996
 22
835.3524107734623
 32
0.0
 13
4996.565263325996
 23
835.3524107734623
 33
0.0
  0
SOLID
  5
1DEB
330
1DA9
100
AcDbEntity
  8
0
 62
     6
100
AcDbTrace
 10
4949.566576624278
 20
837.8524107734625
 30
0.0
 11
4949.566576624278
 21
832.8524107734622
 31
0.0
 12
4934.566576624278
 22
835.3524107734623
 32
0.0
 13
4934.566576624278
 23
835.3524107734623
 33
0.0
  0
MTEXT
  5
1DEC
330
1DA9
100
AcDbEntity
  8
0
 62
     0
100
AcDbMText
 10
4881.974084797544
 20
850.5254461015086
 30
0.0
 40
20.0
 41
0.0
 71
     5
 72
     1
  1
62
 73
     1
 44
1.0
  0
POINT
  5
1DED
330
1DA9
100
AcDbEntity
  8
Defpoints
 62
     0
100
AcDbPoint
 10
4996.565263325996
 20
878.0942060641017
 30
0.0
  0
POINT
  5
1DEE
330
1DA9
100
AcDbEntity
  8
Defpoints
 62
     0
100
AcDbPoint
 10
4934.566576624278
 20
878.0942060641022
 30
0.0
  0
POINT
  5
1DEF
330
1DA9
100
AcDbEntity
  8
Defpoints
 62
     0
100
AcDbPoint
 10
4934.566576624278
 20
835.3524107734623
 30
0.0
  0
ENDBLK
  5
1DB4
330
1DA9
100
AcDbEntity
  8
0
100
AcDbBlockEnd
  0
BLOCK
  5
1DD7
330
1DCB
100
AcDbEntity
  8
0
100
AcDbBlockBegin
  2
*D51
 70
     1
 10
0.0
 20
0.0
 30
0.0
  3
*D51
  1

  0
LINE
  5
1E0F
330
1DCB
100
AcDbEntity
  8
0
 62
     6
370
    -2
100
AcDbLine
 10
4997.190263325996
 20
878.0942060641017
 30
0.0
 11
5046.574595094615
 21
878.0942060641017
 31
0.0
  0
LINE
  5
1E10
330
1DCB
100
AcDbEntity
  8
0
 62
     6
370
    -2
100
AcDbLine
 10
4997.190263325996
 20
940.2584228415276
 30
0.0
 11
5046.574595094615
 21
940.2584228415276
 31
0.0
  0
LINE
  5
1E11
330
1DCB
100
AcDbEntity
  8
0
 62
     6
370
    -2
100
AcDbLine
 10
5045.324595094614
 20
893.0942060641019
 30
0.0
 11
5045.324595094614
 21
925.258422841528
 31
0.0
  0
LINE
  5
1E12
330
1DCB
100
AcDbEntity
  8
0
 62
     6
370
    -2
100
AcDbLine
 10
5045.324595094614
 20
940.2584228415276
 30
0.0
 11
5045.324595094614
 21
981.3146024891487
 31
0.0
  0
LINE
  5
1E13
330
1DCB
100
AcDbEntity
  8
0
 62
     6
370
    -2
100
AcDbLine
 10
5045.324595094614
 20
981.3146024891487
 30
0.0
 11
5077.361365101825
 21
981.3146024891487
 31
0.0
  0
SOLID
  5
1E14
330
1DCB
100
AcDbEntity
  8
0
 62
     6
100
AcDbTrace
 10
5042.824595094614
 20
893.0942060641019
 30
0.0
 11
5047.824595094613
 21
893.0942060641019
 31
0.0
 12
5045.324595094614
 22
878.0942060641017
 32
0.0
 13
5045.324595094614
 23
878.0942060641017
 33
0.0
  0
SOLID
  5
1E15
330
1DCB
100
AcDbEntity
  8
0
 62
     6
100
AcDbTrace
 10
5042.824595094614
 20
925.258422841528
 30
0.0
 11
5047.824595094613
 21
925.258422841528
 31
0.0
 12
5045.324595094614
 22
940.2584228415276
 32
0.0
 13
5045.324595094614
 23
940.2584228415276
 33
0.0
  0
MTEXT
  5
1E16
330
1DCB
100
AcDbEntity
  8
0
 62
     0
100
AcDbMText
 10
5063.842980098218
 20
996.4876378171956
 30
0.0
 40
20.0
 41
0.0
 71
     5
 72
     1
  1
62
 73
     1
 44
1.0
  0
POINT
  5
1E17
330
1DCB
100
AcDbEntity
  8
Defpoints
 62
     0
100
AcDbPoint
 10
4996.565263325996
 20
878.0942060641017
 30
0.0
  0
POINT
  5
1E18
330
1DCB
100
AcDbEntity
  8
Defpoints
 62
     0
100
AcDbPoint
 10
4996.565263325996
 20
940.2584228415276
 30
0.0
  0
POINT
  5
1E19
330
1DCB
100
AcDbEntity
  8
Defpoints
 62
     0
100
AcDbPoint
 10
5045.324595094614
 20
940.2584228415276
 30
0.0
  0
ENDBLK
  5
1DD8
330
1DCB
100
AcDbEntity
  8
0
100
AcDbBlockEnd
  0
BLOCK
  5
2038
330
202E
100
AcDbEntity
  8
0
100
AcDbBlockBegin
  2
*D52
 70
     1
 10
0.0
 20
0.0
 30
0.0
  3
*D52
  1

  0
LINE
  5
27C6
330
202E
100
AcDbEntity
  8
0
370
     9
100
AcDbLine
 10
6947.272601743303
 20
5086.648959464852
 30
0.0
 11
6947.272601743303
 21
5019.786246486066
 31
0.0
  0
LINE
  5
27C7
330
202E
100
AcDbEntity
  8
0
370
     9
100
AcDbLine
 10
6407.39504150402
 20
5125.372614853329
 30
0.0
 11
6407.39504150402
 21
5019.786246486066
 31
0.0
  0
LINE
  5
27C8
330
202E
100
AcDbEntity
  8
0
370
     9
100
AcDbLine
 10
6929.272601743304
 20
5024.786246486065
 30
0.0
 11
6425.395041504019
 21
5024.786246486065
 31
0.0
  0
SOLID
  5
27C9
330
202E
100
AcDbEntity
  8
0
100
AcDbTrace
 10
6929.272601743304
 20
5027.786246486066
 30
0.0
 11
6929.272601743304
 21
5021.786246486064
 31
0.0
 12
6947.272601743303
 22
5024.786246486065
 32
0.0
 13
6947.272601743303
 23
5024.786246486065
 33
0.0
  0
SOLID
  5
27CA
330
202E
100
AcDbEntity
  8
0
100
AcDbTrace
 10
6425.395041504019
 20
5027.786246486066
 30
0.0
 11
6425.395041504019
 21
5021.786246486064
 31
0.0
 12
6407.39504150402
 22
5024.786246486065
 32
0.0
 13
6407.39504150402
 23
5024.786246486065
 33
0.0
  0
MTEXT
  5
27CB
330
202E
100
AcDbEntity
  8
0
 62
     0
100
AcDbMText
 10
6677.333821623661
 20
5038.240464222186
 30
0.0
 40
20.0
 41
0.0
 71
     5
 72
     1
  1
21-1/4"
 73
     1
 44
1.0
  0
POINT
  5
27CC
330
202E
100
AcDbEntity
  8
Defpoints
 62
     0
100
AcDbPoint
 10
6947.272601743303
 20
5096.648959464852
 30
0.0
  0
POINT
  5
27CD
330
202E
100
AcDbEntity
  8
Defpoints
 62
     0
100
AcDbPoint
 10
6407.39504150402
 20
5135.372614853332
 30
0.0
  0
POINT
  5
27CE
330
202E
100
AcDbEntity
  8
Defpoints
 62
     0
100
AcDbPoint
 10
6407.39504150402
 20
5024.786246486065
 30
0.0
  0
ENDBLK
  5
2039
330
202E
100
AcDbEntity
  8
0
100
AcDbBlockEnd
  0
BLOCK
  5
2050
330
2046
100
AcDbEntity
  8
0
100
AcDbBlockBegin
  2
*D53
 70
     1
 10
0.0
 20
0.0
 30
0.0
  3
*D53
  1

  0
LINE
  5
27CF
330
2046
100
AcDbEntity
  8
0
370
     9
100
AcDbLine
 10
6972.611421339415
 20
5086.648959464852
 30
0.0
 11
6972.611421339415
 21
5020.712918254756
 31
0.0
  0
LINE
  5
27D0
330
2046
100
AcDbEntity
  8
0
370
     9
100
AcDbLine
 10
7163.611421339415
 20
5120.061917802594
 30
0.0
 11
7163.611421339415
 21
5020.712918254756
 31
0.0
  0
LINE
  5
27D1
330
2046
100
AcDbEntity
  8
0
370
     9
100
AcDbLine
 10
6990.611421339416
 20
5025.712918254756
 30
0.0
 11
7145.611421339414
 21
5025.712918254756
 31
0.0
  0
SOLID
  5
27D2
330
2046
100
AcDbEntity
  8
0
100
AcDbTrace
 10
6990.611421339416
 20
5028.712918254756
 30
0.0
 11
6990.611421339416
 21
5022.712918254756
 31
0.0
 12
6972.611421339415
 22
5025.712918254756
 32
0.0
 13
6972.611421339415
 23
5025.712918254756
 33
0.0
  0
SOLID
  5
27D3
330
2046
100
AcDbEntity
  8
0
100
AcDbTrace
 10
7145.611421339414
 20
5028.712918254756
 30
0.0
 11
7145.611421339414
 21
5022.712918254756
 31
0.0
 12
7163.611421339415
 22
5025.712918254756
 32
0.0
 13
7163.611421339415
 23
5025.712918254756
 33
0.0
  0
MTEXT
  5
27D4
330
2046
100
AcDbEntity
  8
0
 62
     0
100
AcDbMText
 10
7068.111421339415
 20
5039.167135990877
 30
0.0
 40
20.0
 41
0.0
 71
     5
 72
     1
  1
7-1/2"
 73
     1
 44
1.0
  0
POINT
  5
27D5
330
2046
100
AcDbEntity
  8
Defpoints
 62
     0
100
AcDbPoint
 10
6972.611421339415
 20
5096.648959464852
 30
0.0
  0
POINT
  5
27D6
330
2046
100
AcDbEntity
  8
Defpoints
 62
     0
100
AcDbPoint
 10
7163.611421339415
 20
5130.061917802594
 30
0.0
  0
POINT
  5
27D7
330
2046
100
AcDbEntity
  8
Defpoints
 62
     0
100
AcDbPoint
 10
7163.611421339415
 20
5025.712918254756
 30
0.0
  0
ENDBLK
  5
2051
330
2046
100
AcDbEntity
  8
0
100
AcDbBlockEnd
  0
BLOCK
  5
2068
330
205E
100
AcDbEntity
  8
0
100
AcDbBlockBegin
  2
*D54
 70
     1
 10
0.0
 20
0.0
 30
0.0
  3
*D54
  1

  0
LINE
  5
27D8
330
205E
100
AcDbEntity
  8
0
370
     9
100
AcDbLine
 10
6382.05622316429
 20
5150.711433193059
 30
0.0
 11
6382.05622316429
 21
4967.01802891645
 31
0.0
  0
LINE
  5
27D9
330
205E
100
AcDbEntity
  8
0
370
     9
100
AcDbLine
 10
7189.011421339414
 20
5145.461917802594
 30
0.0
 11
7189.011421339414
 21
4967.01802891645
 31
0.0
  0
LINE
  5
27DA
330
205E
100
AcDbEntity
  8
0
370
     9
100
AcDbLine
 10
6400.05622316429
 20
4972.01802891645
 30
0.0
 11
7171.011421339414
 21
4972.01802891645
 31
0.0
  0
SOLID
  5
27DB
330
205E
100
AcDbEntity
  8
0
100
AcDbTrace
 10
6400.05622316429
 20
4975.01802891645
 30
0.0
 11
6400.05622316429
 21
4969.01802891645
 31
0.0
 12
6382.05622316429
 22
4972.01802891645
 32
0.0
 13
6382.05622316429
 23
4972.01802891645
 33
0.0
  0
SOLID
  5
27DC
330
205E
100
AcDbEntity
  8
0
100
AcDbTrace
 10
7171.011421339414
 20
4975.01802891645
 30
0.0
 11
7171.011421339414
 21
4969.01802891645
 31
0.0
 12
7189.011421339414
 22
4972.01802891645
 32
0.0
 13
7189.011421339414
 23
4972.01802891645
 33
0.0
  0
MTEXT
  5
27DD
330
205E
100
AcDbEntity
  8
0
 62
     0
100
AcDbMText
 10
6785.533822251853
 20
4985.47224665257
 30
0.0
 40
20.0
 41
0.0
 71
     5
 72
     1
  1
31-3/4"
 73
     1
 44
1.0
  0
POINT
  5
27DE
330
205E
100
AcDbEntity
  8
Defpoints
 62
     0
100
AcDbPoint
 10
6382.05622316429
 20
5160.711433193059
 30
0.0
  0
POINT
  5
27DF
330
205E
100
AcDbEntity
  8
Defpoints
 62
     0
100
AcDbPoint
 10
7189.011421339414
 20
5155.461917802594
 30
0.0
  0
POINT
  5
27E0
330
205E
100
AcDbEntity
  8
Defpoints
 62
     0
100
AcDbPoint
 10
7189.011421339414
 20
4972.01802891645
 30
0.0
  0
ENDBLK
  5
2069
330
205E
100
AcDbEntity
  8
0
100
AcDbBlockEnd
  0
BLOCK
  5
2080
330
2076
100
AcDbEntity
  8
0
100
AcDbBlockBegin
  2
*D55
 70
     1
 10
0.0
 20
0.0
 30
0.0
  3
*D55
  1

  0
LINE
  5
27E1
330
2076
100
AcDbEntity
  8
0
370
     9
100
AcDbLine
 10
6485.377083129415
 20
5602.121997976925
 30
0.0
 11
6314.354802810115
 21
5602.121997976925
 31
0.0
  0
LINE
  5
27E2
330
2076
100
AcDbEntity
  8
0
370
     9
100
AcDbLine
 10
6410.718696892498
 20
5122.048959464852
 30
0.0
 11
6314.354802810115
 21
5122.048959464852
 31
0.0
  0
LINE
  5
27E3
330
2076
100
AcDbEntity
  8
0
370
     9
100
AcDbLine
 10
6319.354802810114
 20
5584.121997976925
 30
0.0
 11
6319.354802810114
 21
5140.048959464852
 31
0.0
  0
SOLID
  5
27E4
330
2076
100
AcDbEntity
  8
0
100
AcDbTrace
 10
6316.354802810113
 20
5584.121997976925
 30
0.0
 11
6322.354802810114
 21
5584.121997976925
 31
0.0
 12
6319.354802810114
 22
5602.121997976925
 32
0.0
 13
6319.354802810114
 23
5602.121997976925
 33
0.0
  0
SOLID
  5
27E5
330
2076
100
AcDbEntity
  8
0
100
AcDbTrace
 10
6316.354802810113
 20
5140.048959464852
 30
0.0
 11
6322.354802810114
 21
5140.048959464852
 31
0.0
 12
6319.354802810114
 22
5122.048959464852
 32
0.0
 13
6319.354802810114
 23
5122.048959464852
 33
0.0
  0
MTEXT
  5
27E6
330
2076
100
AcDbEntity
  8
0
 62
     0
100
AcDbMText
 10
6305.900585073992
 20
5362.08547872089
 30
0.0
 40
20.0
 41
0.0
 71
     5
 72
     1
  1
18-7/8"
 11
0.0000000000000001
 21
1.0
 31
0.0
 73
     1
 44
1.0
  0
POINT
  5
27E7
330
2076
100
AcDbEntity
  8
Defpoints
 62
     0
100
AcDbPoint
 10
6495.377083129416
 20
5602.121997976925
 30
0.0
  0
POINT
  5
27E8
330
2076
100
AcDbEntity
  8
Defpoints
 62
     0
100
AcDbPoint
 10
6420.718696892499
 20
5122.048959464852
 30
0.0
  0
POINT
  5
27E9
330
2076
100
AcDbEntity
  8
Defpoints
 62
     0
100
AcDbPoint
 10
6319.354802810114
 20
5122.048959464852
 30
0.0
  0
ENDBLK
  5
2081
330
2076
100
AcDbEntity
  8
0
100
AcDbBlockEnd
  0
BLOCK
  5
2098
330
208E
100
AcDbEntity
  8
0
100
AcDbBlockBegin
  2
*D56
 70
     1
 10
0.0
 20
0.0
 30
0.0
  3
*D56
  1

  0
LINE
  5
27EA
330
208E
100
AcDbEntity
  8
0
370
     9
100
AcDbLine
 10
6510.777083129416
 20
5627.521997976923
 30
0.0
 11
6264.409839779707
 21
5627.521997976923
 31
0.0
  0
LINE
  5
27EB
330
208E
100
AcDbEntity
  8
0
370
     9
100
AcDbLine
 10
6436.118696892498
 20
5096.648959464854
 30
0.0
 11
6264.409839779707
 21
5096.648959464854
 31
0.0
  0
LINE
  5
27EC
330
208E
100
AcDbEntity
  8
0
370
     9
100
AcDbLine
 10
6269.409839779707
 20
5609.521997976925
 30
0.0
 11
6269.409839779707
 21
5114.648959464854
 31
0.0
  0
SOLID
  5
27ED
330
208E
100
AcDbEntity
  8
0
100
AcDbTrace
 10
6266.409839779707
 20
5609.521997976925
 30
0.0
 11
6272.409839779707
 21
5609.521997976925
 31
0.0
 12
6269.409839779707
 22
5627.521997976923
 32
0.0
 13
6269.409839779707
 23
5627.521997976923
 33
0.0
  0
SOLID
  5
27EE
330
208E
100
AcDbEntity
  8
0
100
AcDbTrace
 10
6266.409839779707
 20
5114.648959464854
 30
0.0
 11
6272.409839779707
 21
5114.648959464854
 31
0.0
 12
6269.409839779707
 22
5096.648959464854
 32
0.0
 13
6269.409839779707
 23
5096.648959464854
 33
0.0
  0
MTEXT
  5
27EF
330
208E
100
AcDbEntity
  8
0
 62
     0
100
AcDbMText
 10
6255.955622043585
 20
5362.085478720891
 30
0.0
 40
20.0
 41
0.0
 71
     5
 72
     1
  1
20-7/8"
 11
0.0000000000000001
 21
1.0
 31
0.0
 73
     1
 44
1.0
  0
POINT
  5
27F0
330
208E
100
AcDbEntity
  8
Defpoints
 62
     0
100
AcDbPoint
 10
6520.777083129414
 20
5627.521997976923
 30
0.0
  0
POINT
  5
27F1
330
208E
100
AcDbEntity
  8
Defpoints
 62
     0
100
AcDbPoint
 10
6446.118696892496
 20
5096.648959464854
 30
0.0
  0
POINT
  5
27F2
330
208E
100
AcDbEntity
  8
Defpoints
 62
     0
100
AcDbPoint
 10
6269.409839779707
 20
5096.648959464854
 30
0.0
  0
ENDBLK
  5
2099
330
208E
100
AcDbEntity
  8
0
100
AcDbBlockEnd
  0
BLOCK
  5
20B0
330
20A6
100
AcDbEntity
  8
0
100
AcDbBlockBegin
  2
*D57
 70
     1
 10
0.0
 20
0.0
 30
0.0
  3
*D57
  1

  0
LINE
  5
27F3
330
20A6
100
AcDbEntity
  8
0
370
     9
100
AcDbLine
 10
7165.598463001676
 20
5528.048959464854
 30
0.0
 11
7257.590189344388
 21
5528.048959464854
 31
0.0
  0
LINE
  5
27F4
330
20A6
100
AcDbEntity
  8
0
370
     9
100
AcDbLine
 10
7165.598463001673
 20
5122.048959464852
 30
0.0
 11
7257.590189344388
 21
5122.048959464852
 31
0.0
  0
LINE
  5
27F5
330
20A6
100
AcDbEntity
  8
0
370
     9
100
AcDbLine
 10
7252.590189344388
 20
5510.048959464853
 30
0.0
 11
7252.590189344388
 21
5140.048959464852
 31
0.0
  0
SOLID
  5
27F6
330
20A6
100
AcDbEntity
  8
0
100
AcDbTrace
 10
7249.590189344388
 20
5510.048959464853
 30
0.0
 11
7255.590189344387
 21
5510.048959464853
 31
0.0
 12
7252.590189344388
 22
5528.048959464854
 32
0.0
 13
7252.590189344388
 23
5528.048959464854
 33
0.0
  0
SOLID
  5
27F7
330
20A6
100
AcDbEntity
  8
0
100
AcDbTrace
 10
7249.590189344388
 20
5140.048959464852
 30
0.0
 11
7255.590189344387
 21
5140.048959464852
 31
0.0
 12
7252.590189344388
 22
5122.048959464852
 32
0.0
 13
7252.590189344388
 23
5122.048959464852
 33
0.0
  0
MTEXT
  5
27F8
330
20A6
100
AcDbEntity
  8
0
 62
     0
100
AcDbMText
 10
7239.417154016341
 20
5325.048959464854
 30
0.0
 40
20.0
 41
0.0
 71
     5
 72
     1
  1
16"
 11
0.0000000000000001
 21
1.0
 31
0.0
 73
     1
 44
1.0
  0
POINT
  5
27F9
330
20A6
100
AcDbEntity
  8
Defpoints
 62
     0
100
AcDbPoint
 10
7155.598463001678
 20
5528.048959464854
 30
0.0
  0
POINT
  5
27FA
330
20A6
100
AcDbEntity
  8
Defpoints
 62
     0
100
AcDbPoint
 10
7155.598463001673
 20
5122.048959464852
 30
0.0
  0
POINT
  5
27FB
330
20A6
100
AcDbEntity
  8
Defpoints
 62
     0
100
AcDbPoint
 10
7252.590189344388
 20
5122.048959464852
 30
0.0
  0
ENDBLK
  5
20B1
330
20A6
100
AcDbEntity
  8
0
100
AcDbBlockEnd
  0
BLOCK
  5
20C8
330
20BE
100
AcDbEntity
  8
0
100
AcDbBlockBegin
  2
*D58
 70
     1
 10
0.0
 20
0.0
 30
0.0
  3
*D58
  1

  0
LINE
  5
27FC
330
20BE
100
AcDbEntity
  8
0
370
     9
100
AcDbLine
 10
7140.198463001677
 20
5553.448959464851
 30
0.0
 11
7311.812992665768
 21
5553.448959464851
 31
0.0
  0
LINE
  5
27FD
330
20BE
100
AcDbEntity
  8
0
370
     9
100
AcDbLine
 10
7140.198463001673
 20
5096.648959464851
 30
0.0
 11
7311.812992665768
 21
5096.648959464851
 31
0.0
  0
LINE
  5
27FE
330
20BE
100
AcDbEntity
  8
0
370
     9
100
AcDbLine
 10
7306.812992665769
 20
5535.448959464852
 30
0.0
 11
7306.812992665769
 21
5114.648959464851
 31
0.0
  0
SOLID
  5
27FF
330
20BE
100
AcDbEntity
  8
0
100
AcDbTrace
 10
7303.812992665768
 20
5535.448959464852
 30
0.0
 11
7309.812992665769
 21
5535.448959464852
 31
0.0
 12
7306.812992665769
 22
5553.448959464851
 32
0.0
 13
7306.812992665769
 23
5553.448959464851
 33
0.0
  0
SOLID
  5
2800
330
20BE
100
AcDbEntity
  8
0
100
AcDbTrace
 10
7303.812992665768
 20
5114.648959464851
 30
0.0
 11
7309.812992665769
 21
5114.648959464851
 31
0.0
 12
7306.812992665769
 22
5096.648959464851
 32
0.0
 13
7306.812992665769
 23
5096.648959464851
 33
0.0
  0
MTEXT
  5
2801
330
20BE
100
AcDbEntity
  8
0
 62
     0
100
AcDbMText
 10
7293.639957337721
 20
5325.048959464854
 30
0.0
 40
20.0
 41
0.0
 71
     5
 72
     1
  1
18"
 11
0.0000000000000001
 21
1.0
 31
0.0
 73
     1
 44
1.0
  0
POINT
  5
2802
330
20BE
100
AcDbEntity
  8
Defpoints
 62
     0
100
AcDbPoint
 10
7130.198463001677
 20
5553.448959464851
 30
0.0
  0
POINT
  5
2803
330
20BE
100
AcDbEntity
  8
Defpoints
 62
     0
100
AcDbPoint
 10
7130.198463001673
 20
5096.648959464851
 30
0.0
  0
POINT
  5
2804
330
20BE
100
AcDbEntity
  8
Defpoints
 62
     0
100
AcDbPoint
 10
7306.812992665769
 20
5096.648959464851
 30
0.0
  0
ENDBLK
  5
20C9
330
20BE
100
AcDbEntity
  8
0
100
AcDbBlockEnd
  0
BLOCK
  5
2598
330
258E
100
AcDbEntity
  8
0
100
AcDbBlockBegin
  2
*D59
 70
     1
 10
0.0
 20
0.0
 30
0.0
  3
*D59
  1

  0
LINE
  5
28E6
330
258E
100
AcDbEntity
  8
0
370
     9
100
AcDbLine
 10
6372.056223164292
 20
5928.048297458023
 30
0.0
 11
6301.866428906279
 21
5928.048297458023
 31
0.0
  0
LINE
  5
28E7
330
258E
100
AcDbEntity
  8
0
370
     9
100
AcDbLine
 10
6451.600125579066
 20
5699.448297458022
 30
0.0
 11
6301.866428906279
 21
5699.448297458022
 31
0.0
  0
LINE
  5
28E8
330
258E
100
AcDbEntity
  8
0
370
     9
100
AcDbLine
 10
6306.866428906278
 20
5910.048297458024
 30
0.0
 11
6306.866428906278
 21
5717.448297458022
 31
0.0
  0
SOLID
  5
28E9
330
258E
100
AcDbEntity
  8
0
100
AcDbTrace
 10
6303.866428906279
 20
5910.048297458024
 30
0.0
 11
6309.866428906278
 21
5910.048297458024
 31
0.0
 12
6306.866428906278
 22
5928.048297458023
 32
0.0
 13
6306.866428906278
 23
5928.048297458023
 33
0.0
  0
SOLID
  5
28EA
330
258E
100
AcDbEntity
  8
0
100
AcDbTrace
 10
6303.866428906279
 20
5717.448297458022
 30
0.0
 11
6309.866428906278
 21
5717.448297458022
 31
0.0
 12
6306.866428906278
 22
5699.448297458022
 32
0.0
 13
6306.866428906278
 23
5699.448297458022
 33
0.0
  0
MTEXT
  5
28EB
330
258E
100
AcDbEntity
  8
0
 62
     0
100
AcDbMText
 10
6293.664554356892
 20
5813.748297458025
 30
0.0
 40
20.0
 41
0.0
 71
     5
 72
     1
  1
9"
 11
0.0000000000000001
 21
1.0
 31
0.0
 73
     1
 44
1.0
  0
POINT
  5
28EC
330
258E
100
AcDbEntity
  8
Defpoints
 62
     0
100
AcDbPoint
 10
6382.05622316429
 20
5928.048297458023
 30
0.0
  0
POINT
  5
28ED
330
258E
100
AcDbEntity
  8
Defpoints
 62
     0
100
AcDbPoint
 10
6461.600125579066
 20
5699.448297458022
 30
0.0
  0
POINT
  5
28EE
330
258E
100
AcDbEntity
  8
Defpoints
 62
     0
100
AcDbPoint
 10
6306.866428906278
 20
5699.448297458022
 30
0.0
  0
ENDBLK
  5
2599
330
258E
100
AcDbEntity
  8
0
100
AcDbBlockEnd
  0
BLOCK
  5
25B0
330
25A6
100
AcDbEntity
  8
0
100
AcDbBlockBegin
  2
*D60
 70
     1
 10
0.0
 20
0.0
 30
0.0
  3
*D60
  1

  0
LINE
  5
28EF
330
25A6
100
AcDbEntity
  8
0
370
     9
100
AcDbLine
 10
7199.011421339412
 20
5928.048297458023
 30
0.0
 11
7243.25725798559
 21
5928.048297458023
 31
0.0
  0
LINE
  5
28F0
330
25A6
100
AcDbEntity
  8
0
370
     9
100
AcDbLine
 10
7198.519863348289
 20
5795.79995733092
 30
0.0
 11
7243.25725798559
 21
5795.79995733092
 31
0.0
  0
LINE
  5
28F1
330
25A6
100
AcDbEntity
  8
0
370
     9
100
AcDbLine
 10
7238.257257985591
 20
5910.048297458024
 30
0.0
 11
7238.257257985591
 21
5813.799957330923
 31
0.0
  0
SOLID
  5
28F2
330
25A6
100
AcDbEntity
  8
0
100
AcDbTrace
 10
7235.25725798559
 20
5910.048297458024
 30
0.0
 11
7241.257257985592
 21
5910.048297458024
 31
0.0
 12
7238.257257985591
 22
5928.048297458023
 32
0.0
 13
7238.257257985591
 23
5928.048297458023
 33
0.0
  0
SOLID
  5
28F3
330
25A6
100
AcDbEntity
  8
0
100
AcDbTrace
 10
7235.25725798559
 20
5813.799957330923
 30
0.0
 11
7241.257257985592
 21
5813.799957330923
 31
0.0
 12
7238.257257985591
 22
5795.79995733092
 32
0.0
 13
7238.257257985591
 23
5795.79995733092
 33
0.0
  0
MTEXT
  5
28F4
330
25A6
100
AcDbEntity
  8
0
 62
     0
100
AcDbMText
 10
7224.803040249469
 20
5861.924127394475
 30
0.0
 40
20.0
 41
0.0
 71
     5
 72
     1
  1
5-1/4"
 11
0.0000000000000001
 21
1.0
 31
0.0
 73
     1
 44
1.0
  0
POINT
  5
28F5
330
25A6
100
AcDbEntity
  8
Defpoints
 62
     0
100
AcDbPoint
 10
7189.011421339412
 20
5928.048297458023
 30
0.0
  0
POINT
  5
28F6
330
25A6
100
AcDbEntity
  8
Defpoints
 62
     0
100
AcDbPoint
 10
7188.519863348289
 20
5795.79995733092
 30
0.0
  0
POINT
  5
28F7
330
25A6
100
AcDbEntity
  8
Defpoints
 62
     0
100
AcDbPoint
 10
7238.257257985591
 20
5795.79995733092
 30
0.0
  0
ENDBLK
  5
25B1
330
25A6
100
AcDbEntity
  8
0
100
AcDbBlockEnd
  0
BLOCK
  5
28E4
330
2886
100
AcDbEntity
  8
0
100
AcDbBlockBegin
  2
A$C7DFB4140
 70
     0
 10
0.0
 20
0.0
 30
0.0
  3
A$C7DFB4140
  1

  0
MTEXT
  5
2887
330
2886
100
AcDbEntity
  8
虚线
 62
     7
370
    18
100
AcDbMText
 10
1959.022406364138
 20
367.0391586851682
 30
0.0
 40
16.9728
 41
352.4096779906666
 71
     5
 72
     5
  1
{\fSimSun|b0|i0|c134|p2;带}\U+53f0\U+9636{\fSimSun|b0|i0|c134|p2;台下}\U+5355\U+76c6
 73
     1
 44
1.0
1001
ACAD
1000
ACAD_MTEXT_DEFINED_HEIGHT_BEGIN
1070
    46
1040
0.0
1000
ACAD_MTEXT_DEFINED_HEIGHT_END
  0
LINE
  5
2888
330
2886
100
AcDbEntity
  8
0
370
    60
100
AcDbLine
 10
-0.0000052247014537
 20
0.0000063180393397
 30
0.0
 11
-0.0000052247014537
 21
1512.374876387013
 31
0.0
  0
LINE
  5
2889
330
2886
100
AcDbEntity
  8
0
370
    60
100
AcDbLine
 10
2175.007245359471
 20
1512.374876387017
 30
0.0
 11
-0.0000052247014537
 21
1512.374876387013
 31
0.0
  0
LINE
  5
288A
330
2886
100
AcDbEntity
  8
0
370
    60
100
AcDbLine
 10
99.44999477530293
 20
39.78000631803935
 30
0.0
 11
99.44999477530293
 21
1472.594876387017
 31
0.0
  0
LINE
  5
288B
330
2886
100
AcDbEntity
  8
0
370
    60
100
AcDbLine
 10
2135.227245359473
 20
1472.594876387017
 30
0.0
 11
99.44999477530293
 21
1472.594876387017
 31
0.0
  0
MTEXT
  5
288C
330
2886
100
AcDbEntity
  8
虚线
 62
     7
370
    18
100
AcDbMText
 10
2049.325465648345
 20
60.05089316240739
 30
0.0
 40
15.38670662466903
 41
11.72168061015145
 71
     1
 72
     5
  1
{\fSimSun|b0|i0|c134|p2;1}
 73
     1
 44
1.0
  0
MTEXT
  5
288D
330
2886
100
AcDbEntity
  8
虚线
 62
     7
370
    18
100
AcDbMText
 10
1887.374014652716
 20
60.61498973274598
 30
0.0
 40
15.38670662466903
 41
10.39697523408862
 71
     1
 72
     5
  1
{\fSimSun|b0|i0|c134|p2;1}
 73
     1
 44
1.0
  0
MTEXT
  5
288E
330
2886
100
AcDbEntity
  8
虚线
 62
     7
370
    18
100
AcDbMText
 10
1574.271656381005
 20
166.8747083698785
 30
0.0
 40
15.912
 41
141.5768072432266
 71
     5
 72
     5
  1
2009.11.27
 73
     1
 44
1.0
1001
ACAD
1000
ACAD_MTEXT_DEFINED_HEIGHT_BEGIN
1070
    46
1040
0.0
1000
ACAD_MTEXT_DEFINED_HEIGHT_END
  0
MTEXT
  5
288F
330
2886
100
AcDbEntity
  8
虚线
 62
     7
370
    18
100
AcDbMText
 10
1437.151978858489
 20
168.3868504070415
 30
0.0
 40
21.216
 41
132.6625478018045
 71
     5
 72
     5
  1
{\fSimSun|b0|i0|c134|p2;Fred}
 73
     1
 44
1.0
  0
MTEXT
  5
2890
330
2886
100
AcDbEntity
  8
虚线
 62
     7
370
    18
100
AcDbMText
 10
1482.588849552781
 20
317.226810795246
 30
0.0
 40
14.00256
 41
399.3875167102967
 71
     5
 72
     5
  1
{\fSimSun|b0|i0|c134|p2;DONGYUAN KITCHENWARE INDUSTRIAL CO.,LTD}
 73
     1
 44
1.0
  0
MTEXT
  5
2891
330
2886
100
AcDbEntity
  8
标注线
  6
Continuous
 62
     7
100
AcDbMText
 10
1482.588849552781
 20
357.7949922161216
 30
0.0
 40
27.49593600000001
 41
399.387516710296
 71
     5
 72
     5
  1
{\fSimSun|b0|i0|c134|p54;东原厨具实业有限公司}
 73
     1
 44
1.0
  0
MTEXT
  5
2892
330
2886
100
AcDbEntity
  8
虚线
 62
     7
370
    18
100
AcDbMText
 10
1845.467915123897
 20
321.7042125971945
 30
0.0
 40
16.575
 41
125.300695510168
 71
     5
 72
     5
  1
861-1
 73
     1
 44
1.0
1001
ACAD
1000
ACAD_MTEXT_DEFINED_HEIGHT_BEGIN
1070
    46
1040
0.0
1000
ACAD_MTEXT_DEFINED_HEIGHT_END
  0
MTEXT
  5
2893
330
2886
100
AcDbEntity
  8
虚线
 62
     7
370
    18
100
AcDbMText
 10
2023.144225354716
 20
170.1948610429647
 30
0.0
 40
19.0944
 41
224.1660400095128
 71
     5
 72
     5
  1
{\fSimSun|b0|i0|c134|p2;T=1.2mm  SUS304}
 73
     1
 44
1.0
1001
ACAD
1000
ACAD_MTEXT_DEFINED_HEIGHT_BEGIN
1070
    46
1040
0.0
1000
ACAD_MTEXT_DEFINED_HEIGHT_END
  0
LINE
  5
2894
330
2886
100
AcDbEntity
  8
0
370
    60
100
AcDbLine
 10
-0.0000052247014537
 20
0.0000063180393397
 30
0.0
 11
2175.007245359456
 21
0.0000063180393397
 31
0.0
  0
LINE
  5
2895
330
2886
100
AcDbEntity
  8
0
370
    60
100
AcDbLine
 10
2175.007245359471
 20
1512.374876387017
 30
0.0
 11
2175.007245359456
 21
0.0000063180393397
 31
0.0
  0
MTEXT
  5
2896
330
2886
100
AcDbEntity
  8
标注线
  6
Continuous
100
AcDbMText
 10
1908.754926633703
 20
248.5240614840047
 30
0.0
 40
26.52000000000001
 41
452.9446374515415
 71
     5
 72
     5
  1
{\C7;861-1\fSimSun|b0|i0|c134|p54;产品图}
 73
     1
 44
1.0
1001
ACAD
1000
ACAD_MTEXT_DEFINED_HEIGHT_BEGIN
1070
    46
1040
0.0
1000
ACAD_MTEXT_DEFINED_HEIGHT_END
  0
LINE
  5
2897
330
2886
100
AcDbEntity
  8
0
370
    60
100
AcDbLine
 10
99.44999477530293
 20
39.78000631803935
 30
0.0
 11
2135.227245359473
 21
39.78000631803935
 31
0.0
  0
LINE
  5
2898
330
2886
100
AcDbEntity
  8
0
370
    -3
100
AcDbLine
 10
1484.630726615444
 20
297.5868141174276
 30
0.0
 11
1484.630726615425
 21
196.2476829943265
 31
0.0
  0
LINE
  5
2899
330
2886
100
AcDbEntity
  8
0
370
    -3
100
AcDbLine
 10
1580.364700531178
 20
297.5868141174276
 30
0.0
 11
1580.364700531176
 21
196.2476829943265
 31
0.0
  0
LINE
  5
289A
330
2886
100
AcDbEntity
  8
0
370
    -3
100
AcDbLine
 10
1682.28260790793
 20
391.4814356594679
 30
0.0
 11
1682.28260790793
 21
196.2476829943265
 31
0.0
  0
LINE
  5
289B
330
2886
100
AcDbEntity
  8
0
370
    -3
100
AcDbLine
 10
2135.227245359473
 20
196.2476829943265
 30
0.0
 11
1282.895091197632
 21
196.2476829943265
 31
0.0
  0
MTEXT
  5
289C
330
2886
100
AcDbEntity
  8
虚线
 62
     7
370
    18
100
AcDbMText
 10
1769.84955824158
 20
64.79786045153338
 30
0.0
 40
15.912
 41
79.09025546933867
 71
     5
 72
     5
  1
{\fSimSun|b0|i0|c134|p2;A/0}
 73
     1
 44
1.0
  0
LINE
  5
289D
330
2886
100
AcDbEntity
  8
0
370
    -3
100
AcDbLine
 10
2135.227245359473
 20
141.8558626422505
 30
0.0
 11
1282.895091197632
 21
141.8558626422505
 31
0.0
  0
LINE
  5
289E
330
2886
100
AcDbEntity
  8
0
370
    -3
100
AcDbLine
 10
2135.227245359473
 20
87.46404229016645
 30
0.0
 11
1282.895091197632
 21
87.46404229016645
 31
0.0
  0
MTEXT
  5
289F
330
2886
100
AcDbEntity
  8
虚线
 62
     7
370
    18
100
AcDbMText
 10
1687.682245254765
 20
127.5130701429129
 30
0.0
 40
14.88901916211415
 41
85.24437050429161
 71
     5
 72
     5
  1
{\fSimSun|b0|i0|c134|p2;SCALE}
 73
     1
 44
1.0
  0
LINE
  5
28A0
330
2886
100
AcDbEntity
  8
0
370
    -3
100
AcDbLine
 10
1503.483252759394
 20
196.2476829943265
 30
0.0
 11
1503.483252759376
 21
39.78000631803935
 31
0.0
  0
LINE
  5
28A1
330
2886
100
AcDbEntity
  8
0
370
    -3
100
AcDbLine
 10
1645.060060002618
 20
196.2476829943265
 30
0.0
 11
1645.060060002618
 21
39.78000631803935
 31
0.0
  0
MTEXT
  5
28A2
330
2886
100
AcDbEntity
  8
虚线
 62
     7
370
    18
100
AcDbMText
 10
1687.682245254765
 20
74.67739503920999
 30
0.0
 40
14.88901916211415
 41
85.24437050429247
 71
     5
 72
     5
  1
{\fSimSun|b0|i0|c134|p2;REV.} 
 73
     1
 44
1.0
  0
LINE
  5
28A3
330
2886
100
AcDbEntity
  8
0
370
    -3
100
AcDbLine
 10
1730.304430506909
 20
196.2476829943265
 30
0.0
 11
1730.304430506909
 21
39.78000631803935
 31
0.0
  0
MTEXT
  5
28A4
330
2886
100
AcDbEntity
  8
虚线
 62
     7
370
    18
100
AcDbMText
 10
1687.594859333229
 20
53.88688516347002
 30
0.0
 40
15.38670662466903
 41
85.18615381843792
 71
     5
 72
     5
  1
{\fSimSun|b0|i0|c134|p54;版 次}
 73
     1
 44
1.0
  0
MTEXT
  5
28A5
330
2886
100
AcDbEntity
  8
虚线
 62
     7
370
    18
100
AcDbMText
 10
1687.682245254765
 20
104.0571505922574
 30
0.0
 40
15.38670662466903
 41
85.2443705042922
 71
     5
 72
     5
  1
{\fSimSun|b0|i0|c134|p54;比 例}
 73
     1
 44
1.0
  0
MTEXT
  5
28A6
330
2886
100
AcDbEntity
  8
虚线
 62
     7
370
    18
100
AcDbMText
 10
1441.61707193614
 20
227.7483599442542
 30
0.0
 40
11.91121532969132
 41
86.02730935858067
 71
     5
 72
     5
  1
{\fSimSun|b0|i0|c134|p2;\H0.9027x;POSITION}
 73
     1
 44
1.0
  0
LINE
  5
28A7
330
2886
100
AcDbEntity
  8
0
370
    -3
100
AcDbLine
 10
1682.28260790793
 20
237.1924856901431
 30
0.0
 11
1282.895091197632
 21
237.1924856901431
 31
0.0
  0
MTEXT
  5
28A8
330
2886
100
AcDbEntity
  8
虚线
 62
     7
370
    18
100
AcDbMText
 10
1687.430556234093
 20
158.79039085266
 30
0.0
 40
15.38670662466903
 41
85.24437050429201
 71
     5
 72
     5
  1
{\fSimSun|b0|i0|c134|p54;数 量}
 73
     1
 44
1.0
  0
MTEXT
  5
28A9
330
2886
100
AcDbEntity
  8
虚线
 62
     7
370
    18
100
AcDbMText
 10
1687.682245254765
 20
182.1544295694143
 30
0.0
 40
14.88901916211415
 41
85.24437050429201
 71
     5
 72
     5
  1
{\fSimSun|b0|i0|c134|p2;NUMBER}
 73
     1
 44
1.0
  0
MTEXT
  5
28AA
330
2886
100
AcDbEntity
  8
虚线
 62
     7
370
    18
100
AcDbMText
 10
1532.497713573303
 20
227.7483599442542
 30
0.0
 40
11.91121532969132
 41
95.73397391574356
 71
     5
 72
     5
  1
{\fSimSun|b0|i0|c134|p2;\H0.9027x;AUTOGRAPH}
 73
     1
 44
1.0
  0
MTEXT
  5
28AB
330
2886
100
AcDbEntity
  8
虚线
 62
     7
370
    18
100
AcDbMText
 10
1441.617071936137
 20
207.72390743967
 30
0.0
 40
14.88901916211415
 41
86.02730935857726
 71
     5
 72
     5
  1
{\fSimSun|b0|i0|c134|p54;\H0.7222x;处 数}
 73
     1
 44
1.0
  0
MTEXT
  5
28AC
330
2886
100
AcDbEntity
  8
虚线
 62
     7
370
    18
100
AcDbMText
 10
1532.497713573301
 20
207.9425995156522
 30
0.0
 40
14.88901916211415
 41
95.73397391574602
 71
     5
 72
     5
  1
{\fSimSun|b0|i0|c134|p54;\H0.7222x;签 名}
 73
     1
 44
1.0
  0
MTEXT
  5
28AD
330
2886
100
AcDbEntity
  8
虚线
 62
     7
370
    18
100
AcDbMText
 10
1631.323654219552
 20
207.4916628294084
 30
0.0
 40
10.7521564365157
 41
101.9179073767547
 71
     5
 72
     5
  1
{\fSimSun|b0|i0|c134|p54;日 期}
 73
     1
 44
1.0
  0
MTEXT
  5
28AE
330
2886
100
AcDbEntity
  8
虚线
 62
     7
370
    18
100
AcDbMText
 10
1631.323654219552
 20
228.5048841431456
 30
0.0
 40
10.7521564365157
 41
101.9179073767538
 71
     5
 72
     5
  1
{\fSimSun|b0|i0|c134|p2;DATE}
 73
     1
 44
1.0
  0
LINE
  5
28AF
330
2886
100
AcDbEntity
  8
0
370
    -3
100
AcDbLine
 10
1911.061205349957
 20
196.2476829943325
 30
0.0
 11
1911.061205349957
 21
141.8558626422505
 31
0.0
  0
MTEXT
  5
28B0
330
2886
100
AcDbEntity
  8
虚线
 62
     7
370
    18
100
AcDbMText
 10
2093.435606236802
 20
84.24516584830184
 30
0.0
 40
14.88901916211415
 41
41.79163912266877
 71
     1
 72
     5
  1
{\fSimSun|b0|i0|c134|p2;PG}
 73
     1
 44
1.0
  0
MTEXT
  5
28B1
330
2886
100
AcDbEntity
  8
虚线
 62
     7
370
    18
100
AcDbMText
 10
1985.247650504891
 20
83.92948754628383
 30
0.0
 40
14.88901916211415
 41
38.66800228856565
 71
     1
 72
     5
  1
{\fSimSun|b0|i0|c134|p2;LSN}
 73
     1
 44
1.0
  0
MTEXT
  5
28B2
330
2886
100
AcDbEntity
  8
虚线
 62
     7
370
    18
100
AcDbMText
 10
1936.368673634179
 20
84.19235233205055
 30
0.0
 40
14.88901916211415
 41
25.01774231755396
 71
     1
 72
     5
  1
{\fSimSun|b0|i0|c134|p2;PG}
 73
     1
 44
1.0
  0
MTEXT
  5
28B3
330
2886
100
AcDbEntity
  8
虚线
 62
     7
370
    18
100
AcDbMText
 10
1816.548510988921
 20
84.80267615556597
 30
0.0
 40
14.88901916211415
 41
41.71008857521512
 71
     1
 72
     5
  1
{\fSimSun|b0|i0|c134|p2;ALL}
 73
     1
 44
1.0
  0
MTEXT
  5
28B4
330
2886
100
AcDbEntity
  8
虚线
 62
     7
370
    18
100
AcDbMText
 10
1819.739041152417
 20
64.80806994782549
 30
0.0
 40
15.38670662466903
 41
30.15076162902814
 71
     1
 72
     5
  1
{\fSimSun|b0|i0|c134|p54;共}
 73
     1
 44
1.0
  0
MTEXT
  5
28B5
330
2886
100
AcDbEntity
  8
虚线
 62
     7
370
    18
100
AcDbMText
 10
1873.025226944982
 20
62.55669241783732
 30
0.0
 40
15.38670662466903
 41
50.81761682844493
 71
     1
 72
     5
  1
{\fSimSun|b0|i0|c134|p2;(  )}
 73
     1
 44
1.0
  0
MTEXT
  5
28B6
330
2886
100
AcDbEntity
  8
虚线
 62
     7
370
    18
100
AcDbMText
 10
1936.035859817797
 20
64.58568975603743
 30
0.0
 40
15.38670662466903
 41
26.88718530316911
 71
     1
 72
     5
  1
{\fSimSun|b0|i0|c134|p54;页}
 73
     1
 44
1.0
  0
MTEXT
  5
28B7
330
2886
100
AcDbEntity
  8
虚线
 62
     7
370
    18
100
AcDbMText
 10
2092.404759149827
 20
64.90940240419115
 30
0.0
 40
15.38670662466903
 41
42.82248620964678
 71
     1
 72
     5
  1
{\fSimSun|b0|i0|c134|p54;页}
 73
     1
 44
1.0
  0
MTEXT
  5
28B8
330
2886
100
AcDbEntity
  8
虚线
 62
     7
370
    18
100
AcDbMText
 10
2035.391890546024
 20
61.78566373905495
 30
0.0
 40
15.38670662466903
 41
46.86111010612726
 71
     1
 72
     5
  1
{\fSimSun|b0|i0|c134|p2;(  )}
 73
     1
 44
1.0
  0
MTEXT
  5
28B9
330
2886
100
AcDbEntity
  8
虚线
 62
     7
370
    18
100
AcDbMText
 10
1989.40163590355
 20
65.34974929407832
 30
0.0
 40
15.38670662466903
 41
29.71839262786892
 71
     1
 72
     5
  1
{\fSimSun|b0|i0|c134|p54;第}
 73
     1
 44
1.0
  0
LINE
  5
28BA
330
2886
100
AcDbEntity
  8
0
370
    -3
100
AcDbLine
 10
1900.555978572993
 20
123.5463860043995
 30
0.0
 11
1970.555394416986
 21
131.6860124030728
 31
0.0
  0
LINE
  5
28BB
330
2886
100
AcDbEntity
  8
0
370
    -3
100
AcDbLine
 10
1970.555394416986
 20
99.38419107185872
 30
0.0
 11
1900.555978572993
 21
107.4323014897425
 31
0.0
  0
LINE
  5
28BC
330
2886
100
AcDbEntity
  8
0
370
    -3
100
AcDbLine
 10
1900.555978572993
 20
107.4323014897425
 30
0.0
 11
1900.555978572993
 21
123.5463860043995
 31
0.0
  0
MTEXT
  5
28BD
330
2886
100
AcDbEntity
  8
虚线
 62
     7
370
    18
100
AcDbMText
 10
1769.84955824158
 20
115.6381652682379
 30
0.0
 40
15.912
 41
79.09025546933867
 71
     5
 72
     5
  1
{\fSimSun|b0|i0|c134|p2;1:1}
 73
     1
 44
1.0
  0
LINE
  5
28BE
330
2886
100
AcDbEntity
  8
中心线
370
    -3
100
AcDbLine
 10
2022.122696994731
 20
94.51303482577964
 30
0.0
 11
2022.122696994731
 21
136.4477889894909
 31
0.0
  0
CIRCLE
  5
28BF
330
2886
100
AcDbEntity
  8
0
370
    -3
100
AcDbCircle
 10
2022.122696994731
 20
115.4804119076343
 30
0.0
 40
8.048110417889191
  0
CIRCLE
  5
28C0
330
2886
100
AcDbEntity
  8
0
370
    -3
100
AcDbCircle
 10
2022.122696994731
 20
115.4804119076343
 30
0.0
 40
16.09622083577838
  0
LINE
  5
28C1
330
2886
100
AcDbEntity
  8
0
370
    -3
100
AcDbLine
 10
1970.555394416986
 20
99.38419107185872
 30
0.0
 11
1970.555394416986
 21
131.6860124030728
 31
0.0
  0
LINE
  5
28C2
330
2886
100
AcDbEntity
  8
0
370
    60
100
AcDbLine
 10
2135.227245359473
 20
391.4814356594679
 30
0.0
 11
1282.895091197632
 21
391.4814356594679
 31
0.0
  0
LINE
  5
28C3
330
2886
100
AcDbEntity
  8
0
370
    -3
100
AcDbLine
 10
2135.227245359473
 20
344.5341248884489
 30
0.0
 11
1682.28260790793
 21
344.5341248884489
 31
0.0
  0
LINE
  5
28C4
330
2886
100
AcDbEntity
  8
0
370
    -3
100
AcDbLine
 10
2135.227245359473
 20
297.5868141174276
 30
0.0
 11
1682.28260790793
 21
297.5868141174276
 31
0.0
  0
MTEXT
  5
28C5
330
2886
100
AcDbEntity
  8
虚线
 62
     7
370
    18
100
AcDbMText
 10
1732.550087638367
 20
381.4562016073422
 30
0.0
 40
11.91121532969132
 41
100.5349594608752
 71
     5
 72
     5
  1
{\fSimSun|b0|i0|c134|p2;DESCRIPTION}
 73
     1
 44
1.0
  0
LINE
  5
28C6
330
2886
100
AcDbEntity
  8
0
370
    -3
100
AcDbLine
 10
1782.8175673688
 20
391.4814356594679
 30
0.0
 11
1782.817567368822
 21
297.5868141174256
 31
0.0
  0
LINE
  5
28C7
330
2886
100
AcDbEntity
  8
0
370
    -3
100
AcDbLine
 10
1682.28260790793
 20
297.5868141174276
 30
0.0
 11
1282.895091197632
 21
297.5868141174276
 31
0.0
  0
LINE
  5
28C8
330
2886
100
AcDbEntity
  8
0
370
    -3
100
AcDbLine
 10
1682.28260790793
 20
266.6435157180016
 30
0.0
 11
1282.895091197632
 21
266.6435157179896
 31
0.0
  0
MTEXT
  5
28C9
330
2886
100
AcDbEntity
  8
虚线
 62
     7
370
    18
100
AcDbMText
 10
1732.550087638372
 20
315.2527483169386
 30
0.0
 40
15.38670662466903
 41
100.5349594608846
 71
     5
 72
     5
  1
{\fSimSun|b0|i0|c134|p54;图 号}
 73
     1
 44
1.0
  0
MTEXT
  5
28CA
330
2886
100
AcDbEntity
  8
虚线
 62
     7
370
    18
100
AcDbMText
 10
1732.550087638372
 20
335.1862244196866
 30
0.0
 40
11.91121532969132
 41
100.5349594608815
 71
     5
 72
     5
  1
{\fSimSun|b0|i0|c134|p2;DWG. NO.}
 73
     1
 44
1.0
  0
MTEXT
  5
28CB
330
2886
100
AcDbEntity
  8
虚线
 62
     7
370
    18
100
AcDbMText
 10
1732.55008763837
 20
358.5927503085239
 30
0.0
 40
15.38670662466903
 41
100.53495946088
 71
     5
 72
     5
  1
{\fSimSun|b0|i0|c134|p54;描 述}
 73
     1
 44
1.0
  0
LINE
  5
28CC
330
2886
100
AcDbEntity
  8
0
370
    -3
100
AcDbLine
 10
2019.785906594779
 20
344.534124888479
 30
0.0
 11
2019.785906594779
 21
297.5868141174276
 31
0.0
  0
LINE
  5
28CD
330
2886
100
AcDbEntity
  8
0
370
    -3
100
AcDbLine
 10
1908.118262878978
 20
344.534124888479
 30
0.0
 11
1908.118262878978
 21
297.5868141174276
 31
0.0
  0
MTEXT
  5
28CE
330
2886
100
AcDbEntity
  8
虚线
 62
     7
370
    18
100
AcDbMText
 10
1963.952084736877
 20
313.8862887851756
 30
0.0
 40
15.38670662466903
 41
111.6676437157967
 71
     5
 72
     5
  1
{\fSimSun|b0|i0|c134|p2;型 号}
 73
     1
 44
1.0
  0
MTEXT
  5
28CF
330
2886
100
AcDbEntity
  8
虚线
 62
     7
370
    18
100
AcDbMText
 10
1963.952084736877
 20
335.2301437741847
 30
0.0
 40
11.91121532969132
 41
111.6676437157967
 71
     5
 72
     5
  1
{\fSimSun|b0|i0|c134|p2;MODEL NO.}
 73
     1
 44
1.0
  0
MTEXT
  5
28D0
330
2886
100
AcDbEntity
  8
虚线
 62
     7
370
    18
100
AcDbMText
 10
2077.506575977124
 20
321.8447779793954
 30
0.0
 40
16.575
 41
115.4413387646937
 71
     5
 72
     5
  1
861-1
 73
     1
 44
1.0
1001
ACAD
1000
ACAD_MTEXT_DEFINED_HEIGHT_BEGIN
1070
    46
1040
0.0
1000
ACAD_MTEXT_DEFINED_HEIGHT_END
  0
LINE
  5
28D1
330
2886
100
AcDbEntity
  8
0
370
    60
100
AcDbLine
 10
2135.227245359473
 20
1472.594876387017
 30
0.0
 11
2135.227245359473
 21
39.78000631803935
 31
0.0
  0
LINE
  5
28D2
330
2886
100
AcDbEntity
  8
0
370
    -3
100
AcDbLine
 10
1809.394685976248
 20
196.2476829943265
 30
0.0
 11
1809.394685976248
 21
39.78000631803935
 31
0.0
  0
MTEXT
  5
28D3
330
2886
100
AcDbEntity
  8
虚线
 62
     7
370
    18
100
AcDbMText
 10
1860.227945663103
 20
158.8056547007308
 30
0.0
 40
15.38670662466903
 41
101.6665193737111
 71
     5
 72
     5
  1
{\fSimSun|b0|i0|c134|p54;材 料}
 73
     1
 44
1.0
  0
MTEXT
  5
28D4
330
2886
100
AcDbEntity
  8
虚线
 62
     7
370
    18
100
AcDbMText
 10
1860.227945663103
 20
183.3842593411118
 30
0.0
 40
14.88901916211414
 41
101.6665193737111
 71
     5
 72
     5
  1
{\fSimSun|b0|i0|c134|p2;MATERIAL}
 73
     1
 44
1.0
  0
MTEXT
  5
28D5
330
2886
100
AcDbEntity
  8
虚线
 62
     7
370
    18
100
AcDbMText
 10
1769.84955824158
 20
170.3979988493591
 30
0.0
 40
15.912
 41
79.09025546933867
 71
     5
 72
     5
  1
{\fSimSun|b0|i0|c134|p2;1件}
 73
     1
 44
1.0
  0
LINE
  5
28D6
330
2886
100
AcDbEntity
  8
中心线
370
    -3
100
AcDbLine
 10
2043.090074076596
 20
115.4804119076343
 30
0.0
 11
1893.976164667962
 21
115.4804119076343
 31
0.0
  0
LINE
  5
28D7
330
2886
100
AcDbEntity
  8
0
370
    -3
100
AcDbLine
 10
1398.603417256854
 20
297.5868141174276
 30
0.0
 11
1398.60341725685
 21
196.2476829943265
 31
0.0
  0
LINE
  5
28D8
330
2886
100
AcDbEntity
  8
0
370
    60
100
AcDbLine
 10
1282.895091197632
 20
391.4814356594679
 30
0.0
 11
1282.895091197632
 21
39.78000631803935
 31
0.0
  0
MTEXT
  5
28D9
330
2886
100
AcDbEntity
  8
0
370
    -3
100
AcDbMText
 10
1326.85789807761
 20
128.5713276453209
 30
0.0
 40
14.88901916211415
 41
87.92561375995211
 71
     5
 72
     5
  1
{\fSimSun|b0|i0|c134|p2;\C7;CKD.}
 73
     1
 44
1.0
  0
LINE
  5
28DA
330
2886
100
AcDbEntity
  8
0
370
    -3
100
AcDbLine
 10
1370.820704957586
 20
196.2476829943465
 30
0.0
 11
1370.820704957586
 21
39.78000631803935
 31
0.0
  0
MTEXT
  5
28DB
330
2886
100
AcDbEntity
  8
虚线
370
    18
100
AcDbMText
 10
1326.85789807761
 20
77.44777244004353
 30
0.0
 40
14.88901916211415
 41
87.92561375995211
 71
     5
 72
     5
  1
{\fSimSun|b0|i0|c134|p2;\C7;APPD.}
 73
     1
 44
1.0
  0
MTEXT
  5
28DC
330
2886
100
AcDbEntity
  8
虚线
 62
     7
370
    18
100
AcDbMText
 10
1326.85789807761
 20
55.26401190621061
 30
0.0
 40
15.38670662466903
 41
87.92561375995203
 71
     5
 72
     5
  1
{\fSimSun|b0|i0|c134|p54;批 准}
 73
     1
 44
1.0
  0
MTEXT
  5
28DD
330
2886
100
AcDbEntity
  8
0
370
    -3
100
AcDbMText
 10
1326.85789807761
 20
102.6199234134743
 30
0.0
 40
15.38670662466903
 41
87.92561375995218
 71
     5
 72
     5
  1
{\fSimSun|b0|i0|c134|p54;\C7;审 核}
 73
     1
 44
1.0
  0
MTEXT
  5
28DE
330
2886
100
AcDbEntity
  8
虚线
 62
     7
370
    18
100
AcDbMText
 10
1326.85789807761
 20
157.9268474024019
 30
0.0
 40
15.38670662466903
 41
87.92561375995248
 71
     5
 72
     5
  1
{\fSimSun|b0|i0|c134|p54;制 图}
 73
     1
 44
1.0
  0
MTEXT
  5
28DF
330
2886
100
AcDbEntity
  8
虚线
 62
     7
370
    18
100
AcDbMText
 10
1326.85789807761
 20
181.506807139443
 30
0.0
 40
14.88901916211415
 41
87.92561375995218
 71
     5
 72
     5
  1
{\fSimSun|b0|i0|c134|p2;DWN.}
 73
     1
 44
1.0
  0
MTEXT
  5
28E0
330
2886
100
AcDbEntity
  8
虚线
 62
     7
370
    18
100
AcDbMText
 10
1340.749254227242
 20
207.594412460681
 30
0.0
 40
14.88901916211415
 41
115.7083260592152
 71
     5
 72
     5
  1
{\fSimSun|b0|i0|c134|p54;\H0.7222x;更改   标记}
 73
     1
 44
1.0
  0
MTEXT
  5
28E1
330
2886
100
AcDbEntity
  8
虚线
 62
     7
370
    18
100
AcDbMText
 10
1340.749254227242
 20
228.8538725915036
 30
0.0
 40
11.91121532969132
 41
115.7083260592163
 71
     5
 72
     5
  1
{\fSimSun|b0|i0|c134|p2;\H0.9027x;UPDATE SYMBOL}
 73
     1
 44
1.0
  0
ENDBLK
  5
28E5
330
2886
100
AcDbEntity
  8
0
100
AcDbBlockEnd
  0
BLOCK
  5
2ABF
330
2AB5
100
AcDbEntity
  8
0
100
AcDbBlockBegin
  2
*D62
 70
     1
 10
0.0
 20
0.0
 30
0.0
  3
*D62
  1

  0
LINE
  5
2E9D
330
2AB5
100
AcDbEntity
  8
标注线
370
     9
100
AcDbLine
 10
5064.322879215893
 20
873.9959966016197
 30
0.0
 11
5064.322879215893
 21
688.7134173356297
 31
0.0
  0
LINE
  5
2E9E
330
2AB5
100
AcDbEntity
  8
标注线
370
     9
100
AcDbLine
 10
5612.2004408485
 20
873.9959966016197
 30
0.0
 11
5612.2004408485
 21
688.7134173356297
 31
0.0
  0
LINE
  5
2E9F
330
2AB5
100
AcDbEntity
  8
标注线
370
     9
100
AcDbLine
 10
5082.322879215893
 20
693.7134173356297
 30
0.0
 11
5594.200440848498
 21
693.7134173356297
 31
0.0
  0
SOLID
  5
2EA0
330
2AB5
100
AcDbEntity
  8
标注线
100
AcDbTrace
 10
5082.322879215893
 20
696.7134173356297
 30
0.0
 11
5082.322879215893
 21
690.7134173356297
 31
0.0
 12
5064.322879215893
 22
693.7134173356297
 32
0.0
 13
5064.322879215893
 23
693.7134173356297
 33
0.0
  0
SOLID
  5
2EA1
330
2AB5
100
AcDbEntity
  8
标注线
100
AcDbTrace
 10
5594.200440848498
 20
696.7134173356297
 30
0.0
 11
5594.200440848498
 21
690.7134173356297
 31
0.0
 12
5612.2004408485
 22
693.7134173356297
 32
0.0
 13
5612.2004408485
 23
693.7134173356297
 33
0.0
  0
MTEXT
  5
2EA2
330
2AB5
100
AcDbEntity
  8
标注线
 62
     0
100
AcDbMText
 10
5338.261660032197
 20
706.8864526636756
 30
0.0
 40
20.0
 41
0.0
 71
     5
 72
     1
  1
548
 73
     1
 44
1.0
  0
POINT
  5
2EA3
330
2AB5
100
AcDbEntity
  8
Defpoints
 62
     0
100
AcDbPoint
 10
5064.322879215893
 20
883.9959966016197
 30
0.0
  0
POINT
  5
2EA4
330
2AB5
100
AcDbEntity
  8
Defpoints
 62
     0
100
AcDbPoint
 10
5612.2004408485
 20
883.9959966016197
 30
0.0
  0
POINT
  5
2EA5
330
2AB5
100
AcDbEntity
  8
Defpoints
 62
     0
100
AcDbPoint
 10
5612.2004408485
 20
693.7134173356297
 30
0.0
  0
ENDBLK
  5
2AC0
330
2AB5
100
AcDbEntity
  8
0
100
AcDbBlockEnd
  0
BLOCK
  5
2C39
330
2C2F
100
AcDbEntity
  8
0
100
AcDbBlockBegin
  2
*D63
 70
     1
 10
0.0
 20
0.0
 30
0.0
  3
*D63
  1

  0
LINE
  5
2EA6
330
2C2F
100
AcDbEntity
  8
标注线
370
     9
100
AcDbLine
 10
5060.322879215892
 20
873.9959966016197
 30
0.0
 11
5060.322879215892
 21
635.7120162807222
 31
0.0
  0
LINE
  5
2EA7
330
2C2F
100
AcDbEntity
  8
标注线
370
     9
100
AcDbLine
 10
5616.2004408485
 20
873.9959966016197
 30
0.0
 11
5616.2004408485
 21
635.7120162807222
 31
0.0
  0
LINE
  5
2EA8
330
2C2F
100
AcDbEntity
  8
标注线
370
     9
100
AcDbLine
 10
5078.322879215892
 20
640.7120162807223
 30
0.0
 11
5598.200440848501
 21
640.7120162807223
 31
0.0
  0
SOLID
  5
2EA9
330
2C2F
100
AcDbEntity
  8
标注线
100
AcDbTrace
 10
5078.322879215892
 20
643.7120162807222
 30
0.0
 11
5078.322879215892
 21
637.7120162807223
 31
0.0
 12
5060.322879215892
 22
640.7120162807223
 32
0.0
 13
5060.322879215892
 23
640.7120162807223
 33
0.0
  0
SOLID
  5
2EAA
330
2C2F
100
AcDbEntity
  8
标注线
100
AcDbTrace
 10
5598.200440848501
 20
643.7120162807222
 30
0.0
 11
5598.200440848501
 21
637.7120162807223
 31
0.0
 12
5616.2004408485
 22
640.7120162807223
 32
0.0
 13
5616.2004408485
 23
640.7120162807223
 33
0.0
  0
MTEXT
  5
2EAB
330
2C2F
100
AcDbEntity
  8
标注线
 62
     0
100
AcDbMText
 10
5338.261660032197
 20
653.8850516087684
 30
0.0
 40
20.0
 41
0.0
 71
     5
 72
     1
  1
556
 73
     1
 44
1.0
  0
POINT
  5
2EAC
330
2C2F
100
AcDbEntity
  8
Defpoints
 62
     0
100
AcDbPoint
 10
5060.322879215892
 20
883.9959966016197
 30
0.0
  0
POINT
  5
2EAD
330
2C2F
100
AcDbEntity
  8
Defpoints
 62
     0
100
AcDbPoint
 10
5616.2004408485
 20
883.9959966016197
 30
0.0
  0
POINT
  5
2EAE
330
2C2F
100
AcDbEntity
  8
Defpoints
 62
     0
100
AcDbPoint
 10
5616.2004408485
 20
640.7120162807223
 30
0.0
  0
ENDBLK
  5
2C3A
330
2C2F
100
AcDbEntity
  8
0
100
AcDbBlockEnd
  0
BLOCK
  5
2C51
330
2C47
100
AcDbEntity
  8
0
100
AcDbBlockBegin
  2
*D64
 70
     1
 10
0.0
 20
0.0
 30
0.0
  3
*D64
  1

  0
LINE
  5
2EAF
330
2C47
100
AcDbEntity
  8
标注线
370
     9
100
AcDbLine
 10
5342.585781435229
 20
779.9959966016197
 30
0.0
 11
4893.599627185412
 21
779.9959966016197
 31
0.0
  0
LINE
  5
2EB0
330
2C47
100
AcDbEntity
  8
标注线
370
     9
100
AcDbLine
 10
5328.261660032197
 20
1268.069035113692
 30
0.0
 11
4893.599627185412
 21
1268.069035113692
 31
0.0
  0
LINE
  5
2EB1
330
2C47
100
AcDbEntity
  8
标注线
370
     9
100
AcDbLine
 10
4898.599627185411
 20
797.9959966016195
 30
0.0
 11
4898.599627185411
 21
1250.069035113692
 31
0.0
  0
SOLID
  5
2EB2
330
2C47
100
AcDbEntity
  8
标注线
100
AcDbTrace
 10
4895.599627185413
 20
797.9959966016195
 30
0.0
 11
4901.599627185412
 21
797.9959966016195
 31
0.0
 12
4898.599627185411
 22
779.9959966016197
 32
0.0
 13
4898.599627185411
 23
779.9959966016197
 33
0.0
  0
SOLID
  5
2EB3
330
2C47
100
AcDbEntity
  8
标注线
100
AcDbTrace
 10
4895.599627185413
 20
1250.069035113692
 30
0.0
 11
4901.599627185412
 21
1250.069035113692
 31
0.0
 12
4898.599627185411
 22
1268.069035113692
 32
0.0
 13
4898.599627185411
 23
1268.069035113692
 33
0.0
  0
MTEXT
  5
2EB4
330
2C47
100
AcDbEntity
  8
标注线
 62
     0
100
AcDbMText
 10
4885.426591857367
 20
1024.032515857656
 30
0.0
 40
20.0
 41
0.0
 71
     5
 72
     1
  1
488
 11
0.0000000000000001
 21
1.0
 31
0.0
 73
     1
 44
1.0
  0
POINT
  5
2EB5
330
2C47
100
AcDbEntity
  8
Defpoints
 62
     0
100
AcDbPoint
 10
5352.585781435228
 20
779.9959966016197
 30
0.0
  0
POINT
  5
2EB6
330
2C47
100
AcDbEntity
  8
Defpoints
 62
     0
100
AcDbPoint
 10
5338.261660032197
 20
1268.069035113692
 30
0.0
  0
POINT
  5
2EB7
330
2C47
100
AcDbEntity
  8
Defpoints
 62
     0
100
AcDbPoint
 10
4898.599627185411
 20
1268.069035113692
 30
0.0
  0
ENDBLK
  5
2C52
330
2C47
100
AcDbEntity
  8
0
100
AcDbBlockEnd
  0
BLOCK
  5
2C69
330
2C5F
100
AcDbEntity
  8
0
100
AcDbBlockBegin
  2
*D65
 70
     1
 10
0.0
 20
0.0
 30
0.0
  3
*D65
  1

  0
LINE
  5
2EB8
330
2C5F
100
AcDbEntity
  8
标注线
370
     9
100
AcDbLine
 10
5347.983887729998
 20
775.9959966016197
 30
0.0
 11
4824.496626855489
 21
775.9959966016197
 31
0.0
  0
LINE
  5
2EB9
330
2C5F
100
AcDbEntity
  8
标注线
370
     9
100
AcDbLine
 10
5328.261660032197
 20
1272.069035113692
 30
0.0
 11
4824.496626855489
 21
1272.069035113692
 31
0.0
  0
LINE
  5
2EBA
330
2C5F
100
AcDbEntity
  8
标注线
370
     9
100
AcDbLine
 10
4829.496626855489
 20
793.9959966016197
 30
0.0
 11
4829.496626855489
 21
1254.069035113692
 31
0.0
  0
SOLID
  5
2EBB
330
2C5F
100
AcDbEntity
  8
标注线
100
AcDbTrace
 10
4826.496626855489
 20
793.9959966016197
 30
0.0
 11
4832.496626855489
 21
793.9959966016197
 31
0.0
 12
4829.496626855489
 22
775.9959966016197
 32
0.0
 13
4829.496626855489
 23
775.9959966016197
 33
0.0
  0
SOLID
  5
2EBC
330
2C5F
100
AcDbEntity
  8
标注线
100
AcDbTrace
 10
4826.496626855489
 20
1254.069035113692
 30
0.0
 11
4832.496626855489
 21
1254.069035113692
 31
0.0
 12
4829.496626855489
 22
1272.069035113692
 32
0.0
 13
4829.496626855489
 23
1272.069035113692
 33
0.0
  0
MTEXT
  5
2EBD
330
2C5F
100
AcDbEntity
  8
标注线
 62
     0
100
AcDbMText
 10
4816.294752306102
 20
1024.032515857656
 30
0.0
 40
20.0
 41
0.0
 71
     5
 72
     1
  1
496
 11
0.0000000000000001
 21
1.0
 31
0.0
 73
     1
 44
1.0
  0
POINT
  5
2EBE
330
2C5F
100
AcDbEntity
  8
Defpoints
 62
     0
100
AcDbPoint
 10
5357.983887729999
 20
775.9959966016197
 30
0.0
  0
POINT
  5
2EBF
330
2C5F
100
AcDbEntity
  8
Defpoints
 62
     0
100
AcDbPoint
 10
5338.261660032197
 20
1272.069035113692
 30
0.0
  0
POINT
  5
2EC0
330
2C5F
100
AcDbEntity
  8
Defpoints
 62
     0
100
AcDbPoint
 10
4829.496626855489
 20
1272.069035113692
 30
0.0
  0
ENDBLK
  5
2C6A
330
2C5F
100
AcDbEntity
  8
0
100
AcDbBlockEnd
  0
BLOCK
  5
2C87
330
2C7A
100
AcDbEntity
  8
0
100
AcDbBlockBegin
  2
*D66
 70
     1
 10
0.0
 20
0.0
 30
0.0
  3
*D66
  1

  0
LINE
  5
2EC1
330
2C7A
100
AcDbEntity
  8
标注线
370
     9
100
AcDbLine
 10
5210.426114554056
 20
775.9959966016197
 30
0.0
 11
5215.426114554055
 21
775.9959966016197
 31
0.0
  0
LINE
  5
2EC2
330
2C7A
100
AcDbEntity
  8
标注线
370
     9
100
AcDbLine
 10
5210.426114554056
 20
779.9959966016197
 30
0.0
 11
5215.426114554055
 21
779.9959966016197
 31
0.0
  0
LINE
  5
2EC3
330
2C7A
100
AcDbEntity
  8
标注线
370
     9
100
AcDbLine
 10
5220.426114554054
 20
757.9959966016197
 30
0.0
 11
5220.426114554054
 21
739.9959966016197
 31
0.0
  0
LINE
  5
2EC4
330
2C7A
100
AcDbEntity
  8
标注线
370
     9
100
AcDbLine
 10
5220.426114554054
 20
797.9959966016195
 30
0.0
 11
5220.426114554054
 21
815.9959966016197
 31
0.0
  0
LINE
  5
2EC5
330
2C7A
100
AcDbEntity
  8
标注线
370
     9
100
AcDbLine
 10
5220.426114554054
 20
815.9959966016197
 30
0.0
 11
5236.706575981597
 21
815.9959966016197
 31
0.0
  0
LINE
  5
2EC6
330
2C7A
100
AcDbEntity
  8
标注线
370
     9
100
AcDbLine
 10
5220.426114554054
 20
775.9959966016197
 30
0.0
 11
5220.426114554054
 21
779.9959966016197
 31
0.0
  0
SOLID
  5
2EC7
330
2C7A
100
AcDbEntity
  8
标注线
100
AcDbTrace
 10
5217.426114554056
 20
757.9959966016197
 30
0.0
 11
5223.426114554055
 21
757.9959966016197
 31
0.0
 12
5220.426114554054
 22
775.9959966016197
 32
0.0
 13
5220.426114554054
 23
775.9959966016197
 33
0.0
  0
SOLID
  5
2EC8
330
2C7A
100
AcDbEntity
  8
标注线
100
AcDbTrace
 10
5217.426114554056
 20
797.9959966016195
 30
0.0
 11
5223.426114554055
 21
797.9959966016195
 31
0.0
 12
5220.426114554054
 22
779.9959966016197
 32
0.0
 13
5220.426114554054
 23
779.9959966016197
 33
0.0
  0
MTEXT
  5
2EC9
330
2C7A
100
AcDbEntity
  8
标注线
 62
     0
100
AcDbMText
 10
5230.066345267826
 20
828.9959966016205
 30
0.0
 40
20.0
 41
0.0
 71
     5
 72
     1
  1
4
 73
     1
 44
1.0
  0
POINT
  5
2ECA
330
2C7A
100
AcDbEntity
  8
Defpoints
 62
     0
100
AcDbPoint
 10
5220.426114554054
 20
775.9959966016197
 30
0.0
  0
POINT
  5
2ECB
330
2C7A
100
AcDbEntity
  8
Defpoints
 62
     0
100
AcDbPoint
 10
5220.426114554054
 20
779.9959966016197
 30
0.0
  0
POINT
  5
2ECC
330
2C7A
100
AcDbEntity
  8
Defpoints
 62
     0
100
AcDbPoint
 10
5220.426114554054
 20
779.9959966016197
 30
0.0
  0
ENDBLK
  5
2C88
330
2C7A
100
AcDbEntity
  8
0
100
AcDbBlockEnd
  0
BLOCK
  5
2CA4
330
2C98
100
AcDbEntity
  8
0
100
AcDbBlockBegin
  2
*D67
 70
     1
 10
0.0
 20
0.0
 30
0.0
  3
*D67
  1

  0
LINE
  5
2ECD
330
2C98
100
AcDbEntity
  8
标注线
370
     9
100
AcDbLine
 10
5063.322688073913
 20
961.6025078268672
 30
0.0
 11
5063.322688073913
 21
919.4510832649193
 31
0.0
  0
LINE
  5
2ECE
330
2C98
100
AcDbEntity
  8
标注线
370
     9
100
AcDbLine
 10
5067.320240804763
 20
961.4626072762213
 30
0.0
 11
5067.320240804763
 21
919.4510832649193
 31
0.0
  0
LINE
  5
2ECF
330
2C98
100
AcDbEntity
  8
标注线
370
     9
100
AcDbLine
 10
5045.322688073913
 20
924.4510832649195
 30
0.0
 11
5027.322688073913
 21
924.4510832649195
 31
0.0
  0
LINE
  5
2ED0
330
2C98
100
AcDbEntity
  8
标注线
370
     9
100
AcDbLine
 10
5085.320240804763
 20
924.4510832649195
 30
0.0
 11
5122.600702232304
 21
924.4510832649195
 31
0.0
  0
LINE
  5
2ED1
330
2C98
100
AcDbEntity
  8
标注线
370
     9
100
AcDbLine
 10
5063.322688073913
 20
924.4510832649195
 30
0.0
 11
5067.320240804763
 21
924.4510832649195
 31
0.0
  0
SOLID
  5
2ED2
330
2C98
100
AcDbEntity
  8
标注线
100
AcDbTrace
 10
5045.322688073913
 20
927.4510832649193
 30
0.0
 11
5045.322688073913
 21
921.4510832649194
 31
0.0
 12
5063.322688073913
 22
924.4510832649195
 32
0.0
 13
5063.322688073913
 23
924.4510832649195
 33
0.0
  0
SOLID
  5
2ED3
330
2C98
100
AcDbEntity
  8
标注线
100
AcDbTrace
 10
5085.320240804763
 20
927.4510832649193
 30
0.0
 11
5085.320240804763
 21
921.4510832649194
 31
0.0
 12
5067.320240804763
 22
924.4510832649195
 32
0.0
 13
5067.320240804763
 23
924.4510832649195
 33
0.0
  0
MTEXT
  5
2ED4
330
2C98
100
AcDbEntity
  8
标注线
 62
     0
100
AcDbMText
 10
5112.960471518532
 20
937.4510832649193
 30
0.0
 40
20.0
 41
0.0
 71
     5
 72
     1
  1
4
 73
     1
 44
1.0
  0
POINT
  5
2ED5
330
2C98
100
AcDbEntity
  8
Defpoints
 62
     0
100
AcDbPoint
 10
5063.322688073913
 20
971.6025078268671
 30
0.0
  0
POINT
  5
2ED6
330
2C98
100
AcDbEntity
  8
Defpoints
 62
     0
100
AcDbPoint
 10
5067.320240804763
 20
971.4626072762213
 30
0.0
  0
POINT
  5
2ED7
330
2C98
100
AcDbEntity
  8
Defpoints
 62
     0
100
AcDbPoint
 10
5067.320240804763
 20
924.4510832649195
 30
0.0
  0
ENDBLK
  5
2CA5
330
2C98
100
AcDbEntity
  8
0
100
AcDbBlockEnd
  0
BLOCK
  5
2CBC
330
2CB6
100
AcDbEntity
  8
0
100
AcDbBlockBegin
  2
*D68
 70
     1
 10
0.0
 20
0.0
 30
0.0
  3
*D68
  1

  0
LINE
  5
2F16
330
2CB6
100
AcDbEntity
  8
标注线
370
     9
100
AcDbLine
 10
5168.655021865541
 20
884.3225046610269
 30
0.0
 11
5106.993715847471
 21
823.7072437489462
 31
0.0
  0
MTEXT
  5
2F17
330
2CB6
100
AcDbEntity
  8
标注线
 62
     0
100
AcDbMText
 10
5135.007817683294
 20
869.718246430169
 30
0.0
 40
20.0
 41
0.0
 71
     5
 72
     1
  1
R104
 11
0.7131298066094974
 21
0.7010320099147407
 31
0.0
 73
     1
 44
1.0
  0
SOLID
  5
2F18
330
2CB6
100
AcDbEntity
  8
标注线
100
AcDbTrace
 10
5104.890619817727
 20
825.8466331687751
 30
0.0
 11
5109.096811877215
 21
821.5678543291177
 31
0.0
 12
5094.1573793285
 22
811.088667570481
 32
0.0
 13
5094.1573793285
 23
811.088667570481
 33
0.0
  0
POINT
  5
2F19
330
2CB6
100
AcDbEntity
  8
Defpoints
 62
     0
100
AcDbPoint
 10
5094.1573793285
 20
811.088667570481
 30
0.0
  0
POINT
  5
2F1A
330
2CB6
100
AcDbEntity
  8
Defpoints
 62
     0
100
AcDbPoint
 10
5168.322879215891
 20
883.9959966016197
 30
0.0
  0
ENDBLK
  5
2CBD
330
2CB6
100
AcDbEntity
  8
0
100
AcDbBlockEnd
  0
BLOCK
  5
2CCC
330
2CC6
100
AcDbEntity
  8
0
100
AcDbBlockBegin
  2
*D69
 70
     1
 10
0.0
 20
0.0
 30
0.0
  3
*D69
  1

  0
LINE
  5
2F20
330
2CC6
100
AcDbEntity
  8
标注线
370
     9
100
AcDbLine
 10
5186.350762156859
 20
1112.503609505699
 30
0.0
 11
5111.761088197042
 21
1156.238115949267
 31
0.0
  0
MTEXT
  5
2F21
330
2CC6
100
AcDbEntity
  8
标注线
 62
     0
100
AcDbMText
 10
5163.482715144855
 20
1141.182367038275
 30
0.0
 40
20.0
 41
0.0
 71
     5
 72
     1
  1
R184
 11
0.8626499047950584
 21
-0.5058014845342754
 31
0.0
 73
     1
 44
1.0
  0
SOLID
  5
2F22
330
2CC6
100
AcDbEntity
  8
标注线
100
AcDbTrace
 10
5113.278492650646
 20
1158.826065663652
 30
0.0
 11
5110.24368374344
 21
1153.650166234881
 31
0.0
 12
5096.233389910731
 22
1165.342542670884
 32
0.0
 13
5096.233389910731
 23
1165.342542670884
 33
0.0
  0
POINT
  5
2F23
330
2CC6
100
AcDbEntity
  8
Defpoints
 62
     0
100
AcDbPoint
 10
5096.233389910731
 20
1165.342542670884
 30
0.0
  0
POINT
  5
2F24
330
2CC6
100
AcDbEntity
  8
Defpoints
 62
     0
100
AcDbPoint
 10
5254.960972393019
 20
1072.275069516579
 30
0.0
  0
ENDBLK
  5
2CCD
330
2CC6
100
AcDbEntity
  8
0
100
AcDbBlockEnd
  0
BLOCK
  5
2CDC
330
2CD6
100
AcDbEntity
  8
0
100
AcDbBlockBegin
  2
*D70
 70
     1
 10
0.0
 20
0.0
 30
0.0
  3
*D70
  1

  0
LINE
  5
2F1B
330
2CD6
100
AcDbEntity
  8
标注线
370
     9
100
AcDbLine
 10
5326.782065565436
 20
1163.4296664338
 30
0.0
 11
5324.167279644377
 21
1249.855874321691
 31
0.0
  0
MTEXT
  5
2F1C
330
2CD6
100
AcDbEntity
  8
标注线
 62
     0
100
AcDbMText
 10
5338.913849585861
 20
1198.045248535466
 30
0.0
 40
20.0
 41
0.0
 71
     5
 72
     1
  1
R484
 11
0.0302407116979303
 21
-0.9995426450912452
 31
0.0
 73
     1
 44
1.0
  0
SOLID
  5
2F1D
330
2CD6
100
AcDbEntity
  8
标注线
100
AcDbTrace
 10
5327.165907579651
 20
1249.946596456785
 30
0.0
 11
5321.168651709102
 21
1249.765152186597
 31
0.0
 12
5323.622946833815
 22
1267.847641933333
 32
0.0
 13
5323.622946833815
 23
1267.847641933333
 33
0.0
  0
POINT
  5
2F1E
330
2CD6
100
AcDbEntity
  8
Defpoints
 62
     0
100
AcDbPoint
 10
5323.622946833815
 20
1267.847641933333
 30
0.0
  0
POINT
  5
2F1F
330
2CD6
100
AcDbEntity
  8
Defpoints
 62
     0
100
AcDbPoint
 10
5338.261660032198
 20
783.9959966016197
 30
0.0
  0
ENDBLK
  5
2CDD
330
2CD6
100
AcDbEntity
  8
0
100
AcDbBlockEnd
  0
BLOCK
  5
2CF0
330
2CE6
100
AcDbEntity
  8
0
100
AcDbBlockBegin
  2
*D71
 70
     1
 10
0.0
 20
0.0
 30
0.0
  3
*D71
  1

  0
ARC
  5
2EE7
330
2CE6
100
AcDbEntity
  8
标注线
370
     9
100
AcDbCircle
 10
5060.619570152705
 20
779.9959966016196
 30
0.0
 40
211.6590955674599
100
AcDbArc
 50
4.874040791926167
 51
83.1216226529237
  0
SOLID
  5
2EE8
330
2CE6
100
AcDbEntity
  8
标注线
100
AcDbTrace
 10
5274.510570706098
 20
798.1072803809042
 30
0.0
 11
5268.515997318981
 21
797.8521531450293
 31
0.0
 12
5272.278665720165
 22
779.9959966016197
 32
0.0
 13
5272.278665720165
 23
779.9959966016197
 33
0.0
  0
SOLID
  5
2EE9
330
2CE6
100
AcDbEntity
  8
标注线
100
AcDbTrace
 10
5085.73600815032
 20
987.1407076065532
 30
0.0
 11
5086.200640324378
 21
993.1226902998441
 31
0.0
 12
5068.022376157476
 22
991.5255954753726
 32
0.0
 13
5068.022376157476
 23
991.5255954753726
 33
0.0
  0
MTEXT
  5
2EEA
330
2CE6
100
AcDbEntity
  8
标注线
 62
     0
100
AcDbMText
 10
5222.356180653325
 20
936.171397695341
 30
0.0
 40
20.0
 41
0.0
 71
     5
 72
     1
  1
88\U+00b0
 11
0.6946311475662979
 21
-0.7193660881850966
 31
0.0
 73
     1
 44
1.0
  0
POINT
  5
2EEB
330
2CE6
100
AcDbEntity
  8
Defpoints
 62
     0
100
AcDbPoint
 10
5245.143286617858
 20
883.6809559656629
 30
0.0
  0
POINT
  5
2EEC
330
2CE6
100
AcDbEntity
  8
Defpoints
 62
     0
100
AcDbPoint
 10
5168.322879215891
 20
779.9959966016197
 30
0.0
  0
POINT
  5
2EED
330
2CE6
100
AcDbEntity
  8
Defpoints
 62
     0
100
AcDbPoint
 10
5064.386508213784
 20
887.6334109184117
 30
0.0
  0
POINT
  5
2EEE
330
2CE6
100
AcDbEntity
  8
Defpoints
 62
     0
100
AcDbPoint
 10
5071.073546773904
 20
1078.710494846286
 30
0.0
  0
POINT
  5
2EEF
330
2CE6
100
AcDbEntity
  8
Defpoints
 62
     0
100
AcDbPoint
 10
5508.200440848501
 20
779.9959966016197
 30
0.0
  0
ENDBLK
  5
2CF1
330
2CE6
100
AcDbEntity
  8
0
100
AcDbBlockEnd
  0
BLOCK
  5
2D1A
330
2D14
100
AcDbEntity
  8
0
100
AcDbBlockBegin
  2
*D72
 70
     1
 10
0.0
 20
0.0
 30
0.0
  3
*D72
  1

  0
LINE
  5
2F0C
330
2D14
100
AcDbEntity
  8
标注线
370
     9
100
AcDbLine
 10
5507.836254897551
 20
884.2863323481447
 30
0.0
 11
5575.446305556346
 21
830.3863549343367
 31
0.0
  0
MTEXT
  5
2F0D
330
2D14
100
AcDbEntity
  8
标注线
 62
     0
100
AcDbMText
 10
5542.815570008767
 20
873.2470288327181
 30
0.0
 40
20.0
 41
0.0
 71
     5
 72
     1
  1
R104
 11
0.7819286593935395
 21
-0.6233679263637344
 31
0.0
 73
     1
 44
1.0
  0
SOLID
  5
2F0E
330
2D14
100
AcDbEntity
  8
标注线
100
AcDbTrace
 10
5577.31640933544
 20
832.7321409125168
 30
0.0
 11
5573.576201777256
 21
828.0405689561561
 31
0.0
 12
5589.521021425431
 22
819.1657322597897
 32
0.0
 13
5589.521021425431
 23
819.1657322597897
 33
0.0
  0
POINT
  5
2F0F
330
2D14
100
AcDbEntity
  8
Defpoints
 62
     0
100
AcDbPoint
 10
5589.521021425431
 20
819.1657322597897
 30
0.0
  0
POINT
  5
2F10
330
2D14
100
AcDbEntity
  8
Defpoints
 62
     0
100
AcDbPoint
 10
5508.200440848501
 20
883.9959966016195
 30
0.0
  0
ENDBLK
  5
2D1B
330
2D14
100
AcDbEntity
  8
0
100
AcDbBlockEnd
  0
BLOCK
  5
2D2A
330
2D24
100
AcDbEntity
  8
0
100
AcDbBlockBegin
  2
*D73
 70
     1
 10
0.0
 20
0.0
 30
0.0
  3
*D73
  1

  0
LINE
  5
2D2D
330
2D24
100
AcDbEntity
  8
标注线
370
     9
100
AcDbLine
 10
5367.885912632971
 20
1200.058260353237
 30
0.0
 11
5429.200029334137
 21
1260.059639338114
 31
0.0
  0
MTEXT
  5
2D2E
330
2D24
100
AcDbEntity
  8
标注线
 62
     0
100
AcDbMText
 10
5382.897113298636
 20
1233.179205773826
 30
0.0
 40
20.0
 41
0.0
 71
     5
 72
     1
  1
R188
 11
0.7147164408555287
 21
0.6994143329749583
 31
0.0
 73
     1
 44
1.0
  0
SOLID
  5
2D2F
330
2D24
100
AcDbEntity
  8
标注线
100
AcDbTrace
 10
5427.101786335212
 20
1262.20378866068
 30
0.0
 11
5431.29827233306
 21
1257.915490015547
 31
0.0
 12
5442.064925269537
 22
1272.649097331663
 32
0.0
 13
5442.064925269537
 23
1272.649097331663
 33
0.0
  0
POINT
  5
2D30
330
2D24
100
AcDbEntity
  8
Defpoints
 62
     0
100
AcDbPoint
 10
5442.064925269537
 20
1272.649097331663
 30
0.0
  0
POINT
  5
2D31
330
2D24
100
AcDbEntity
  8
Defpoints
 62
     0
100
AcDbPoint
 10
5307.698234388698
 20
1141.159202732372
 30
0.0
  0
ENDBLK
  5
2D2B
330
2D24
100
AcDbEntity
  8
0
100
AcDbBlockEnd
  0
BLOCK
  5
2D3A
330
2D34
100
AcDbEntity
  8
0
100
AcDbBlockBegin
  2
*D74
 70
     1
 10
0.0
 20
0.0
 30
0.0
  3
*D74
  1

  0
LINE
  5
2F11
330
2D34
100
AcDbEntity
  8
标注线
370
     9
100
AcDbLine
 10
5463.464919470762
 20
1126.030292064448
 30
0.0
 11
5523.617490886119
 21
1203.197748008195
 31
0.0
  0
MTEXT
  5
2F12
330
2D34
100
AcDbEntity
  8
标注线
 62
     0
100
AcDbMText
 10
5474.121498184718
 20
1161.12809880317
 30
0.0
 40
20.0
 41
0.0
 71
     5
 72
     1
  1
R184
 11
0.614790019365918
 21
0.7886908342868291
 31
0.0
 73
     1
 44
1.0
  0
SOLID
  5
2F13
330
2D34
100
AcDbEntity
  8
标注线
100
AcDbTrace
 10
5521.251418383258
 20
1205.042118066293
 30
0.0
 11
5525.983563388978
 21
1201.353377950098
 31
0.0
 12
5534.683711234705
 22
1217.394183025358
 32
0.0
 13
5534.683711234705
 23
1217.394183025358
 33
0.0
  0
POINT
  5
2F14
330
2D34
100
AcDbEntity
  8
Defpoints
 62
     0
100
AcDbPoint
 10
5534.683711234705
 20
1217.394183025358
 30
0.0
  0
POINT
  5
2F15
330
2D34
100
AcDbEntity
  8
Defpoints
 62
     0
100
AcDbPoint
 10
5421.562347671374
 20
1072.275069516579
 30
0.0
  0
ENDBLK
  5
2D3B
330
2D34
100
AcDbEntity
  8
0
100
AcDbBlockEnd
  0
BLOCK
  5
2E73
330
2E69
100
AcDbEntity
  8
0
100
AcDbBlockBegin
  2
*D75
 70
     1
 10
0.0
 20
0.0
 30
0.0
  3
*D75
  1

  0
LINE
  5
2EFA
330
2E69
100
AcDbEntity
  8
标注线
370
     9
100
AcDbLine
 10
5158.322879215893
 20
779.9959966016197
 30
0.0
 11
5004.01561181907
 21
779.9959966016197
 31
0.0
  0
LINE
  5
2EFB
330
2E69
100
AcDbEntity
  8
标注线
370
     9
100
AcDbLine
 10
5050.388955482934
 20
887.7733114690572
 30
0.0
 11
5004.01561181907
 21
887.7733114690572
 31
0.0
  0
LINE
  5
2EFC
330
2E69
100
AcDbEntity
  8
标注线
370
     9
100
AcDbLine
 10
5009.015611819073
 20
797.9959966016195
 30
0.0
 11
5009.015611819073
 21
869.7733114690572
 31
0.0
  0
SOLID
  5
2EFD
330
2E69
100
AcDbEntity
  8
标注线
100
AcDbTrace
 10
5006.015611819073
 20
797.9959966016195
 30
0.0
 11
5012.015611819073
 21
797.9959966016195
 31
0.0
 12
5009.015611819073
 22
779.9959966016197
 32
0.0
 13
5009.015611819073
 23
779.9959966016197
 33
0.0
  0
SOLID
  5
2EFE
330
2E69
100
AcDbEntity
  8
标注线
100
AcDbTrace
 10
5006.015611819073
 20
869.7733114690572
 30
0.0
 11
5012.015611819073
 21
869.7733114690572
 31
0.0
 12
5009.015611819073
 22
887.7733114690572
 32
0.0
 13
5009.015611819073
 23
887.7733114690572
 33
0.0
  0
MTEXT
  5
2EFF
330
2E69
100
AcDbEntity
  8
标注线
 62
     0
100
AcDbMText
 10
4995.842576491025
 20
833.8846540353392
 30
0.0
 40
20.0
 41
0.0
 71
     5
 72
     1
  1
108
 11
0.0000000000000001
 21
1.0
 31
0.0
 73
     1
 44
1.0
  0
POINT
  5
2F00
330
2E69
100
AcDbEntity
  8
Defpoints
 62
     0
100
AcDbPoint
 10
5168.322879215891
 20
779.9959966016197
 30
0.0
  0
POINT
  5
2F01
330
2E69
100
AcDbEntity
  8
Defpoints
 62
     0
100
AcDbPoint
 10
5060.388955482934
 20
887.7733114690572
 30
0.0
  0
POINT
  5
2F02
330
2E69
100
AcDbEntity
  8
Defpoints
 62
     0
100
AcDbPoint
 10
5009.015611819073
 20
887.7733114690572
 30
0.0
  0
ENDBLK
  5
2E74
330
2E69
100
AcDbEntity
  8
0
100
AcDbBlockEnd
  0
BLOCK
  5
2E8B
330
2E81
100
AcDbEntity
  8
0
100
AcDbBlockBegin
  2
*D76
 70
     1
 10
0.0
 20
0.0
 30
0.0
  3
*D76
  1

  0
LINE
  5
2F03
330
2E81
100
AcDbEntity
  8
标注线
370
     9
100
AcDbLine
 10
4999.015611819071
 20
779.9959966016197
 30
0.0
 11
4945.382466610452
 21
779.9959966016197
 31
0.0
  0
LINE
  5
2F04
330
2E81
100
AcDbEntity
  8
标注线
370
     9
100
AcDbLine
 10
5057.075994043053
 20
1078.850395396932
 30
0.0
 11
4945.382466610452
 21
1078.850395396932
 31
0.0
  0
LINE
  5
2F05
330
2E81
100
AcDbEntity
  8
标注线
370
     9
100
AcDbLine
 10
4950.382466610452
 20
797.9959966016195
 30
0.0
 11
4950.382466610452
 21
1060.850395396932
 31
0.0
  0
SOLID
  5
2F06
330
2E81
100
AcDbEntity
  8
标注线
100
AcDbTrace
 10
4947.382466610452
 20
797.9959966016195
 30
0.0
 11
4953.382466610452
 21
797.9959966016195
 31
0.0
 12
4950.382466610452
 22
779.9959966016197
 32
0.0
 13
4950.382466610452
 23
779.9959966016197
 33
0.0
  0
SOLID
  5
2F07
330
2E81
100
AcDbEntity
  8
标注线
100
AcDbTrace
 10
4947.382466610452
 20
1060.850395396932
 30
0.0
 11
4953.382466610452
 21
1060.850395396932
 31
0.0
 12
4950.382466610452
 22
1078.850395396932
 32
0.0
 13
4950.382466610452
 23
1078.850395396932
 33
0.0
  0
MTEXT
  5
2F08
330
2E81
100
AcDbEntity
  8
标注线
 62
     0
100
AcDbMText
 10
4937.180592061065
 20
929.4231959992767
 30
0.0
 40
20.0
 41
0.0
 71
     5
 72
     1
  1
299
 11
0.0000000000000001
 21
1.0
 31
0.0
 73
     1
 44
1.0
  0
POINT
  5
2F09
330
2E81
100
AcDbEntity
  8
Defpoints
 62
     0
100
AcDbPoint
 10
5009.015611819073
 20
779.9959966016197
 30
0.0
  0
POINT
  5
2F0A
330
2E81
100
AcDbEntity
  8
Defpoints
 62
     0
100
AcDbPoint
 10
5067.075994043054
 20
1078.850395396932
 30
0.0
  0
POINT
  5
2F0B
330
2E81
100
AcDbEntity
  8
Defpoints
 62
     0
100
AcDbPoint
 10
4950.382466610452
 20
1078.850395396932
 30
0.0
  0
ENDBLK
  5
2E8C
330
2E81
100
AcDbEntity
  8
0
100
AcDbBlockEnd
  0
BLOCK
  5
2FC6
330
2FBC
100
AcDbEntity
  8
0
100
AcDbBlockBegin
  2
*D77
 70
     1
 10
0.0
 20
0.0
 30
0.0
  3
*D77
  1

  0
LINE
  5
2FBD
330
2FBC
100
AcDbEntity
  8
标注线
370
     9
100
AcDbLine
 10
6908.394779372724
 20
873.9959966016197
 30
0.0
 11
6908.394779372724
 21
635.7120162807222
 31
0.0
  0
LINE
  5
2FBE
330
2FBC
100
AcDbEntity
  8
标注线
370
     9
100
AcDbLine
 10
7464.272341005332
 20
873.9959966016197
 30
0.0
 11
7464.272341005332
 21
635.7120162807222
 31
0.0
  0
LINE
  5
2FBF
330
2FBC
100
AcDbEntity
  8
标注线
370
     9
100
AcDbLine
 10
6926.394779372725
 20
640.7120162807223
 30
0.0
 11
7446.272341005332
 21
640.7120162807223
 31
0.0
  0
SOLID
  5
2FC0
330
2FBC
100
AcDbEntity
  8
标注线
100
AcDbTrace
 10
6926.394779372725
 20
643.7120162807222
 30
0.0
 11
6926.394779372725
 21
637.7120162807223
 31
0.0
 12
6908.394779372724
 22
640.7120162807223
 32
0.0
 13
6908.394779372724
 23
640.7120162807223
 33
0.0
  0
SOLID
  5
2FC1
330
2FBC
100
AcDbEntity
  8
标注线
100
AcDbTrace
 10
7446.272341005332
 20
643.7120162807222
 30
0.0
 11
7446.272341005332
 21
637.7120162807223
 31
0.0
 12
7464.272341005332
 22
640.7120162807223
 32
0.0
 13
7464.272341005332
 23
640.7120162807223
 33
0.0
  0
MTEXT
  5
2FC2
330
2FBC
100
AcDbEntity
  8
标注线
 62
     0
100
AcDbMText
 10
7186.333560189028
 20
653.8850516087684
 30
0.0
 40
20.0
 41
0.0
 71
     5
 72
     1
  1
556
 73
     1
 44
1.0
  0
POINT
  5
2FC3
330
2FBC
100
AcDbEntity
  8
Defpoints
 62
     0
100
AcDbPoint
 10
6908.394779372724
 20
883.9959966016197
 30
0.0
  0
POINT
  5
2FC4
330
2FBC
100
AcDbEntity
  8
Defpoints
 62
     0
100
AcDbPoint
 10
7464.272341005332
 20
883.9959966016197
 30
0.0
  0
POINT
  5
2FC5
330
2FBC
100
AcDbEntity
  8
Defpoints
 62
     0
100
AcDbPoint
 10
7464.272341005332
 20
640.7120162807223
 30
0.0
  0
ENDBLK
  5
2FC7
330
2FBC
100
AcDbEntity
  8
0
100
AcDbBlockEnd
  0
BLOCK
  5
2FD2
330
2FC8
100
AcDbEntity
  8
0
100
AcDbBlockBegin
  2
*D78
 70
     1
 10
0.0
 20
0.0
 30
0.0
  3
*D78
  1

  0
LINE
  5
3475
330
2FC8
100
AcDbEntity
  8
标注线
 62
     7
370
     9
100
AcDbLine
 10
7190.657681592061
 20
779.9959966016197
 30
0.0
 11
6741.671527342242
 21
779.9959966016197
 31
0.0
  0
LINE
  5
3476
330
2FC8
100
AcDbEntity
  8
标注线
 62
     7
370
     9
100
AcDbLine
 10
7176.333560189029
 20
1268.069035113692
 30
0.0
 11
6741.671527342242
 21
1268.069035113692
 31
0.0
  0
LINE
  5
3477
330
2FC8
100
AcDbEntity
  8
标注线
 62
     7
370
     9
100
AcDbLine
 10
6746.671527342242
 20
797.9959966016196
 30
0.0
 11
6746.671527342242
 21
1250.069035113692
 31
0.0
  0
SOLID
  5
3478
330
2FC8
100
AcDbEntity
  8
标注线
 62
     7
100
AcDbTrace
 10
6743.671527342242
 20
797.9959966016196
 30
0.0
 11
6749.671527342242
 21
797.9959966016196
 31
0.0
 12
6746.671527342242
 22
779.9959966016197
 32
0.0
 13
6746.671527342242
 23
779.9959966016197
 33
0.0
  0
SOLID
  5
3479
330
2FC8
100
AcDbEntity
  8
标注线
 62
     7
100
AcDbTrace
 10
6743.671527342242
 20
1250.069035113692
 30
0.0
 11
6749.671527342242
 21
1250.069035113692
 31
0.0
 12
6746.671527342242
 22
1268.069035113692
 32
0.0
 13
6746.671527342242
 23
1268.069035113692
 33
0.0
  0
MTEXT
  5
347A
330
2FC8
100
AcDbEntity
  8
标注线
 62
     7
100
AcDbMText
 10
6733.498492014195
 20
1024.032515857656
 30
0.0
 40
20.0
 41
0.0
 71
     5
 72
     1
  1
488
 11
0.0000000000000001
 21
1.0
 31
0.0
 73
     1
 44
1.0
  0
POINT
  5
347B
330
2FC8
100
AcDbEntity
  8
Defpoints
 62
     0
100
AcDbPoint
 10
7200.657681592061
 20
779.9959966016197
 30
0.0
  0
POINT
  5
347C
330
2FC8
100
AcDbEntity
  8
Defpoints
 62
     0
100
AcDbPoint
 10
7186.33356018903
 20
1268.069035113692
 30
0.0
  0
POINT
  5
347D
330
2FC8
100
AcDbEntity
  8
Defpoints
 62
     0
100
AcDbPoint
 10
6746.671527342242
 20
1268.069035113692
 30
0.0
  0
ENDBLK
  5
2FD3
330
2FC8
100
AcDbEntity
  8
0
100
AcDbBlockEnd
  0
BLOCK
  5
2FDE
330
2FD4
100
AcDbEntity
  8
0
100
AcDbBlockBegin
  2
*D79
 70
     1
 10
0.0
 20
0.0
 30
0.0
  3
*D79
  1

  0
LINE
  5
2FD5
330
2FD4
100
AcDbEntity
  8
标注线
370
     9
100
AcDbLine
 10
7196.055787886831
 20
775.9959966016197
 30
0.0
 11
6672.56852701232
 21
775.9959966016197
 31
0.0
  0
LINE
  5
2FD6
330
2FD4
100
AcDbEntity
  8
标注线
370
     9
100
AcDbLine
 10
7176.333560189029
 20
1272.069035113692
 30
0.0
 11
6672.56852701232
 21
1272.069035113692
 31
0.0
  0
LINE
  5
2FD7
330
2FD4
100
AcDbEntity
  8
标注线
370
     9
100
AcDbLine
 10
6677.568527012322
 20
793.9959966016197
 30
0.0
 11
6677.568527012322
 21
1254.069035113692
 31
0.0
  0
SOLID
  5
2FD8
330
2FD4
100
AcDbEntity
  8
标注线
100
AcDbTrace
 10
6674.568527012322
 20
793.9959966016197
 30
0.0
 11
6680.568527012322
 21
793.9959966016197
 31
0.0
 12
6677.568527012322
 22
775.9959966016197
 32
0.0
 13
6677.568527012322
 23
775.9959966016197
 33
0.0
  0
SOLID
  5
2FD9
330
2FD4
100
AcDbEntity
  8
标注线
100
AcDbTrace
 10
6674.568527012322
 20
1254.069035113692
 30
0.0
 11
6680.568527012322
 21
1254.069035113692
 31
0.0
 12
6677.568527012322
 22
1272.069035113692
 32
0.0
 13
6677.568527012322
 23
1272.069035113692
 33
0.0
  0
MTEXT
  5
2FDA
330
2FD4
100
AcDbEntity
  8
标注线
 62
     0
100
AcDbMText
 10
6664.366652462934
 20
1024.032515857656
 30
0.0
 40
20.0
 41
0.0
 71
     5
 72
     1
  1
496
 11
0.0000000000000001
 21
1.0
 31
0.0
 73
     1
 44
1.0
  0
POINT
  5
2FDB
330
2FD4
100
AcDbEntity
  8
Defpoints
 62
     0
100
AcDbPoint
 10
7206.055787886831
 20
775.9959966016197
 30
0.0
  0
POINT
  5
2FDC
330
2FD4
100
AcDbEntity
  8
Defpoints
 62
     0
100
AcDbPoint
 10
7186.33356018903
 20
1272.069035113692
 30
0.0
  0
POINT
  5
2FDD
330
2FD4
100
AcDbEntity
  8
Defpoints
 62
     0
100
AcDbPoint
 10
6677.568527012322
 20
1272.069035113692
 30
0.0
  0
ENDBLK
  5
2FDF
330
2FD4
100
AcDbEntity
  8
0
100
AcDbBlockEnd
  0
BLOCK
  5
2FED
330
2FE0
100
AcDbEntity
  8
0
100
AcDbBlockBegin
  2
*D80
 70
     1
 10
0.0
 20
0.0
 30
0.0
  3
*D80
  1

  0
LINE
  5
3055
330
2FE0
100
AcDbEntity
  8
标注线
370
     9
100
AcDbLine
 10
7058.498014710886
 20
775.9959966016197
 30
0.0
 11
7063.498014710886
 21
775.9959966016197
 31
0.0
  0
LINE
  5
3056
330
2FE0
100
AcDbEntity
  8
标注线
370
     9
100
AcDbLine
 10
7058.498014710886
 20
779.9959966016197
 30
0.0
 11
7063.498014710886
 21
779.9959966016197
 31
0.0
  0
LINE
  5
3057
330
2FE0
100
AcDbEntity
  8
标注线
370
     9
100
AcDbLine
 10
7068.498014710886
 20
757.9959966016197
 30
0.0
 11
7068.498014710886
 21
739.9959966016197
 31
0.0
  0
LINE
  5
3058
330
2FE0
100
AcDbEntity
  8
标注线
370
     9
100
AcDbLine
 10
7068.498014710886
 20
797.9959966016195
 30
0.0
 11
7068.498014710886
 21
815.9959966016197
 31
0.0
  0
LINE
  5
3059
330
2FE0
100
AcDbEntity
  8
标注线
370
     9
100
AcDbLine
 10
7068.498014710886
 20
815.9959966016197
 30
0.0
 11
7084.778476138428
 21
815.9959966016197
 31
0.0
  0
LINE
  5
305A
330
2FE0
100
AcDbEntity
  8
标注线
370
     9
100
AcDbLine
 10
7068.498014710886
 20
775.9959966016197
 30
0.0
 11
7068.498014710886
 21
779.9959966016197
 31
0.0
  0
SOLID
  5
305B
330
2FE0
100
AcDbEntity
  8
标注线
100
AcDbTrace
 10
7065.498014710886
 20
757.9959966016197
 30
0.0
 11
7071.498014710886
 21
757.9959966016197
 31
0.0
 12
7068.498014710886
 22
775.9959966016197
 32
0.0
 13
7068.498014710886
 23
775.9959966016197
 33
0.0
  0
SOLID
  5
305C
330
2FE0
100
AcDbEntity
  8
标注线
100
AcDbTrace
 10
7065.498014710886
 20
797.9959966016195
 30
0.0
 11
7071.498014710886
 21
797.9959966016195
 31
0.0
 12
7068.498014710886
 22
779.9959966016197
 32
0.0
 13
7068.498014710886
 23
779.9959966016197
 33
0.0
  0
MTEXT
  5
305D
330
2FE0
100
AcDbEntity
  8
标注线
 62
     0
100
AcDbMText
 10
7078.138245424657
 20
828.9959966016207
 30
0.0
 40
20.0
 41
0.0
 71
     5
 72
     1
  1
4
 73
     1
 44
1.0
  0
POINT
  5
305E
330
2FE0
100
AcDbEntity
  8
Defpoints
 62
     0
100
AcDbPoint
 10
7068.498014710886
 20
775.9959966016197
 30
0.0
  0
POINT
  5
305F
330
2FE0
100
AcDbEntity
  8
Defpoints
 62
     0
100
AcDbPoint
 10
7068.498014710886
 20
779.9959966016197
 30
0.0
  0
POINT
  5
3060
330
2FE0
100
AcDbEntity
  8
Defpoints
 62
     0
100
AcDbPoint
 10
7068.498014710886
 20
779.9959966016197
 30
0.0
  0
ENDBLK
  5
2FEE
330
2FE0
100
AcDbEntity
  8
0
100
AcDbBlockEnd
  0
BLOCK
  5
2FFB
330
2FEF
100
AcDbEntity
  8
0
100
AcDbBlockBegin
  2
*D81
 70
     1
 10
0.0
 20
0.0
 30
0.0
  3
*D81
  1

  0
LINE
  5
3061
330
2FEF
100
AcDbEntity
  8
标注线
370
     9
100
AcDbLine
 10
6911.394588230745
 20
961.6025078268672
 30
0.0
 11
6911.394588230745
 21
919.4510832649196
 31
0.0
  0
LINE
  5
3062
330
2FEF
100
AcDbEntity
  8
标注线
370
     9
100
AcDbLine
 10
6915.392140961595
 20
961.4626072762213
 30
0.0
 11
6915.392140961595
 21
919.4510832649196
 31
0.0
  0
LINE
  5
3063
330
2FEF
100
AcDbEntity
  8
标注线
370
     9
100
AcDbLine
 10
6893.394588230744
 20
924.4510832649195
 30
0.0
 11
6875.394588230745
 21
924.4510832649195
 31
0.0
  0
LINE
  5
3064
330
2FEF
100
AcDbEntity
  8
标注线
370
     9
100
AcDbLine
 10
6933.392140961595
 20
924.4510832649195
 30
0.0
 11
6970.672602389136
 21
924.4510832649195
 31
0.0
  0
LINE
  5
3065
330
2FEF
100
AcDbEntity
  8
标注线
370
     9
100
AcDbLine
 10
6911.394588230745
 20
924.4510832649195
 30
0.0
 11
6915.392140961595
 21
924.4510832649195
 31
0.0
  0
SOLID
  5
3066
330
2FEF
100
AcDbEntity
  8
标注线
100
AcDbTrace
 10
6893.394588230744
 20
927.4510832649196
 30
0.0
 11
6893.394588230744
 21
921.4510832649196
 31
0.0
 12
6911.394588230745
 22
924.4510832649195
 32
0.0
 13
6911.394588230745
 23
924.4510832649195
 33
0.0
  0
SOLID
  5
3067
330
2FEF
100
AcDbEntity
  8
标注线
100
AcDbTrace
 10
6933.392140961595
 20
927.4510832649196
 30
0.0
 11
6933.392140961595
 21
921.4510832649196
 31
0.0
 12
6915.392140961595
 22
924.4510832649195
 32
0.0
 13
6915.392140961595
 23
924.4510832649195
 33
0.0
  0
MTEXT
  5
3068
330
2FEF
100
AcDbEntity
  8
标注线
 62
     0
100
AcDbMText
 10
6961.032371675365
 20
937.4510832649196
 30
0.0
 40
20.0
 41
0.0
 71
     5
 72
     1
  1
4
 73
     1
 44
1.0
  0
POINT
  5
3069
330
2FEF
100
AcDbEntity
  8
Defpoints
 62
     0
100
AcDbPoint
 10
6911.394588230745
 20
971.6025078268671
 30
0.0
  0
POINT
  5
306A
330
2FEF
100
AcDbEntity
  8
Defpoints
 62
     0
100
AcDbPoint
 10
6915.392140961595
 20
971.4626072762213
 30
0.0
  0
POINT
  5
306B
330
2FEF
100
AcDbEntity
  8
Defpoints
 62
     0
100
AcDbPoint
 10
6915.392140961595
 20
924.4510832649195
 30
0.0
  0
ENDBLK
  5
2FFC
330
2FEF
100
AcDbEntity
  8
0
100
AcDbBlockEnd
  0
BLOCK
  5
3003
330
2FFD
100
AcDbEntity
  8
0
100
AcDbBlockBegin
  2
*D82
 70
     1
 10
0.0
 20
0.0
 30
0.0
  3
*D82
  1

  0
LINE
  5
34EB
330
2FFD
100
AcDbEntity
  8
标注线
 62
     7
370
     9
100
AcDbLine
 10
7016.726922022376
 20
884.3225046610262
 30
0.0
 11
6955.065616004303
 21
823.707243748945
 31
0.0
  0
MTEXT
  5
34EC
330
2FFD
100
AcDbEntity
  8
标注线
 62
     7
100
AcDbMText
 10
6983.079717840126
 20
869.718246430169
 30
0.0
 40
20.0
 41
0.0
 71
     5
 72
     1
  1
R104
 11
0.7131298066094974
 21
0.7010320099147407
 31
0.0
 73
     1
 44
1.0
  0
SOLID
  5
34ED
330
2FFD
100
AcDbEntity
  8
标注线
 62
     7
100
AcDbTrace
 10
6952.962519974559
 20
825.8466331687738
 30
0.0
 11
6957.168712034047
 21
821.5678543291165
 31
0.0
 12
6942.229279485333
 22
811.0886675704794
 32
0.0
 13
6942.229279485333
 23
811.0886675704794
 33
0.0
  0
POINT
  5
34EE
330
2FFD
100
AcDbEntity
  8
Defpoints
 62
     0
100
AcDbPoint
 10
6942.229279485333
 20
811.0886675704794
 30
0.0
  0
POINT
  5
34EF
330
2FFD
100
AcDbEntity
  8
Defpoints
 62
     0
100
AcDbPoint
 10
7016.394779372729
 20
883.995996601619
 30
0.0
  0
ENDBLK
  5
3004
330
2FFD
100
AcDbEntity
  8
0
100
AcDbBlockEnd
  0
BLOCK
  5
300B
330
3005
100
AcDbEntity
  8
0
100
AcDbBlockBegin
  2
*D83
 70
     1
 10
0.0
 20
0.0
 30
0.0
  3
*D83
  1

  0
LINE
  5
34F0
330
3005
100
AcDbEntity
  8
标注线
 62
     7
370
     9
100
AcDbLine
 10
7034.422662313693
 20
1112.503609505698
 30
0.0
 11
6959.832988353875
 21
1156.238115949266
 31
0.0
  0
MTEXT
  5
34F1
330
3005
100
AcDbEntity
  8
标注线
 62
     7
100
AcDbMText
 10
7011.554615301689
 20
1141.182367038274
 30
0.0
 40
20.0
 41
0.0
 71
     5
 72
     1
  1
R184
 11
0.8626499047950598
 21
-0.505801484534273
 31
0.0
 73
     1
 44
1.0
  0
SOLID
  5
34F2
330
3005
100
AcDbEntity
  8
标注线
 62
     7
100
AcDbTrace
 10
6961.350392807479
 20
1158.826065663651
 30
0.0
 11
6958.315583900272
 21
1153.650166234881
 31
0.0
 12
6944.305290067564
 22
1165.342542670883
 32
0.0
 13
6944.305290067564
 23
1165.342542670883
 33
0.0
  0
POINT
  5
34F3
330
3005
100
AcDbEntity
  8
Defpoints
 62
     0
100
AcDbPoint
 10
6944.305290067564
 20
1165.342542670883
 30
0.0
  0
POINT
  5
34F4
330
3005
100
AcDbEntity
  8
Defpoints
 62
     0
100
AcDbPoint
 10
7103.03287254985
 20
1072.275069516579
 30
0.0
  0
ENDBLK
  5
300C
330
3005
100
AcDbEntity
  8
0
100
AcDbBlockEnd
  0
BLOCK
  5
3013
330
300D
100
AcDbEntity
  8
0
100
AcDbBlockBegin
  2
*D84
 70
     1
 10
0.0
 20
0.0
 30
0.0
  3
*D84
  1

  0
LINE
  5
34F5
330
300D
100
AcDbEntity
  8
标注线
 62
     7
370
     9
100
AcDbLine
 10
7174.853965722268
 20
1163.4296664338
 30
0.0
 11
7172.239179801208
 21
1249.855874321691
 31
0.0
  0
MTEXT
  5
34F6
330
300D
100
AcDbEntity
  8
标注线
 62
     7
100
AcDbMText
 10
7186.985749742696
 20
1198.045248535466
 30
0.0
 40
20.0
 41
0.0
 71
     5
 72
     1
  1
R484
 11
0.0302407116979286
 21
-0.9995426450912452
 31
0.0
 73
     1
 44
1.0
  0
SOLID
  5
34F7
330
300D
100
AcDbEntity
  8
标注线
 62
     7
100
AcDbTrace
 10
7175.237807736483
 20
1249.946596456785
 30
0.0
 11
7169.240551865936
 21
1249.765152186597
 31
0.0
 12
7171.694846990646
 22
1267.847641933333
 32
0.0
 13
7171.694846990646
 23
1267.847641933333
 33
0.0
  0
POINT
  5
34F8
330
300D
100
AcDbEntity
  8
Defpoints
 62
     0
100
AcDbPoint
 10
7171.694846990646
 20
1267.847641933333
 30
0.0
  0
POINT
  5
34F9
330
300D
100
AcDbEntity
  8
Defpoints
 62
     0
100
AcDbPoint
 10
7186.33356018903
 20
783.9959966016196
 30
0.0
  0
ENDBLK
  5
3014
330
300D
100
AcDbEntity
  8
0
100
AcDbBlockEnd
  0
BLOCK
  5
301F
330
3015
100
AcDbEntity
  8
0
100
AcDbBlockBegin
  2
*D85
 70
     1
 10
0.0
 20
0.0
 30
0.0
  3
*D85
  1

  0
ARC
  5
348D
330
3015
100
AcDbEntity
  8
标注线
 62
     7
370
     9
100
AcDbCircle
 10
6908.691470309539
 20
779.9959966016196
 30
0.0
 40
211.6590955674628
100
AcDbArc
 50
4.874040791926027
 51
83.12162265292384
  0
SOLID
  5
348E
330
3015
100
AcDbEntity
  8
标注线
 62
     7
100
AcDbTrace
 10
7122.582470862933
 20
798.1072803809038
 30
0.0
 11
7116.587897475818
 21
797.8521531450281
 31
0.0
 12
7120.350565877001
 22
779.9959966016196
 32
0.0
 13
7120.350565877001
 23
779.9959966016196
 33
0.0
  0
SOLID
  5
348F
330
3015
100
AcDbEntity
  8
标注线
 62
     7
100
AcDbTrace
 10
6933.807908307151
 20
987.1407076065564
 30
0.0
 11
6934.27254048121
 21
993.1226902998472
 31
0.0
 12
6916.09427631431
 22
991.525595475376
 32
0.0
 13
6916.09427631431
 23
991.525595475376
 33
0.0
  0
MTEXT
  5
3490
330
3015
100
AcDbEntity
  8
标注线
 62
     7
100
AcDbMText
 10
7070.42808081016
 20
936.1713976953433
 30
0.0
 40
20.0
 41
0.0
 71
     5
 72
     1
  1
88\U+00b0
 11
0.6946311475662979
 21
-0.7193660881850966
 31
0.0
 73
     1
 44
1.0
  0
POINT
  5
3491
330
3015
100
AcDbEntity
  8
Defpoints
 62
     0
100
AcDbPoint
 10
7093.215186774692
 20
883.6809559656648
 30
0.0
  0
POINT
  5
3492
330
3015
100
AcDbEntity
  8
Defpoints
 62
     0
100
AcDbPoint
 10
7016.394779372724
 20
779.9959966016196
 30
0.0
  0
POINT
  5
3493
330
3015
100
AcDbEntity
  8
Defpoints
 62
     0
100
AcDbPoint
 10
6912.458408370618
 20
887.6334109184112
 30
0.0
  0
POINT
  5
3494
330
3015
100
AcDbEntity
  8
Defpoints
 62
     0
100
AcDbPoint
 10
6919.145446930736
 20
1078.710494846286
 30
0.0
  0
POINT
  5
3495
330
3015
100
AcDbEntity
  8
Defpoints
 62
     0
100
AcDbPoint
 10
7356.272341005333
 20
779.9959966016198
 30
0.0
  0
ENDBLK
  5
3020
330
3015
100
AcDbEntity
  8
0
100
AcDbBlockEnd
  0
BLOCK
  5
3027
330
3021
100
AcDbEntity
  8
0
100
AcDbBlockBegin
  2
*D86
 70
     1
 10
0.0
 20
0.0
 30
0.0
  3
*D86
  1

  0
LINE
  5
34FA
330
3021
100
AcDbEntity
  8
标注线
 62
     7
370
     9
100
AcDbLine
 10
7355.908155054386
 20
884.2863323481438
 30
0.0
 11
7423.518205713182
 21
830.3863549343359
 31
0.0
  0
MTEXT
  5
34FB
330
3021
100
AcDbEntity
  8
标注线
 62
     7
100
AcDbMText
 10
7390.8874701656
 20
873.2470288327165
 30
0.0
 40
20.0
 41
0.0
 71
     5
 72
     1
  1
R104
 11
0.7819286593935373
 21
-0.6233679263637372
 31
0.0
 73
     1
 44
1.0
  0
SOLID
  5
34FC
330
3021
100
AcDbEntity
  8
标注线
 62
     7
100
AcDbTrace
 10
7425.388309492273
 20
832.7321409125161
 30
0.0
 11
7421.648101934092
 21
828.0405689561556
 31
0.0
 12
7437.592921582265
 22
819.1657322597885
 32
0.0
 13
7437.592921582265
 23
819.1657322597885
 33
0.0
  0
POINT
  5
34FD
330
3021
100
AcDbEntity
  8
Defpoints
 62
     0
100
AcDbPoint
 10
7437.592921582265
 20
819.1657322597885
 30
0.0
  0
POINT
  5
34FE
330
3021
100
AcDbEntity
  8
Defpoints
 62
     0
100
AcDbPoint
 10
7356.272341005333
 20
883.9959966016195
 30
0.0
  0
ENDBLK
  5
3028
330
3021
100
AcDbEntity
  8
0
100
AcDbBlockEnd
  0
BLOCK
  5
302F
330
3029
100
AcDbEntity
  8
0
100
AcDbBlockBegin
  2
*D87
 70
     1
 10
0.0
 20
0.0
 30
0.0
  3
*D87
  1

  0
LINE
  5
34FF
330
3029
100
AcDbEntity
  8
标注线
 62
     7
370
     9
100
AcDbLine
 10
7311.536819627594
 20
1126.030292064446
 30
0.0
 11
7371.689391042952
 21
1203.197748008195
 31
0.0
  0
MTEXT
  5
3500
330
3029
100
AcDbEntity
  8
标注线
 62
     7
100
AcDbMText
 10
7322.193398341551
 20
1161.12809880317
 30
0.0
 40
20.0
 41
0.0
 71
     5
 72
     1
  1
R184
 11
0.6147900193659232
 21
0.788690834286825
 31
0.0
 73
     1
 44
1.0
  0
SOLID
  5
3501
330
3029
100
AcDbEntity
  8
标注线
 62
     7
100
AcDbTrace
 10
7369.323318540089
 20
1205.042118066292
 30
0.0
 11
7374.055463545812
 21
1201.353377950097
 31
0.0
 12
7382.755611391537
 22
1217.394183025357
 32
0.0
 13
7382.755611391537
 23
1217.394183025357
 33
0.0
  0
POINT
  5
3502
330
3029
100
AcDbEntity
  8
Defpoints
 62
     0
100
AcDbPoint
 10
7382.755611391537
 20
1217.394183025357
 30
0.0
  0
POINT
  5
3503
330
3029
100
AcDbEntity
  8
Defpoints
 62
     0
100
AcDbPoint
 10
7269.634247828206
 20
1072.275069516579
 30
0.0
  0
ENDBLK
  5
3030
330
3029
100
AcDbEntity
  8
0
100
AcDbBlockEnd
  0
BLOCK
  5
303B
330
3031
100
AcDbEntity
  8
0
100
AcDbBlockBegin
  2
*D88
 70
     1
 10
0.0
 20
0.0
 30
0.0
  3
*D88
  1

  0
LINE
  5
34A0
330
3031
100
AcDbEntity
  8
标注线
 62
     7
370
     9
100
AcDbLine
 10
7006.394779372723
 20
779.9959966016197
 30
0.0
 11
6852.087511975906
 21
779.9959966016197
 31
0.0
  0
LINE
  5
34A1
330
3031
100
AcDbEntity
  8
标注线
 62
     7
370
     9
100
AcDbLine
 10
6898.460855639765
 20
887.7733114690572
 30
0.0
 11
6852.087511975906
 21
887.7733114690572
 31
0.0
  0
LINE
  5
34A2
330
3031
100
AcDbEntity
  8
标注线
 62
     7
370
     9
100
AcDbLine
 10
6857.087511975905
 20
797.9959966016196
 30
0.0
 11
6857.087511975905
 21
869.7733114690572
 31
0.0
  0
SOLID
  5
34A3
330
3031
100
AcDbEntity
  8
标注线
 62
     7
100
AcDbTrace
 10
6854.087511975905
 20
797.9959966016196
 30
0.0
 11
6860.087511975905
 21
797.9959966016196
 31
0.0
 12
6857.087511975905
 22
779.9959966016197
 32
0.0
 13
6857.087511975905
 23
779.9959966016197
 33
0.0
  0
SOLID
  5
34A4
330
3031
100
AcDbEntity
  8
标注线
 62
     7
100
AcDbTrace
 10
6854.087511975905
 20
869.7733114690572
 30
0.0
 11
6860.087511975905
 21
869.7733114690572
 31
0.0
 12
6857.087511975905
 22
887.7733114690572
 32
0.0
 13
6857.087511975905
 23
887.7733114690572
 33
0.0
  0
MTEXT
  5
34A5
330
3031
100
AcDbEntity
  8
标注线
 62
     7
100
AcDbMText
 10
6843.914476647859
 20
833.8846540353396
 30
0.0
 40
20.0
 41
0.0
 71
     5
 72
     1
  1
108
 11
0.0000000000000001
 21
1.0
 31
0.0
 73
     1
 44
1.0
  0
POINT
  5
34A6
330
3031
100
AcDbEntity
  8
Defpoints
 62
     0
100
AcDbPoint
 10
7016.394779372723
 20
779.9959966016197
 30
0.0
  0
POINT
  5
34A7
330
3031
100
AcDbEntity
  8
Defpoints
 62
     0
100
AcDbPoint
 10
6908.460855639764
 20
887.7733114690572
 30
0.0
  0
POINT
  5
34A8
330
3031
100
AcDbEntity
  8
Defpoints
 62
     0
100
AcDbPoint
 10
6857.087511975905
 20
887.7733114690572
 30
0.0
  0
ENDBLK
  5
303C
330
3031
100
AcDbEntity
  8
0
100
AcDbBlockEnd
  0
BLOCK
  5
3047
330
303D
100
AcDbEntity
  8
0
100
AcDbBlockBegin
  2
*D89
 70
     1
 10
0.0
 20
0.0
 30
0.0
  3
*D89
  1

  0
LINE
  5
34A9
330
303D
100
AcDbEntity
  8
标注线
 62
     7
370
     9
100
AcDbLine
 10
6847.087511975904
 20
779.9959966016197
 30
0.0
 11
6793.454366767284
 21
779.9959966016197
 31
0.0
  0
LINE
  5
34AA
330
303D
100
AcDbEntity
  8
标注线
 62
     7
370
     9
100
AcDbLine
 10
6905.147894199886
 20
1078.850395396932
 30
0.0
 11
6793.454366767284
 21
1078.850395396932
 31
0.0
  0
LINE
  5
34AB
330
303D
100
AcDbEntity
  8
标注线
 62
     7
370
     9
100
AcDbLine
 10
6798.454366767284
 20
797.9959966016195
 30
0.0
 11
6798.454366767284
 21
1060.850395396932
 31
0.0
  0
SOLID
  5
34AC
330
303D
100
AcDbEntity
  8
标注线
 62
     7
100
AcDbTrace
 10
6795.454366767284
 20
797.9959966016195
 30
0.0
 11
6801.454366767284
 21
797.9959966016195
 31
0.0
 12
6798.454366767284
 22
779.9959966016197
 32
0.0
 13
6798.454366767284
 23
779.9959966016197
 33
0.0
  0
SOLID
  5
34AD
330
303D
100
AcDbEntity
  8
标注线
 62
     7
100
AcDbTrace
 10
6795.454366767284
 20
1060.850395396932
 30
0.0
 11
6801.454366767284
 21
1060.850395396932
 31
0.0
 12
6798.454366767284
 22
1078.850395396932
 32
0.0
 13
6798.454366767284
 23
1078.850395396932
 33
0.0
  0
MTEXT
  5
34AE
330
303D
100
AcDbEntity
  8
标注线
 62
     7
100
AcDbMText
 10
6785.252492217896
 20
929.4231959992767
 30
0.0
 40
20.0
 41
0.0
 71
     5
 72
     1
  1
299
 11
0.0000000000000001
 21
1.0
 31
0.0
 73
     1
 44
1.0
  0
POINT
  5
34AF
330
303D
100
AcDbEntity
  8
Defpoints
 62
     0
100
AcDbPoint
 10
6857.087511975905
 20
779.9959966016197
 30
0.0
  0
POINT
  5
34B0
330
303D
100
AcDbEntity
  8
Defpoints
 62
     0
100
AcDbPoint
 10
6915.147894199887
 20
1078.850395396932
 30
0.0
  0
POINT
  5
34B1
330
303D
100
AcDbEntity
  8
Defpoints
 62
     0
100
AcDbPoint
 10
6798.454366767284
 20
1078.850395396932
 30
0.0
  0
ENDBLK
  5
3048
330
303D
100
AcDbEntity
  8
0
100
AcDbBlockEnd
  0
BLOCK
  5
3053
330
3049
100
AcDbEntity
  8
0
100
AcDbBlockBegin
  2
*D90
 70
     1
 10
0.0
 20
0.0
 30
0.0
  3
*D90
  1

  0
LINE
  5
34B2
330
3049
100
AcDbEntity
  8
标注线
 62
     7
370
     9
100
AcDbLine
 10
6912.394779372725
 20
873.9959966016197
 30
0.0
 11
6912.394779372725
 21
688.7134173356297
 31
0.0
  0
LINE
  5
34B3
330
3049
100
AcDbEntity
  8
标注线
 62
     7
370
     9
100
AcDbLine
 10
7460.272341005333
 20
873.9959966016197
 30
0.0
 11
7460.272341005333
 21
688.7134173356297
 31
0.0
  0
LINE
  5
34B4
330
3049
100
AcDbEntity
  8
标注线
 62
     7
370
     9
100
AcDbLine
 10
6930.394779372725
 20
693.7134173356297
 30
0.0
 11
7442.272341005334
 21
693.7134173356297
 31
0.0
  0
SOLID
  5
34B5
330
3049
100
AcDbEntity
  8
标注线
 62
     7
100
AcDbTrace
 10
6930.394779372725
 20
696.7134173356297
 30
0.0
 11
6930.394779372725
 21
690.7134173356297
 31
0.0
 12
6912.394779372725
 22
693.7134173356297
 32
0.0
 13
6912.394779372725
 23
693.7134173356297
 33
0.0
  0
SOLID
  5
34B6
330
3049
100
AcDbEntity
  8
标注线
 62
     7
100
AcDbTrace
 10
7442.272341005334
 20
696.7134173356297
 30
0.0
 11
7442.272341005334
 21
690.7134173356297
 31
0.0
 12
7460.272341005333
 22
693.7134173356297
 32
0.0
 13
7460.272341005333
 23
693.7134173356297
 33
0.0
  0
MTEXT
  5
34B7
330
3049
100
AcDbEntity
  8
标注线
 62
     7
100
AcDbMText
 10
7186.333560189028
 20
706.8864526636756
 30
0.0
 40
20.0
 41
0.0
 71
     5
 72
     1
  1
548
 73
     1
 44
1.0
  0
POINT
  5
34B8
330
3049
100
AcDbEntity
  8
Defpoints
 62
     0
100
AcDbPoint
 10
6912.394779372725
 20
883.9959966016197
 30
0.0
  0
POINT
  5
34B9
330
3049
100
AcDbEntity
  8
Defpoints
 62
     0
100
AcDbPoint
 10
7460.272341005333
 20
883.9959966016197
 30
0.0
  0
POINT
  5
34BA
330
3049
100
AcDbEntity
  8
Defpoints
 62
     0
100
AcDbPoint
 10
7460.272341005333
 20
693.7134173356297
 30
0.0
  0
ENDBLK
  5
3054
330
3049
100
AcDbEntity
  8
0
100
AcDbBlockEnd
  0
ENDSEC
  0
SECTION
  2
ENTITIES
  0
ARC
  5
2F44
102
{ACAD_REACTORS
330
2F94
330
2FB2
102
}
330
1F
100
AcDbEntity
  8
0
100
AcDbCircle
 10
7356.272341005333
 20
883.9959966016197
 30
0.0
 40
104.0
100
AcDbArc
 50
270.0
 51
2.004336555150374
  0
LINE
  5
2F46
330
1F
100
AcDbEntity
  8
0
100
AcDbLine
 10
7460.208712007444
 20
887.6334109184114
 30
0.0
 11
7453.521673447323
 21
1078.710494846286
 31
0.0
  0
LINE
  5
2F48
102
{ACAD_REACTORS
330
2F9A
330
2FAF
102
}
330
1F
100
AcDbEntity
  8
0
100
AcDbLine
 10
7016.394779372723
 20
779.9959966016197
 30
0.0
 11
7356.272341005333
 21
779.9959966016197
 31
0.0
  0
ARC
  5
2F4A
102
{ACAD_REACTORS
330
2FB5
102
}
330
1F
100
AcDbEntity
  8
0
100
AcDbCircle
 10
7269.634247828206
 20
1072.275069516578
 30
0.0
 40
184.0
100
AcDbArc
 50
2.004336555150374
 51
73.88290078986759
  0
ARC
  5
2F4C
102
{ACAD_REACTORS
330
2F94
330
2FA6
102
}
330
1F
100
AcDbEntity
  8
0
100
AcDbCircle
 10
7016.394779372723
 20
883.9959966016197
 30
0.0
 40
104.0
100
AcDbArc
 50
177.9956634448495
 51
270.0
  0
ARC
  5
2F4E
102
{ACAD_REACTORS
330
2F9A
330
2FAC
102
}
330
1F
100
AcDbEntity
  8
0
100
AcDbCircle
 10
7186.33356018903
 20
783.9959966016197
 30
0.0
 40
484.0730385120726
100
AcDbArc
 50
73.88290078986774
 51
106.1170992101323
  0
LINE
  5
2F50
102
{ACAD_REACTORS
330
2FAF
102
}
330
1F
100
AcDbEntity
  8
0
100
AcDbLine
 10
6912.458408370617
 20
887.6334109184114
 30
0.0
 11
6919.145446930736
 21
1078.710494846286
 31
0.0
  0
ARC
  5
2F52
102
{ACAD_REACTORS
330
2FA9
102
}
330
1F
100
AcDbEntity
  8
0
100
AcDbCircle
 10
7103.03287254985
 20
1072.275069516578
 30
0.0
 40
184.0
100
AcDbArc
 50
106.1170992101323
 51
177.9956634448495
  0
DIMENSION
  5
2F92
102
{ACAD_XDICTIONARY
360
2F93
102
}
102
{ACAD_REACTORS
330
2F94
102
}
330
1F
100
AcDbEntity
  8
标注线
100
AcDbDimension
  2
*D90
 10
7460.272341005333
 20
693.7134173356297
 30
0.0
 11
7186.333560189028
 21
706.8864526636756
 31
0.0
 70
    32
 71
     5
 42
547.8775616326084
  3
ISO-25
100
AcDbAlignedDimension
 13
6912.394779372725
 23
883.9959966016197
 33
0.0
 14
7460.272341005333
 24
883.9959966016197
 34
0.0
100
AcDbRotatedDimension
  0
DIMENSION
  5
2F98
102
{ACAD_XDICTIONARY
360
2F99
102
}
102
{ACAD_REACTORS
330
2F9A
102
}
330
1F
100
AcDbEntity
  8
标注线
100
AcDbDimension
  2
*D78
 10
6746.671527342242
 20
1268.069035113692
 30
0.0
 11
6746.671527342242
 21
1024.032515857656
 31
0.0
 70
   160
 71
     5
 42
488.0730385120722
  3
ISO-25
100
AcDbAlignedDimension
 13
7200.657681592061
 23
779.9959966016197
 33
0.0
 14
7186.33356018903
 24
1268.069035113692
 34
0.0
 50
90.0
100
AcDbRotatedDimension
  0
DIMENSION
  5
2FA4
102
{ACAD_XDICTIONARY
360
2FA5
102
}
102
{ACAD_REACTORS
330
2FA6
102
}
330
1F
100
AcDbEntity
  8
标注线
100
AcDbDimension
  2
*D82
 10
7016.394779372729
 20
883.995996601619
 30
0.0
 11
6992.314437272826
 21
860.324162294219
 31
0.0
 70
   164
 71
     5
 42
104.0000000000091
  3
ISO-25
100
AcDbRadialDimension
 15
6942.229279485333
 25
811.0886675704794
 35
0.0
 40
0.0
1001
ACAD
1000
DSTYLE
1002
{
1070
   288
1070
     1
1002
}
  0
DIMENSION
  5
2FA7
102
{ACAD_XDICTIONARY
360
2FA8
102
}
102
{ACAD_REACTORS
330
2FA9
102
}
330
1F
100
AcDbEntity
  8
标注线
100
AcDbDimension
  2
*D83
 10
7103.03287254985
 20
1072.275069516579
 30
0.0
 11
7004.891674476941
 21
1129.818649366673
 31
0.0
 70
   164
 71
     5
 42
183.9999999999954
  3
ISO-25
100
AcDbRadialDimension
 15
6944.305290067564
 25
1165.342542670883
 35
0.0
 40
0.0
1001
ACAD
1000
DSTYLE
1002
{
1070
   288
1070
     1
1002
}
  0
DIMENSION
  5
2FAA
102
{ACAD_XDICTIONARY
360
2FAB
102
}
102
{ACAD_REACTORS
330
2FAC
102
}
330
1F
100
AcDbEntity
  8
标注线
100
AcDbDimension
  2
*D84
 10
7186.33356018903
 20
783.9959966016196
 30
0.0
 11
7173.818739167019
 21
1197.646886571924
 31
0.0
 70
   164
 71
     5
 42
484.0730385120732
  3
ISO-25
100
AcDbRadialDimension
 15
7171.694846990646
 25
1267.847641933333
 35
0.0
 40
0.0
1001
ACAD
1000
DSTYLE
1002
{
1070
   288
1070
     1
1002
}
  0
DIMENSION
  5
2FAD
102
{ACAD_XDICTIONARY
360
2FAE
102
}
102
{ACAD_REACTORS
330
2FAF
102
}
330
1F
100
AcDbEntity
  8
标注线
100
AcDbDimension
  2
*D85
 10
7356.272341005333
 20
779.9959966016197
 30
0.0
 11
7070.42808081016
 21
936.1713976953433
 31
0.0
 70
    34
 71
     5
 42
1.535814054589446
  3
ISO-25
100
AcDb2LineAngularDimension
 13
6912.458408370617
 23
887.6334109184114
 33
0.0
 14
6919.145446930736
 24
1078.710494846286
 34
0.0
 15
7016.394779372723
 25
779.9959966016197
 35
0.0
 16
7093.215186774692
 26
883.6809559656648
 36
0.0
  0
DIMENSION
  5
2FB0
102
{ACAD_XDICTIONARY
360
2FB1
102
}
102
{ACAD_REACTORS
330
2FB2
102
}
330
1F
100
AcDbEntity
  8
标注线
100
AcDbDimension
  2
*D86
 10
7356.272341005333
 20
883.9959966016195
 30
0.0
 11
7382.675822449242
 21
862.9466549785139
 31
0.0
 70
   164
 71
     5
 42
104.0000000000036
  3
ISO-25
100
AcDbRadialDimension
 15
7437.592921582265
 25
819.1657322597885
 35
0.0
 40
0.0
1001
ACAD
1000
DSTYLE
1002
{
1070
   288
1070
     1
1002
}
  0
DIMENSION
  5
2FB3
102
{ACAD_XDICTIONARY
360
2FB4
102
}
102
{ACAD_REACTORS
330
2FB5
102
}
330
1F
100
AcDbEntity
  8
标注线
100
AcDbDimension
  2
*D87
 10
7269.634247828206
 20
1072.275069516579
 30
0.0
 11
7332.582850564519
 21
1153.029448158732
 31
0.0
 70
   164
 71
     5
 42
184.0000000000026
  3
ISO-25
100
AcDbRadialDimension
 15
7382.755611391537
 25
1217.394183025357
 35
0.0
 40
0.0
1001
ACAD
1000
DSTYLE
1002
{
1070
   288
1070
     1
1002
}
  0
DIMENSION
  5
2FB6
330
1F
100
AcDbEntity
  8
标注线
100
AcDbDimension
  2
*D88
 10
6857.087511975905
 20
887.7733114690572
 30
0.0
 11
6843.914476647859
 21
833.8846540353396
 31
0.0
 70
    32
 71
     5
 42
107.7773148674374
  3
ISO-25
100
AcDbAlignedDimension
 13
7016.394779372723
 23
779.9959966016197
 33
0.0
 14
6908.460855639764
 24
887.7733114690572
 34
0.0
 50
90.0
100
AcDbRotatedDimension
  0
DIMENSION
  5
2FB9
330
1F
100
AcDbEntity
  8
标注线
100
AcDbDimension
  2
*D89
 10
6798.454366767284
 20
1078.850395396932
 30
0.0
 11
6785.252492217896
 21
929.4231959992767
 31
0.0
 70
    32
 71
     5
 42
298.8543987953125
  3
ISO-25
100
AcDbAlignedDimension
 13
6857.087511975905
 23
779.9959966016197
 33
0.0
 14
6915.147894199887
 24
1078.850395396932
 34
0.0
 50
90.0
100
AcDbRotatedDimension
  0
MTEXT
  5
30A1
330
1F
100
AcDbEntity
  8
标注线
 62
     7
100
AcDbMText
 10
7094.359010831374
 20
624.4588941394773
 30
0.0
 40
20.0
 41
328.544112775593
 71
     1
 72
     5
  1
1405 template
 73
     1
 44
1.0
1001
ACAD
1000
ACAD_MTEXT_DEFINED_HEIGHT_BEGIN
1070
    46
1040
0.0
1000
ACAD_MTEXT_DEFINED_HEIGHT_END
  0
ENDSEC
  0
SECTION
  2
OBJECTS
  0
DICTIONARY
  5
C
330
0
100
AcDbDictionary
281
     1
  3
ACAD_COLOR
350
73
  3
ACAD_GROUP
350
D
  3
ACAD_LAYOUT
350
1A
  3
ACAD_MATERIAL
350
72
  3
ACAD_MLINESTYLE
350
17
  3
ACAD_PLOTSETTINGS
350
19
  3
ACAD_PLOTSTYLENAME
350
E
  3
ACAD_TABLESTYLE
350
8F9
  3
AcDbVariableDictionary
350
66
  3
ASE_INDEX_DICTIONARY
350
307F
  0
DICTIONARY
  5
EDF
330
2
100
AcDbDictionary
280
     1
281
     1
  3
ACAD_LAYERFILTERS
360
2AB2
  3
ACAD_LAYERSTATES
360
EE0
  3
ACLYDICTIONARY
360
2AB1
  0
DICTIONARY
  5
904
330
1F
100
AcDbDictionary
280
     1
281
     1
  3
ACAD_SORTENTS
360
905
  0
DICTIONARY
  5
28E2
330
2886
100
AcDbDictionary
280
     1
281
     1
  3
ACAD_SORTENTS
360
28E3
  0
DICTIONARY
  5
2F93
330
2F92
100
AcDbDictionary
280
     1
281
     1
  3
ACAD_DIMASSOC
360
2F94
  0
DICTIONARY
  5
2F99
330
2F98
100
AcDbDictionary
280
     1
281
     1
  3
ACAD_DIMASSOC
360
2F9A
  0
DICTIONARY
  5
2FA5
330
2FA4
100
AcDbDictionary
280
     1
281
     1
  3
ACAD_DIMASSOC
360
2FA6
  0
DICTIONARY
  5
2FA8
330
2FA7
100
AcDbDictionary
280
     1
281
     1
  3
ACAD_DIMASSOC
360
2FA9
  0
DICTIONARY
  5
2FAB
330
2FAA
100
AcDbDictionary
280
     1
281
     1
  3
ACAD_DIMASSOC
360
2FAC
  0
DICTIONARY
  5
2FAE
330
2FAD
100
AcDbDictionary
280
     1
281
     1
  3
ACAD_DIMASSOC
360
2FAF
  0
DICTIONARY
  5
2FB1
330
2FB0
100
AcDbDictionary
280
     1
281
     1
  3
ACAD_DIMASSOC
360
2FB2
  0
DICTIONARY
  5
2FB4
330
2FB3
100
AcDbDictionary
280
     1
281
     1
  3
ACAD_DIMASSOC
360
2FB5
  0
DICTIONARY
  5
73
102
{ACAD_REACTORS
330
C
102
}
330
C
100
AcDbDictionary
281
     1
  0
DICTIONARY
  5
D
102
{ACAD_REACTORS
330
C
102
}
330
C
100
AcDbDictionary
281
     1
  0
DICTIONARY
  5
1A
102
{ACAD_REACTORS
330
C
102
}
330
C
100
AcDbDictionary
281
     1
  3
Model
350
22
  3
布局1
350
59
  3
布局2
350
5E
  0
DICTIONARY
  5
72
102
{ACAD_REACTORS
330
C
102
}
330
C
100
AcDbDictionary
281
     1
  0
DICTIONARY
  5
17
102
{ACAD_REACTORS
330
C
102
}
330
C
100
AcDbDictionary
281
     1
  3
Standard
350
18
  0
DICTIONARY
  5
19
102
{ACAD_REACTORS
330
C
102
}
330
C
100
AcDbDictionary
281
     1
  0
ACDBDICTIONARYWDFLT
  5
E
102
{ACAD_REACTORS
330
C
102
}
330
C
100
AcDbDictionary
281
     1
  3
Normal
350
F
100
AcDbDictionaryWithDefault
340
F
  0
DICTIONARY
  5
8F9
102
{ACAD_REACTORS
330
C
102
}
330
C
100
AcDbDictionary
281
     1
  3
Standard
350
8FA
  0
DICTIONARY
  5
66
102
{ACAD_REACTORS
330
C
102
}
330
C
100
AcDbDictionary
281
     1
  3
CTABLESTYLE
350
91A
  3
DIMASSOC
350
67
  3
HIDETEXT
350
6B
  0
DICTIONARY
  5
307F
102
{ACAD_REACTORS
330
C
102
}
330
C
100
AcDbDictionary
281
     1
  3
ASEBlockHierarchyIndexRecord
350
3081
1001
DCO15
1040
1717493797.281
  0
DICTIONARY
  5
2AB2
102
{ACAD_REACTORS
330
EDF
102
}
330
EDF
100
AcDbDictionary
281
     1
  0
DICTIONARY
  5
EE0
102
{ACAD_REACTORS
330
EDF
102
}
330
EDF
100
AcDbDictionary
281
     1
  0
DICTIONARY
  5
2AB1
102
{ACAD_REACTORS
330
EDF
102
}
330
EDF
100
AcDbDictionary
281
     1
1001
ACAD
1000
<All
  0
SORTENTSTABLE
  5
905
102
{ACAD_REACTORS
330
904
102
}
330
904
100
AcDbSortentsTable
330
1F
  0
SORTENTSTABLE
  5
28E3
102
{ACAD_REACTORS
330
28E2
102
}
330
28E2
100
AcDbSortentsTable
330
2886
  0
DIMASSOC
  5
2F94
102
{ACAD_REACTORS
330
2F93
102
}
330
2F93
100
AcDbDimAssoc
330
2F92
 90
        3
 70
     0
 71
     0
  1
AcDbOsnapPointRef
 72
     5
331
2F4C
 73
     2
 91
        0
 40
3.141592653589792
 10
0.0
 20
0.0
 30
0.0
 75
     0
  1
AcDbOsnapPointRef
 72
     5
331
2F44
 73
     2
 91
        0
 40
6.283185307179584
 10
0.0
 20
0.0
 30
0.0
 75
     0
  0
DIMASSOC
  5
2F9A
102
{ACAD_REACTORS
330
2F99
102
}
330
2F99
100
AcDbDimAssoc
330
2F98
 90
        3
 70
     0
 71
     0
  1
AcDbOsnapPointRef
 72
    10
331
2F48
 73
     2
 91
        0
 40
0.5421449457687824
 10
0.0
 20
0.0
 30
0.0
 75
     0
  1
AcDbOsnapPointRef
 72
     2
331
2F4E
 73
     2
 91
        0
 40
1.570796326794896
 10
0.0
 20
0.0
 30
0.0
 75
     0
  0
DIMASSOC
  5
2FA6
102
{ACAD_REACTORS
330
2FA5
102
}
330
2FA5
100
AcDbDimAssoc
330
2FA4
 90
        2
 70
     0
 71
     0
  1
AcDbOsnapPointRef
 72
     3
331
2F4C
 73
     2
 91
        0
 40
0.0
 10
0.0
 20
0.0
 30
0.0
 75
     0
  0
DIMASSOC
  5
2FA9
102
{ACAD_REACTORS
330
2FA8
102
}
330
2FA8
100
AcDbDimAssoc
330
2FA7
 90
        2
 70
     0
 71
     0
  1
AcDbOsnapPointRef
 72
     3
331
2F52
 73
     2
 91
        0
 40
0.0
 10
0.0
 20
0.0
 30
0.0
 75
     0
  0
DIMASSOC
  5
2FAC
102
{ACAD_REACTORS
330
2FAB
102
}
330
2FAB
100
AcDbDimAssoc
330
2FAA
 90
        2
 70
     0
 71
     0
  1
AcDbOsnapPointRef
 72
     3
331
2F4E
 73
     2
 91
        0
 40
0.0
 10
0.0
 20
0.0
 30
0.0
 75
     0
  0
DIMASSOC
  5
2FAF
102
{ACAD_REACTORS
330
2FAE
102
}
330
2FAE
100
AcDbDimAssoc
330
2FAD
 90
       15
 70
     0
 71
     0
  1
AcDbOsnapPointRef
 72
    13
331
2F50
 73
     2
 91
        0
 40
0.0
 10
0.0
 20
0.0
 30
2.000000000000000E+50
 75
     0
  1
AcDbOsnapPointRef
 72
     1
331
2F50
 73
     2
 91
        0
 40
1.0
 10
0.0
 20
0.0
 30
2.000000000000000E+50
 75
     0
  1
AcDbOsnapPointRef
 72
    13
331
2F48
 73
     2
 91
        0
 40
0.0
 10
0.0
 20
0.0
 30
2.000000000000000E+50
 75
     0
  1
AcDbOsnapPointRef
 72
     1
331
2F48
 73
     2
 91
        0
 40
1.0
 10
0.0
 20
0.0
 30
2.000000000000000E+50
 75
     0
  0
DIMASSOC
  5
2FB2
102
{ACAD_REACTORS
330
2FB1
102
}
330
2FB1
100
AcDbDimAssoc
330
2FB0
 90
        2
 70
     0
 71
     0
  1
AcDbOsnapPointRef
 72
     3
331
2F44
 73
     2
 91
        0
 40
0.0
 10
0.0
 20
0.0
 30
0.0
 75
     0
  0
DIMASSOC
  5
2FB5
102
{ACAD_REACTORS
330
2FB4
102
}
330
2FB4
100
AcDbDimAssoc
330
2FB3
 90
        2
 70
     0
 71
     0
  1
AcDbOsnapPointRef
 72
     3
331
2F4A
 73
     2
 91
        0
 40
0.0
 10
0.0
 20
0.0
 30
0.0
 75
     0
  0
LAYOUT
  5
22
102
{ACAD_REACTORS
330
1A
102
}
330
1A
100
AcDbPlotSettings
  1

  2
\\Dongyuan\EPSON Stylus Photo 830U Series
  4
A4
  6

 40
3.757083
 41
14.76373
 42
3.75708
 43
3.75708
 44
209.973328
 45
296.968323
 46
0.43
 47
0.0
 48
1570.057497417776
 49
45.78314460386919
140
2656.057497417776
141
1545.783144603869
142
1.0
143
5.387011662768917
 70
 11956
 72
     1
 73
     0
 74
     4
  7

 75
     0
147
0.1856316753333334
 76
     1
 77
     2
 78
   300
148
-1570.057497417776
149
-45.78314460386919
100
AcDbLayout
  1
Model
 70
     1
 71
     0
 10
0.0
 20
0.0
 11
12.0
 21
9.0
 12
0.0
 22
0.0
 32
0.0
 14
0.0
 24
0.0
 34
0.0
 15
0.0
 25
0.0
 35
0.0
146
0.0
 13
0.0
 23
0.0
 33
0.0
 16
1.0
 26
0.0
 36
0.0
 17
0.0
 27
1.0
 37
0.0
 76
     0
330
1F
  0
LAYOUT
  5
59
102
{ACAD_REACTORS
330
1A
102
}
330
1A
100
AcDbPlotSettings
  1

  2
None
  4

  6

 40
0.0
 41
0.0
 42
0.0
 43
0.0
 44
0.0
 45
0.0
 46
0.0
 47
0.0
 48
0.0
 49
0.0
140
0.0
141
0.0
142
1.0
143
1.0
 70
   688
 72
     0
 73
     0
 74
     5
  7

 75
    16
147
1.0
 76
     0
 77
     2
 78
   300
148
0.0
149
0.0
100
AcDbLayout
  1
布局1
 70
     1
 71
     1
 10
0.0
 20
0.0
 11
12.0
 21
9.0
 12
0.0
 22
0.0
 32
0.0
 14
0.0
 24
0.0
 34
0.0
 15
0.0
 25
0.0
 35
0.0
146
0.0
 13
0.0
 23
0.0
 33
0.0
 16
1.0
 26
0.0
 36
0.0
 17
0.0
 27
1.0
 37
0.0
 76
     0
330
58
  0
LAYOUT
  5
5E
102
{ACAD_REACTORS
330
1A
102
}
330
1A
100
AcDbPlotSettings
  1

  2
None
  4

  6

 40
0.0
 41
0.0
 42
0.0
 43
0.0
 44
0.0
 45
0.0
 46
0.0
 47
0.0
 48
0.0
 49
0.0
140
0.0
141
0.0
142
1.0
143
1.0
 70
   688
 72
     0
 73
     0
 74
     5
  7

 75
    16
147
1.0
 76
     0
 77
     2
 78
   300
148
0.0
149
0.0
100
AcDbLayout
  1
布局2
 70
     1
 71
     2
 10
0.0
 20
0.0
 11
12.0
 21
9.0
 12
0.0
 22
0.0
 32
0.0
 14
0.0
 24
0.0
 34
0.0
 15
0.0
 25
0.0
 35
0.0
146
0.0
 13
0.0
 23
0.0
 33
0.0
 16
1.0
 26
0.0
 36
0.0
 17
0.0
 27
1.0
 37
0.0
 76
     0
330
5D
  0
MLINESTYLE
  5
18
102
{ACAD_REACTORS
330
17
102
}
330
17
100
AcDbMlineStyle
  2
STANDARD
 70
     0
  3

 62
   256
 51
90.0
 52
90.0
 71
     2
 49
0.5
 62
   256
  6
BYLAYER
 49
-0.5
 62
   256
  6
BYLAYER
  0
ACDBPLACEHOLDER
  5
F
102
{ACAD_REACTORS
330
E
102
}
330
E
  0
TABLESTYLE
  5
8FA
102
{ACAD_REACTORS
330
8F9
102
}
330
8F9
100
AcDbTableStyle
  3
Standard
 70
     0
 71
     0
 40
0.06
 41
0.06
280
     0
281
     0
  7
Standard
140
0.18
170
     2
 62
     0
 63
     7
283
     0
274
    -2
284
     1
 64
     0
275
    -2
285
     1
 65
     0
276
    -2
286
     1
 66
     0
277
    -2
287
     1
 67
     0
278
    -2
288
     1
 68
     0
279
    -2
289
     1
 69
     0
  7
Standard
140
0.25
170
     5
 62
     0
 63
     7
283
     0
274
    -2
284
     1
 64
     0
275
    -2
285
     1
 65
     0
276
    -2
286
     1
 66
     0
277
    -2
287
     1
 67
     0
278
    -2
288
     1
 68
     0
279
    -2
289
     1
 69
     0
  7
Standard
140
0.18
170
     5
 62
     0
 63
     7
283
     0
274
    -2
284
     1
 64
     0
275
    -2
285
     1
 65
     0
276
    -2
286
     1
 66
     0
277
    -2
287
     1
 67
     0
278
    -2
288
     1
 68
     0
279
    -2
289
     1
 69
     0
  0
DICTIONARYVAR
  5
91A
102
{ACAD_REACTORS
330
66
102
}
330
66
100
DictionaryVariables
280
     0
  1
STANDARD
  0
DICTIONARYVAR
  5
67
102
{ACAD_REACTORS
330
66
102
}
330
66
100
DictionaryVariables
280
     0
  1
2
  0
DICTIONARYVAR
  5
6B
102
{ACAD_REACTORS
330
66
102
}
330
66
100
DictionaryVariables
280
     0
  1
1
  0
XRECORD
  5
3081
102
{ACAD_REACTORS
330
307F
102
}
330
307F
100
AcDbXrecord
280
     1
  0
ENDSEC
  0
EOF
