  0
SECTION
  2
HEADER
  9
$ACADVER
  1
AC1015
  9
$ACADMAINTVER
 70
    20
  9
$DWGCODEPAGE
  3
ANSI_936
  9
$INSBASE
 10
0.0
 20
0.0
 30
0.0
  9
$EXTMIN
 10
1595.996652075772
 20
1808.775315408317
 30
0.0
  9
$EXTMAX
 10
2291.132760152402
 20
2376.097430009133
 30
0.0
  9
$LIMMIN
 10
0.0
 20
0.0
  9
$LIMMAX
 10
12.0
 20
9.0
  9
$ORTHOMODE
 70
     1
  9
$REGENMODE
 70
     1
  9
$FILLMODE
 70
     1
  9
$QTEXTMODE
 70
     0
  9
$MIRRTEXT
 70
     0
  9
$LTSCALE
 40
1.0
  9
$ATTMODE
 70
     1
  9
$TEXTSIZE
 40
0.2
  9
$TRACEWID
 40
0.05
  9
$TEXTSTYLE
  7
Standard
  9
$CLAYER
  8
0
  9
$CELTYPE
  6
ByLayer
  9
$CECOLOR
 62
   256
  9
$CELTSCALE
 40
1.0
  9
$DISPSILH
 70
     0
  9
$DIMSCALE
 40
1.0
  9
$DIMASZ
 40
15.0
  9
$DIMEXO
 40
0.625
  9
$DIMDLI
 40
3.75
  9
$DIMRND
 40
0.0
  9
$DIMDLE
 40
0.0
  9
$DIMEXE
 40
1.25
  9
$DIMTP
 40
0.0
  9
$DIMTM
 40
0.0
  9
$DIMTXT
 40
20.0
  9
$DIMCEN
 40
15.0
  9
$DIMTSZ
 40
0.0
  9
$DIMTOL
 70
     0
  9
$DIMLIM
 70
     0
  9
$DIMTIH
 70
     0
  9
$DIMTOH
 70
     1
  9
$DIMSE1
 70
     0
  9
$DIMSE2
 70
     0
  9
$DIMTAD
 70
     1
  9
$DIMZIN
 70
     8
  9
$DIMBLK
  1

  9
$DIMASO
 70
     1
  9
$DIMSHO
 70
     1
  9
$DIMPOST
  1

  9
$DIMAPOST
  1

  9
$DIMALT
 70
     0
  9
$DIMALTD
 70
     3
  9
$DIMALTF
 40
0.03937007874016
  9
$DIMLFAC
 40
1.0
  9
$DIMTOFL
 70
     1
  9
$DIMTVP
 40
0.0
  9
$DIMTIX
 70
     0
  9
$DIMSOXD
 70
     0
  9
$DIMSAH
 70
     0
  9
$DIMBLK1
  1

  9
$DIMBLK2
  1

  9
$DIMSTYLE
  2
ISO-25
  9
$DIMCLRD
 70
   256
  9
$DIMCLRE
 70
   256
  9
$DIMCLRT
 70
     0
  9
$DIMTFAC
 40
1.0
  9
$DIMGAP
 40
3.0
  9
$DIMJUST
 70
     0
  9
$DIMSD1
 70
     0
  9
$DIMSD2
 70
     0
  9
$DIMTOLJ
 70
     0
  9
$DIMTZIN
 70
     8
  9
$DIMALTZ
 70
     0
  9
$DIMALTTZ
 70
     0
  9
$DIMUPT
 70
     0
  9
$DIMDEC
 70
     2
  9
$DIMTDEC
 70
     2
  9
$DIMALTU
 70
     2
  9
$DIMALTTD
 70
     3
  9
$DIMTXSTY
  7
Standard
  9
$DIMAUNIT
 70
     0
  9
$DIMADEC
 70
     0
  9
$DIMALTRND
 40
0.0
  9
$DIMAZIN
 70
     0
  9
$DIMDSEP
 70
    44
  9
$DIMATFIT
 70
     3
  9
$DIMFRAC
 70
     0
  9
$DIMLDRBLK
  1

  9
$DIMLUNIT
 70
     2
  9
$DIMLWD
 70
     5
  9
$DIMLWE
 70
     5
  9
$DIMTMOVE
 70
     0
  9
$LUNITS
 70
     2
  9
$LUPREC
 70
     4
  9
$SKETCHINC
 40
0.1
  9
$FILLETRAD
 40
40.0
  9
$AUNITS
 70
     0
  9
$AUPREC
 70
     0
  9
$MENU
  1
.
  9
$ELEVATION
 40
0.0
  9
$PELEVATION
 40
0.0
  9
$THICKNESS
 40
0.0
  9
$LIMCHECK
 70
     0
  9
$CHAMFERA
 40
0.0
  9
$CHAMFERB
 40
0.0
  9
$CHAMFERC
 40
0.0
  9
$CHAMFERD
 40
0.0
  9
$SKPOLY
 70
     0
  9
$TDCREATE
 40
2453580.637584630
  9
$TDUCREATE
 40
2453580.304251297
  9
$TDUPDATE
 40
2455233.717875428
  9
$TDUUPDATE
 40
2455233.384542095
  9
$TDINDWG
 40
0.1415418750
  9
$TDUSRTIMER
 40
0.1415418750
  9
$USRTIMER
 70
     1
  9
$ANGBASE
 50
0.0
  9
$ANGDIR
 70
     0
  9
$PDMODE
 70
     0
  9
$PDSIZE
 40
0.0
  9
$PLINEWID
 40
0.0
  9
$SPLFRAME
 70
     0
  9
$SPLINETYPE
 70
     6
  9
$SPLINESEGS
 70
     8
  9
$HANDSEED
  5
1686
  9
$SURFTAB1
 70
     6
  9
$SURFTAB2
 70
     6
  9
$SURFTYPE
 70
     6
  9
$SURFU
 70
     6
  9
$SURFV
 70
     6
  9
$UCSBASE
  2

  9
$UCSNAME
  2

  9
$UCSORG
 10
0.0
 20
0.0
 30
0.0
  9
$UCSXDIR
 10
1.0
 20
0.0
 30
0.0
  9
$UCSYDIR
 10
0.0
 20
1.0
 30
0.0
  9
$UCSORTHOREF
  2

  9
$UCSORTHOVIEW
 70
     1
  9
$UCSORGTOP
 10
0.0
 20
0.0
 30
0.0
  9
$UCSORGBOTTOM
 10
0.0
 20
0.0
 30
0.0
  9
$UCSORGLEFT
 10
0.0
 20
0.0
 30
0.0
  9
$UCSORGRIGHT
 10
0.0
 20
0.0
 30
0.0
  9
$UCSORGFRONT
 10
0.0
 20
0.0
 30
0.0
  9
$UCSORGBACK
 10
0.0
 20
0.0
 30
0.0
  9
$PUCSBASE
  2

  9
$PUCSNAME
  2

  9
$PUCSORG
 10
0.0
 20
0.0
 30
0.0
  9
$PUCSXDIR
 10
1.0
 20
0.0
 30
0.0
  9
$PUCSYDIR
 10
0.0
 20
1.0
 30
0.0
  9
$PUCSORTHOREF
  2

  9
$PUCSORTHOVIEW
 70
     0
  9
$PUCSORGTOP
 10
0.0
 20
0.0
 30
0.0
  9
$PUCSORGBOTTOM
 10
0.0
 20
0.0
 30
0.0
  9
$PUCSORGLEFT
 10
0.0
 20
0.0
 30
0.0
  9
$PUCSORGRIGHT
 10
0.0
 20
0.0
 30
0.0
  9
$PUCSORGFRONT
 10
0.0
 20
0.0
 30
0.0
  9
$PUCSORGBACK
 10
0.0
 20
0.0
 30
0.0
  9
$USERI1
 70
     0
  9
$USERI2
 70
     0
  9
$USERI3
 70
     0
  9
$USERI4
 70
     0
  9
$USERI5
 70
     0
  9
$USERR1
 40
0.0
  9
$USERR2
 40
0.0
  9
$USERR3
 40
0.0
  9
$USERR4
 40
0.0
  9
$USERR5
 40
0.0
  9
$WORLDVIEW
 70
     1
  9
$SHADEDGE
 70
     3
  9
$SHADEDIF
 70
    70
  9
$TILEMODE
 70
     1
  9
$MAXACTVP
 70
    64
  9
$PINSBASE
 10
0.0
 20
0.0
 30
0.0
  9
$PLIMCHECK
 70
     0
  9
$PEXTMIN
 10
0.0
 20
0.0
 30
0.0
  9
$PEXTMAX
 10
0.0
 20
0.0
 30
0.0
  9
$PLIMMIN
 10
0.0
 20
0.0
  9
$PLIMMAX
 10
12.0
 20
9.0
  9
$UNITMODE
 70
     0
  9
$VISRETAIN
 70
     1
  9
$PLINEGEN
 70
     0
  9
$PSLTSCALE
 70
     1
  9
$TREEDEPTH
 70
  3020
  9
$CMLSTYLE
  2
Standard
  9
$CMLJUST
 70
     0
  9
$CMLSCALE
 40
1.0
  9
$PROXYGRAPHICS
 70
     1
  9
$MEASUREMENT
 70
     0
  9
$CELWEIGHT
370
    -1
  9
$ENDCAPS
280
     0
  9
$JOINSTYLE
280
     0
  9
$LWDISPLAY
290
     0
  9
$INSUNITS
 70
     1
  9
$HYPERLINKBASE
  1

  9
$STYLESHEET
  1
monochrome.ctb
  9
$XEDIT
290
     1
  9
$CEPSNTYPE
380
     0
  9
$PSTYLEMODE
290
     1
  9
$FINGERPRINTGUID
  2
{FDEAD576-A652-11D2-9A35-0060089B3A3F}
  9
$VERSIONGUID
  2
{086F321C-3295-4233-AE80-2AE08D307642}
  9
$EXTNAMES
290
     1
  9
$PSVPSCALE
 40
0.0
  9
$OLESTARTUP
290
     0
  0
ENDSEC
  0
SECTION
  2
CLASSES
  0
CLASS
  1
ACDBDICTIONARYWDFLT
  2
AcDbDictionaryWithDefault
  3
ObjectDBX Classes
 90
        0
280
     0
281
     0
  0
CLASS
  1
ACDBPLACEHOLDER
  2
AcDbPlaceHolder
  3
ObjectDBX Classes
 90
        0
280
     0
281
     0
  0
CLASS
  1
LAYOUT
  2
AcDbLayout
  3
ObjectDBX Classes
 90
        0
280
     0
281
     0
  0
CLASS
  1
DICTIONARYVAR
  2
AcDbDictionaryVar
  3
ObjectDBX Classes
 90
        0
280
     0
281
     0
  0
CLASS
  1
DIMASSOC
  2
AcDbDimAssoc
  3
"AcDbDimAssoc|Product Desc:     AcDim ARX App For Dimension|Company:          Autodesk, Inc.|WEB Address:      www.autodesk.com"
 90
        0
280
     0
281
     0
  0
CLASS
  1
TABLESTYLE
  2
AcDbTableStyle
  3
ObjectDBX Classes
 90
     2047
280
     0
281
     0
  0
CLASS
  1
SORTENTSTABLE
  2
AcDbSortentsTable
  3
ObjectDBX Classes
 90
        0
280
     0
281
     0
  0
ENDSEC
  0
SECTION
  2
TABLES
  0
TABLE
  2
VPORT
  5
8
330
0
100
AcDbSymbolTable
 70
     2
  0
VPORT
  5
167B
330
8
100
AcDbSymbolTableRecord
100
AcDbViewportTableRecord
  2
*Active
 70
     0
 10
0.0
 20
0.0
 11
1.0
 21
1.0
 12
1943.592167523431
 22
2092.446092269777
 13
0.0
 23
0.0
 14
0.5
 24
0.5
 15
0.5
 25
0.5
 16
0.0
 26
0.0
 36
1.0
 17
0.0
 27
0.0
 37
0.0
 40
571.8054108148053
 41
1.586251621271076
 42
50.0
 43
0.0
 44
0.0
 50
0.0
 51
0.0
 71
     0
 72
  1000
 73
     1
 74
     3
 75
     0
 76
     0
 77
     0
 78
     0
281
     0
 65
     1
110
0.0
120
0.0
130
0.0
111
1.0
121
0.0
131
0.0
112
0.0
122
1.0
132
0.0
 79
     1
146
0.0
  0
ENDTAB
  0
TABLE
  2
LTYPE
  5
5
330
0
100
AcDbSymbolTable
 70
     4
  0
LTYPE
  5
14
330
5
100
AcDbSymbolTableRecord
100
AcDbLinetypeTableRecord
  2
ByBlock
 70
     0
  3

 72
    65
 73
     0
 40
0.0
  0
LTYPE
  5
15
330
5
100
AcDbSymbolTableRecord
100
AcDbLinetypeTableRecord
  2
ByLayer
 70
     0
  3

 72
    65
 73
     0
 40
0.0
  0
LTYPE
  5
16
330
5
100
AcDbSymbolTableRecord
100
AcDbLinetypeTableRecord
  2
Continuous
 70
     0
  3
Solid line
 72
    65
 73
     0
 40
0.0
  0
LTYPE
  5
2E0
330
5
100
AcDbSymbolTableRecord
100
AcDbLinetypeTableRecord
  2
ACAD_ISO10W100
 70
     0
  3
ISO dash dot __ . __ . __ . __ . __ . __ . __ .
 72
    65
 73
     4
 40
18.0
 49
12.0
 74
     0
 49
-3.0
 74
     0
 49
0.0
 74
     0
 49
-3.0
 74
     0
  0
LTYPE
  5
10B0
330
5
100
AcDbSymbolTableRecord
100
AcDbLinetypeTableRecord
  2
CENTER2
 70
     0
  3
Center (.5x) ___ _ ___ _ ___ _ ___ _ ___ _ ___
 72
    65
 73
     4
 40
28.575
 49
19.05
 74
     0
 49
-3.174999999999999
 74
     0
 49
3.174999999999999
 74
     0
 49
-3.174999999999999
 74
     0
  0
LTYPE
  5
10B1
330
5
100
AcDbSymbolTableRecord
100
AcDbLinetypeTableRecord
  2
HIDDEN2
 70
     0
  3
Hidden (.5x) _ _ _ _ _ _ _ _ _ _ _ _ _ _ _ _ _
 72
    65
 73
     2
 40
4.762499999999999
 49
3.174999999999999
 74
     0
 49
-1.587499999999999
 74
     0
  0
ENDTAB
  0
TABLE
  2
LAYER
  5
2
102
{ACAD_XDICTIONARY
360
2E1
102
}
330
0
100
AcDbSymbolTable
 70
     7
  0
LAYER
  5
10
330
2
100
AcDbSymbolTableRecord
100
AcDbLayerTableRecord
  2
0
 70
     0
 62
     7
  6
Continuous
370
    -3
390
F
  0
LAYER
  5
CB
330
2
100
AcDbSymbolTableRecord
100
AcDbLayerTableRecord
  2
Defpoints
 70
     0
 62
     7
  6
Continuous
290
     0
370
    -3
390
F
  0
LAYER
  5
CC
330
2
100
AcDbSymbolTableRecord
100
AcDbLayerTableRecord
  2
Title Block
 70
     0
 62
     7
  6
Continuous
370
    -3
390
F
  0
LAYER
  5
10B2
330
2
100
AcDbSymbolTableRecord
100
AcDbLayerTableRecord
  2
标注线
 70
     0
 62
     6
  6
Continuous
370
    -3
390
F
  0
LAYER
  5
10B3
330
2
100
AcDbSymbolTableRecord
100
AcDbLayerTableRecord
  2
中心线
 70
     0
 62
     1
  6
CENTER2
370
    -3
390
F
  0
LAYER
  5
10B4
330
2
100
AcDbSymbolTableRecord
100
AcDbLayerTableRecord
  2
虚线
 70
     0
 62
     3
  6
HIDDEN2
370
    -3
390
F
  0
LAYER
  5
10B5
330
2
100
AcDbSymbolTableRecord
100
AcDbLayerTableRecord
  2
细实线
 70
     0
 62
     7
  6
Continuous
370
    -3
390
F
  0
ENDTAB
  0
TABLE
  2
STYLE
  5
3
330
0
100
AcDbSymbolTable
 70
     2
  0
STYLE
  5
11
330
3
100
AcDbSymbolTableRecord
100
AcDbTextStyleTableRecord
  2
Standard
 70
     0
 40
0.0
 41
1.0
 50
0.0
 71
     0
 42
0.2
  3
TIMES.TTF
  4

1001
ACAD
1000
Times New Roman
1071
       18
  0
STYLE
  5
CD
330
3
100
AcDbSymbolTableRecord
100
AcDbTextStyleTableRecord
  2
Roman
 70
     0
 40
0.0
 41
1.0
 50
0.0
 71
     0
 42
0.065
  3
romans
  4

  0
ENDTAB
  0
TABLE
  2
VIEW
  5
6
330
0
100
AcDbSymbolTable
 70
     0
  0
ENDTAB
  0
TABLE
  2
UCS
  5
7
330
0
100
AcDbSymbolTable
 70
     0
  0
ENDTAB
  0
TABLE
  2
APPID
  5
9
330
0
100
AcDbSymbolTable
 70
     9
  0
APPID
  5
12
330
9
100
AcDbSymbolTableRecord
100
AcDbRegAppTableRecord
  2
ACAD
 70
     0
  0
APPID
  5
4B3
330
9
100
AcDbSymbolTableRecord
100
AcDbRegAppTableRecord
  2
ACAD_DSTYLE_DIMTEXT_FILL
 70
     0
  0
APPID
  5
4B4
330
9
100
AcDbSymbolTableRecord
100
AcDbRegAppTableRecord
  2
ACAD_DSTYLE_DIMEXT_LENGTH
 70
     0
  0
APPID
  5
4B5
330
9
100
AcDbSymbolTableRecord
100
AcDbRegAppTableRecord
  2
ACAD_DSTYLE_DIMEXT_ENABLED
 70
     0
  0
APPID
  5
4B6
330
9
100
AcDbSymbolTableRecord
100
AcDbRegAppTableRecord
  2
ACAD_DSTYLE_DIM_LINETYPE
 70
     0
  0
APPID
  5
4B7
330
9
100
AcDbSymbolTableRecord
100
AcDbRegAppTableRecord
  2
ACAD_DSTYLE_DIM_EXT1_LINETYPE
 70
     0
  0
APPID
  5
4B8
330
9
100
AcDbSymbolTableRecord
100
AcDbRegAppTableRecord
  2
ACAD_DSTYLE_DIM_EXT2_LINETYPE
 70
     0
  0
APPID
  5
574
330
9
100
AcDbSymbolTableRecord
100
AcDbRegAppTableRecord
  2
ACAD_DSTYLE_DIMJOGGED_JOGANGLE_SYMBOL
 70
     0
  0
APPID
  5
638
330
9
100
AcDbSymbolTableRecord
100
AcDbRegAppTableRecord
  2
ACAD_DSTYLE_DIMARC_LENGTH_SYMBOL
 70
     0
  0
ENDTAB
  0
TABLE
  2
DIMSTYLE
  5
A
330
0
100
AcDbSymbolTable
 70
     2
100
AcDbDimStyleTable
 71
     1
340
CE
  0
DIMSTYLE
105
27
330
A
100
AcDbSymbolTableRecord
100
AcDbDimStyleTableRecord
  2
Standard
 70
     0
340
11
  0
DIMSTYLE
105
CE
102
{ACAD_REACTORS
330
B72
330
B73
330
B74
330
B75
330
BCE
102
}
330
A
100
AcDbSymbolTableRecord
100
AcDbDimStyleTableRecord
  2
ISO-25
 70
     0
 41
15.0
 42
0.625
 43
3.75
 44
1.25
 73
     0
 77
     1
 78
     8
140
20.0
141
15.0
143
0.03937007874016
147
3.0
171
     3
172
     1
176
   256
177
   256
271
     2
272
     2
274
     3
278
    44
283
     0
284
     8
340
11
371
     5
372
     5
1001
ACAD_DSTYLE_DIMEXT_LENGTH
1070
   378
1040
1.25
1001
ACAD_DSTYLE_DIMEXT_ENABLED
1070
   383
1070
     0
1001
ACAD_DSTYLE_DIMARC_LENGTH_SYMBOL
1070
   379
1070
     0
1001
ACAD_DSTYLE_DIMJOGGED_JOGANGLE_SYMBOL
1070
   384
1040
0.7853981633974483
  0
ENDTAB
  0
TABLE
  2
BLOCK_RECORD
  5
1
330
0
100
AcDbSymbolTable
 70
     8
  0
BLOCK_RECORD
  5
1F
102
{ACAD_XDICTIONARY
360
2C6
102
}
330
1
100
AcDbSymbolTableRecord
100
AcDbBlockTableRecord
  2
*Model_Space
340
22
  0
BLOCK_RECORD
  5
58
330
1
100
AcDbSymbolTableRecord
100
AcDbBlockTableRecord
  2
*Paper_Space
340
59
  0
BLOCK_RECORD
  5
5D
330
1
100
AcDbSymbolTableRecord
100
AcDbBlockTableRecord
  2
*Paper_Space0
340
5E
  0
BLOCK_RECORD
  5
B7A
330
1
100
AcDbSymbolTableRecord
100
AcDbBlockTableRecord
  2
*D1
340
0
  0
BLOCK_RECORD
  5
B86
330
1
100
AcDbSymbolTableRecord
100
AcDbBlockTableRecord
  2
*D2
340
0
  0
BLOCK_RECORD
  5
B92
330
1
100
AcDbSymbolTableRecord
100
AcDbBlockTableRecord
  2
*D3
340
0
  0
BLOCK_RECORD
  5
B9E
330
1
100
AcDbSymbolTableRecord
100
AcDbBlockTableRecord
  2
*D4
340
0
  0
BLOCK_RECORD
  5
BCF
330
1
100
AcDbSymbolTableRecord
100
AcDbBlockTableRecord
  2
*D5
340
0
  0
BLOCK_RECORD
  5
10B6
102
{ACAD_XDICTIONARY
360
1112
102
}
330
1
100
AcDbSymbolTableRecord
100
AcDbBlockTableRecord
  2
A$C41E53A2A
340
0
1001
ACAD
1000
DesignCenter Data
1002
{
1070
     1
1070
     1
1002
}
  0
BLOCK_RECORD
  5
14F4
102
{ACAD_XDICTIONARY
360
154E
102
}
330
1
100
AcDbSymbolTableRecord
100
AcDbBlockTableRecord
  2
A$C2A8C5988
340
0
1001
ACAD
1000
DesignCenter Data
1002
{
1070
     1
1070
     1
1002
}
  0
ENDTAB
  0
ENDSEC
  0
SECTION
  2
BLOCKS
  0
BLOCK
  5
20
330
1F
100
AcDbEntity
  8
0
100
AcDbBlockBegin
  2
*Model_Space
 70
     0
 10
0.0
 20
0.0
 30
0.0
  3
*Model_Space
  1

  0
ENDBLK
  5
21
330
1F
100
AcDbEntity
  8
0
100
AcDbBlockEnd
  0
BLOCK
  5
5A
330
58
100
AcDbEntity
 67
     1
  8
0
100
AcDbBlockBegin
  2
*Paper_Space
 70
     0
 10
0.0
 20
0.0
 30
0.0
  3
*Paper_Space
  1

  0
ENDBLK
  5
5B
330
58
100
AcDbEntity
 67
     1
  8
0
100
AcDbBlockEnd
  0
BLOCK
  5
5F
330
5D
100
AcDbEntity
 67
     1
  8
0
100
AcDbBlockBegin
  2
*Paper_Space0
 70
     0
 10
0.0
 20
0.0
 30
0.0
  3
*Paper_Space0
  1

  0
ENDBLK
  5
60
330
5D
100
AcDbEntity
 67
     1
  8
0
100
AcDbBlockEnd
  0
BLOCK
  5
B84
330
B7A
100
AcDbEntity
  8
0
100
AcDbBlockBegin
  2
*D1
 70
     1
 10
0.0
 20
0.0
 30
0.0
  3
*D1
  1

  0
LINE
  5
DA9
330
B7A
100
AcDbEntity
  8
0
370
     5
100
AcDbLine
 10
2143.624482627546
 20
2376.097430009133
 30
0.0
 11
2289.882760152402
 21
2376.097430009133
 31
0.0
  0
LINE
  5
DAA
330
B7A
100
AcDbEntity
  8
0
370
     5
100
AcDbLine
 10
2135.641900394002
 20
1920.097430009133
 30
0.0
 11
2289.882760152402
 21
1920.097430009133
 31
0.0
  0
LINE
  5
DAB
330
B7A
100
AcDbEntity
  8
0
370
     5
100
AcDbLine
 10
2288.632760152403
 20
2361.097430009134
 30
0.0
 11
2288.632760152403
 21
1935.097430009133
 31
0.0
  0
SOLID
  5
DAC
330
B7A
100
AcDbEntity
  8
0
100
AcDbTrace
 10
2286.132760152402
 20
2361.097430009134
 30
0.0
 11
2291.132760152402
 21
2361.097430009134
 31
0.0
 12
2288.632760152403
 22
2376.097430009133
 32
0.0
 13
2288.632760152403
 23
2376.097430009133
 33
0.0
  0
SOLID
  5
DAD
330
B7A
100
AcDbEntity
  8
0
100
AcDbTrace
 10
2286.132760152402
 20
1935.097430009133
 30
0.0
 11
2291.132760152402
 21
1935.097430009133
 31
0.0
 12
2288.632760152403
 22
1920.097430009133
 32
0.0
 13
2288.632760152403
 23
1920.097430009133
 33
0.0
  0
MTEXT
  5
DAE
330
B7A
100
AcDbEntity
  8
0
 62
     0
100
AcDbMText
 10
2272.222522228826
 20
2148.097430009133
 30
0.0
 40
20.0
 41
0.0
 71
     5
 72
     1
  1
457mm(18")
 11
0.0000000000000001
 21
1.0
 31
0.0
 73
     1
 44
1.0
1001
ACAD
1000
MTEXTBEGIN
1070
    73
1070
     1
1070
    44
1040
1.0
1070
    74
1070
     0
1000
MTEXTEND
  0
POINT
  5
DAF
330
B7A
100
AcDbEntity
  8
Defpoints
 62
     0
100
AcDbPoint
 10
2142.999482627546
 20
2376.097430009133
 30
0.0
  0
POINT
  5
DB0
330
B7A
100
AcDbEntity
  8
Defpoints
 62
     0
100
AcDbPoint
 10
2135.016900394002
 20
1920.097430009133
 30
0.0
  0
POINT
  5
DB1
330
B7A
100
AcDbEntity
  8
Defpoints
 62
     0
100
AcDbPoint
 10
2288.632760152403
 20
1920.097430009133
 30
0.0
  0
ENDBLK
  5
B85
330
B7A
100
AcDbEntity
  8
0
100
AcDbBlockEnd
  0
BLOCK
  5
B90
330
B86
100
AcDbEntity
  8
0
100
AcDbBlockBegin
  2
*D2
 70
     1
 10
0.0
 20
0.0
 30
0.0
  3
*D2
  1

  0
LINE
  5
DB2
330
B86
100
AcDbEntity
  8
0
370
     5
100
AcDbLine
 10
1595.996652075772
 20
1957.476168547888
 30
0.0
 11
1595.996652075772
 21
1810.025315408316
 31
0.0
  0
LINE
  5
DB3
330
B86
100
AcDbEntity
  8
0
370
     5
100
AcDbLine
 10
2180.996652075773
 20
1965.603487127651
 30
0.0
 11
2180.996652075773
 21
1810.025315408316
 31
0.0
  0
LINE
  5
DB4
330
B86
100
AcDbEntity
  8
0
370
     5
100
AcDbLine
 10
1610.996652075772
 20
1811.275315408316
 30
0.0
 11
2165.996652075773
 21
1811.275315408316
 31
0.0
  0
SOLID
  5
DB5
330
B86
100
AcDbEntity
  8
0
100
AcDbTrace
 10
1610.996652075772
 20
1813.775315408317
 30
0.0
 11
1610.996652075772
 21
1808.775315408317
 31
0.0
 12
1595.996652075772
 22
1811.275315408316
 32
0.0
 13
1595.996652075772
 23
1811.275315408316
 33
0.0
  0
SOLID
  5
DB6
330
B86
100
AcDbEntity
  8
0
100
AcDbTrace
 10
2165.996652075773
 20
1813.775315408317
 30
0.0
 11
2165.996652075773
 21
1808.775315408317
 31
0.0
 12
2180.996652075773
 22
1811.275315408316
 32
0.0
 13
2180.996652075773
 23
1811.275315408316
 33
0.0
  0
MTEXT
  5
DB7
330
B86
100
AcDbEntity
  8
0
 62
     0
100
AcDbMText
 10
1888.496652075773
 20
1827.685553331892
 30
0.0
 40
20.0
 41
0.0
 71
     5
 72
     1
  1
585mm(23")
 73
     1
 44
1.0
1001
ACAD
1000
MTEXTBEGIN
1070
    73
1070
     1
1070
    44
1040
1.0
1070
    74
1070
     0
1000
MTEXTEND
  0
POINT
  5
DB8
330
B86
100
AcDbEntity
  8
Defpoints
 62
     0
100
AcDbPoint
 10
1595.996652075772
 20
1958.101168547888
 30
0.0
  0
POINT
  5
DB9
330
B86
100
AcDbEntity
  8
Defpoints
 62
     0
100
AcDbPoint
 10
2180.996652075773
 20
1966.228487127651
 30
0.0
  0
POINT
  5
DBA
330
B86
100
AcDbEntity
  8
Defpoints
 62
     0
100
AcDbPoint
 10
2180.996652075773
 20
1811.275315408316
 30
0.0
  0
ENDBLK
  5
B91
330
B86
100
AcDbEntity
  8
0
100
AcDbBlockEnd
  0
BLOCK
  5
B9C
330
B92
100
AcDbEntity
  8
0
100
AcDbBlockBegin
  2
*D3
 70
     1
 10
0.0
 20
0.0
 30
0.0
  3
*D3
  1

  0
LINE
  5
DBB
330
B92
100
AcDbEntity
  8
0
370
     5
100
AcDbLine
 10
2105.546923430208
 20
2351.097430009133
 30
0.0
 11
2235.405766567833
 21
2351.097430009133
 31
0.0
  0
LINE
  5
DBC
330
B92
100
AcDbEntity
  8
0
370
     5
100
AcDbLine
 10
2112.057019312491
 20
1945.097430009133
 30
0.0
 11
2235.405766567833
 21
1945.097430009133
 31
0.0
  0
LINE
  5
DBD
330
B92
100
AcDbEntity
  8
0
370
     5
100
AcDbLine
 10
2234.155766567833
 20
2336.097430009133
 30
0.0
 11
2234.155766567833
 21
1960.097430009133
 31
0.0
  0
SOLID
  5
DBE
330
B92
100
AcDbEntity
  8
0
100
AcDbTrace
 10
2231.655766567834
 20
2336.097430009133
 30
0.0
 11
2236.655766567833
 21
2336.097430009133
 31
0.0
 12
2234.155766567833
 22
2351.097430009133
 32
0.0
 13
2234.155766567833
 23
2351.097430009133
 33
0.0
  0
SOLID
  5
DBF
330
B92
100
AcDbEntity
  8
0
100
AcDbTrace
 10
2231.655766567834
 20
1960.097430009133
 30
0.0
 11
2236.655766567833
 21
1960.097430009133
 31
0.0
 12
2234.155766567833
 22
1945.097430009133
 32
0.0
 13
2234.155766567833
 23
1945.097430009133
 33
0.0
  0
MTEXT
  5
DC0
330
B92
100
AcDbEntity
  8
0
 62
     0
100
AcDbMText
 10
2217.745528644257
 20
2148.097430009133
 30
0.0
 40
20.0
 41
0.0
 71
     5
 72
     1
  1
406mm(16")
 11
0.0000000000000001
 21
1.0
 31
0.0
 73
     1
 44
1.0
1001
ACAD
1000
MTEXTBEGIN
1070
    73
1070
     1
1070
    44
1040
1.0
1070
    74
1070
     0
1000
MTEXTEND
  0
POINT
  5
DC1
330
B92
100
AcDbEntity
  8
Defpoints
 62
     0
100
AcDbPoint
 10
2104.921923430208
 20
2351.097430009133
 30
0.0
  0
POINT
  5
DC2
330
B92
100
AcDbEntity
  8
Defpoints
 62
     0
100
AcDbPoint
 10
2111.432019312491
 20
1945.097430009133
 30
0.0
  0
POINT
  5
DC3
330
B92
100
AcDbEntity
  8
Defpoints
 62
     0
100
AcDbPoint
 10
2234.155766567833
 20
1945.097430009133
 30
0.0
  0
ENDBLK
  5
B9D
330
B92
100
AcDbEntity
  8
0
100
AcDbBlockEnd
  0
BLOCK
  5
BA8
330
B9E
100
AcDbEntity
  8
0
100
AcDbBlockBegin
  2
*D4
 70
     1
 10
0.0
 20
0.0
 30
0.0
  3
*D4
  1

  0
LINE
  5
DC4
330
B9E
100
AcDbEntity
  8
0
370
     5
100
AcDbLine
 10
1620.996652075772
 20
1983.344039073332
 30
0.0
 11
1620.996652075772
 21
1861.856096568081
 31
0.0
  0
LINE
  5
DC5
330
B9E
100
AcDbEntity
  8
0
370
     5
100
AcDbLine
 10
2155.996652075772
 20
1989.912154252233
 30
0.0
 11
2155.996652075772
 21
1861.856096568081
 31
0.0
  0
LINE
  5
DC6
330
B9E
100
AcDbEntity
  8
0
370
     5
100
AcDbLine
 10
1635.996652075772
 20
1863.106096568081
 30
0.0
 11
2140.996652075773
 21
1863.106096568081
 31
0.0
  0
SOLID
  5
DC7
330
B9E
100
AcDbEntity
  8
0
100
AcDbTrace
 10
1635.996652075772
 20
1865.606096568081
 30
0.0
 11
1635.996652075772
 21
1860.606096568081
 31
0.0
 12
1620.996652075772
 22
1863.106096568081
 32
0.0
 13
1620.996652075772
 23
1863.106096568081
 33
0.0
  0
SOLID
  5
DC8
330
B9E
100
AcDbEntity
  8
0
100
AcDbTrace
 10
2140.996652075773
 20
1865.606096568081
 30
0.0
 11
2140.996652075773
 21
1860.606096568081
 31
0.0
 12
2155.996652075772
 22
1863.106096568081
 32
0.0
 13
2155.996652075772
 23
1863.106096568081
 33
0.0
  0
MTEXT
  5
DC9
330
B9E
100
AcDbEntity
  8
0
 62
     0
100
AcDbMText
 10
1888.496652075772
 20
1879.516334491657
 30
0.0
 40
20.0
 41
0.0
 71
     5
 72
     1
  1
535mm(21")
 73
     1
 44
1.0
1001
ACAD
1000
MTEXTBEGIN
1070
    73
1070
     1
1070
    44
1040
1.0
1070
    74
1070
     0
1000
MTEXTEND
  0
POINT
  5
DCA
330
B9E
100
AcDbEntity
  8
Defpoints
 62
     0
100
AcDbPoint
 10
1620.996652075772
 20
1983.969039073332
 30
0.0
  0
POINT
  5
DCB
330
B9E
100
AcDbEntity
  8
Defpoints
 62
     0
100
AcDbPoint
 10
2155.996652075772
 20
1990.537154252233
 30
0.0
  0
POINT
  5
DCC
330
B9E
100
AcDbEntity
  8
Defpoints
 62
     0
100
AcDbPoint
 10
2155.996652075772
 20
1863.106096568081
 30
0.0
  0
ENDBLK
  5
BA9
330
B9E
100
AcDbEntity
  8
0
100
AcDbBlockEnd
  0
BLOCK
  5
BD5
330
BCF
100
AcDbEntity
  8
0
100
AcDbBlockBegin
  2
*D5
 70
     1
 10
0.0
 20
0.0
 30
0.0
  3
*D5
  1

  0
LINE
  5
E20
330
BCF
100
AcDbEntity
  8
0
370
     5
100
AcDbLine
 10
1706.573886706909
 20
2269.152052687865
 30
0.0
 11
1647.352132156712
 21
2314.566159907873
 31
0.0
  0
MTEXT
  5
E21
330
BCF
100
AcDbEntity
  8
0
 62
     0
100
AcDbMText
 10
1693.312475384479
 20
2295.958297687522
 30
0.0
 40
20.0
 41
0.0
 71
     5
 72
     1
  1
R70
 11
0.7935367258010924
 21
-0.6085223617952606
 31
0.0
 73
     1
 44
1.0
1001
ACAD
1000
MTEXTBEGIN
1070
    73
1070
     1
1070
    44
1040
1.0
1070
    74
1070
     0
1000
MTEXTEND
  0
SOLID
  5
E22
330
BCF
100
AcDbEntity
  8
0
100
AcDbTrace
 10
1648.8734380612
 20
2316.550001722376
 30
0.0
 11
1645.830826252224
 21
2312.582318093371
 31
0.0
 12
1635.449081269696
 22
2323.693995334802
 32
0.0
 13
1635.449081269696
 23
2323.693995334802
 33
0.0
  0
POINT
  5
E23
330
BCF
100
AcDbEntity
  8
Defpoints
 62
     0
100
AcDbPoint
 10
1635.449081269696
 20
2323.693995334802
 30
0.0
  0
POINT
  5
E24
330
BCF
100
AcDbEntity
  8
Defpoints
 62
     0
100
AcDbPoint
 10
1690.996652075773
 20
2281.097430009133
 30
0.0
  0
ENDBLK
  5
BD6
330
BCF
100
AcDbEntity
  8
0
100
AcDbBlockEnd
  0
BLOCK
  5
1114
330
10B6
100
AcDbEntity
  8
0
100
AcDbBlockBegin
  2
A$C41E53A2A
 70
     0
 10
0.0
 20
0.0
 30
0.0
  3
A$C41E53A2A
  1

  0
MTEXT
  5
10B7
330
10B6
100
AcDbEntity
  8
虚线
 62
     7
370
    18
100
AcDbMText
 10
1147.760237450347
 20
195.9123689442021
 30
0.0
 40
10.19670098194105
 41
99.0531334788103
 71
     5
 72
     5
  1
{\fSimSun|b0|i0|c134|p2;\H0.9027x;UPDATE SYMBOL}
 73
     1
 44
1.0
1001
ACAD
1000
MTEXTBEGIN
1070
    73
1070
     1
1070
    44
1040
1.0
1070
    74
1070
     0
1000
MTEXTEND
  0
MTEXT
  5
10B8
330
10B6
100
AcDbEntity
  8
虚线
 62
     7
370
    18
100
AcDbMText
 10
1147.760237450347
 20
177.7130205157409
 30
0.0
 40
12.74587622742631
 41
99.05313347880934
 71
     5
 72
     5
  1
{\fSimSun|b0|i0|c134|p54;\H0.7222x;更改   标记}
 73
     1
 44
1.0
1001
ACAD
1000
MTEXTBEGIN
1070
    73
1070
     1
1070
    44
1040
1.0
1070
    74
1070
     0
1000
MTEXTEND
  0
MTEXT
  5
10B9
330
10B6
100
AcDbEntity
  8
虚线
 62
     7
370
    18
100
AcDbMText
 10
1135.868419447666
 20
155.3804957957363
 30
0.0
 40
12.74587622742631
 41
75.26949747344609
 71
     5
 72
     5
  1
{\fSimSun|b0|i0|c134|p2;DWN.}
 73
     1
 44
1.0
1001
ACAD
1000
MTEXTBEGIN
1070
    73
1070
     1
1070
    44
1040
1.0
1070
    74
1070
     0
1000
MTEXTEND
  0
MTEXT
  5
10BA
330
10B6
100
AcDbEntity
  8
虚线
 62
     7
370
    18
100
AcDbMText
 10
1135.868419447666
 20
135.1946632043764
 30
0.0
 40
13.17192597110637
 41
75.26949747344637
 71
     5
 72
     5
  1
{\fSimSun|b0|i0|c134|p54;制 图}
 73
     1
 44
1.0
1001
ACAD
1000
MTEXTBEGIN
1070
    73
1070
     1
1070
    44
1040
1.0
1070
    74
1070
     0
1000
MTEXTEND
  0
MTEXT
  5
10BB
330
10B6
100
AcDbEntity
  8
0
370
    -3
100
AcDbMText
 10
1135.868419447666
 20
87.84868292138709
 30
0.0
 40
13.17192597110637
 41
75.26949747344609
 71
     5
 72
     5
  1
{\fSimSun|b0|i0|c134|p54;\C7;审 核}
 73
     1
 44
1.0
1001
ACAD
1000
MTEXTBEGIN
1070
    73
1070
     1
1070
    44
1040
1.0
1070
    74
1070
     0
1000
MTEXTEND
  0
MTEXT
  5
10BC
330
10B6
100
AcDbEntity
  8
虚线
 62
     7
370
    18
100
AcDbMText
 10
1135.868419447666
 20
47.30923702931249
 30
0.0
 40
13.17192597110637
 41
75.26949747344598
 71
     5
 72
     5
  1
{\fSimSun|b0|i0|c134|p54;批 准}
 73
     1
 44
1.0
1001
ACAD
1000
MTEXTBEGIN
1070
    73
1070
     1
1070
    44
1040
1.0
1070
    74
1070
     0
1000
MTEXTEND
  0
MTEXT
  5
10BD
330
10B6
100
AcDbEntity
  8
虚线
370
    18
100
AcDbMText
 10
1135.868419447666
 20
66.29984097336637
 30
0.0
 40
12.74587622742631
 41
75.26949747344604
 71
     5
 72
     5
  1
{\fSimSun|b0|i0|c134|p2;\C7;APPD.}
 73
     1
 44
1.0
1001
ACAD
1000
MTEXTBEGIN
1070
    73
1070
     1
1070
    44
1040
1.0
1070
    74
1070
     0
1000
MTEXTEND
  0
LINE
  5
10BE
330
10B6
100
AcDbEntity
  8
0
370
    -3
100
AcDbLine
 10
1173.503168184384
 20
167.9995526378807
 30
0.0
 11
1173.503168184384
 21
34.05401742198228
 31
0.0
  0
MTEXT
  5
10BF
330
10B6
100
AcDbEntity
  8
0
370
    -3
100
AcDbMText
 10
1135.868419447666
 20
110.0646114970368
 30
0.0
 40
12.74587622742631
 41
75.26949747344604
 71
     5
 72
     5
  1
{\fSimSun|b0|i0|c134|p2;\C7;CKD.}
 73
     1
 44
1.0
1001
ACAD
1000
MTEXTBEGIN
1070
    73
1070
     1
1070
    44
1040
1.0
1070
    74
1070
     0
1000
MTEXTEND
  0
LINE
  5
10C0
330
10B6
100
AcDbEntity
  8
0
370
    60
100
AcDbLine
 10
1098.233670710939
 20
335.1311292576211
 30
0.0
 11
1098.233670710939
 21
34.05401742198228
 31
0.0
  0
LINE
  5
10C1
330
10B6
100
AcDbEntity
  8
0
370
    -3
100
AcDbLine
 10
1197.286804189753
 20
254.7518100046
 30
0.0
 11
1197.28680418975
 21
167.9995526378625
 31
0.0
  0
LINE
  5
10C2
330
10B6
100
AcDbEntity
  8
中心线
370
    -3
100
AcDbLine
 10
1749.005293407266
 20
98.85801757171066
 30
0.0
 11
1621.355015547036
 21
98.85801757171066
 31
0.0
  0
MTEXT
  5
10C3
330
10B6
100
AcDbEntity
  8
虚线
 62
     7
370
    18
100
AcDbMText
 10
1515.095338880973
 20
145.8707024401156
 30
0.0
 40
13.621608
 41
67.70591104972267
 71
     5
 72
     5
  1
{\fSimSun|b0|i0|c134|p2;1件}
 73
     1
 44
1.0
1001
ACAD
1000
MTEXTBEGIN
1070
    73
1070
     1
1070
    44
1040
1.0
1070
    74
1070
     0
1000
MTEXTEND
  0
MTEXT
  5
10C4
330
10B6
100
AcDbEntity
  8
虚线
 62
     7
370
    18
100
AcDbMText
 10
1592.464554889528
 20
156.9877053187338
 30
0.0
 40
12.7458762274263
 41
87.03252096738927
 71
     5
 72
     5
  1
{\fSimSun|b0|i0|c134|p2;MATERIAL}
 73
     1
 44
1.0
1001
ACAD
1000
MTEXTBEGIN
1070
    73
1070
     1
1070
    44
1040
1.0
1070
    74
1070
     0
1000
MTEXTEND
  0
MTEXT
  5
10C5
330
10B6
100
AcDbEntity
  8
虚线
 62
     7
370
    18
100
AcDbMText
 10
1592.464554889528
 20
135.9469739462947
 30
0.0
 40
13.17192597110637
 41
87.03252096738927
 71
     5
 72
     5
  1
{\fSimSun|b0|i0|c134|p54;材 料}
 73
     1
 44
1.0
1001
ACAD
1000
MTEXTBEGIN
1070
    73
1070
     1
1070
    44
1040
1.0
1070
    74
1070
     0
1000
MTEXTEND
  0
LINE
  5
10C6
330
10B6
100
AcDbEntity
  8
0
370
    -3
100
AcDbLine
 10
1548.948294405833
 20
167.9995526378625
 30
0.0
 11
1548.948294405833
 21
34.05401742198228
 31
0.0
  0
LINE
  5
10C7
330
10B6
100
AcDbEntity
  8
0
370
    60
100
AcDbLine
 10
1827.88013185901
 20
1260.627829428675
 30
0.0
 11
1827.88013185901
 21
34.05401742198228
 31
0.0
  0
MTEXT
  5
10C8
330
10B6
100
AcDbEntity
  8
虚线
 62
     7
370
    18
100
AcDbMText
 10
1681.258519356627
 20
286.9767145042933
 30
0.0
 40
10.19670098194105
 41
95.59407170564645
 71
     5
 72
     5
  1
{\fSimSun|b0|i0|c134|p2;MODEL NO.}
 73
     1
 44
1.0
1001
ACAD
1000
MTEXTBEGIN
1070
    73
1070
     1
1070
    44
1040
1.0
1070
    74
1070
     0
1000
MTEXTEND
  0
MTEXT
  5
10C9
330
10B6
100
AcDbEntity
  8
虚线
 62
     7
370
    18
100
AcDbMText
 10
1681.258519356627
 20
268.7051191128158
 30
0.0
 40
13.17192597110637
 41
95.59407170564641
 71
     5
 72
     5
  1
{\fSimSun|b0|i0|c134|p2;型 号}
 73
     1
 44
1.0
1001
ACAD
1000
MTEXTBEGIN
1070
    73
1070
     1
1070
    44
1040
1.0
1070
    74
1070
     0
1000
MTEXTEND
  0
LINE
  5
10CA
330
10B6
100
AcDbEntity
  8
0
370
    -3
100
AcDbLine
 10
1633.461483503801
 20
294.941469631136
 30
0.0
 11
1633.461483503801
 21
254.7518100046
 31
0.0
  0
LINE
  5
10CB
330
10B6
100
AcDbEntity
  8
0
370
    -3
100
AcDbLine
 10
1729.05555520945
 20
294.941469631136
 30
0.0
 11
1729.05555520945
 21
254.7518100046
 31
0.0
  0
MTEXT
  5
10CC
330
10B6
100
AcDbEntity
  8
虚线
 62
     7
370
    18
100
AcDbMText
 10
1483.164797958117
 20
306.9764799686563
 30
0.0
 40
13.17192597110637
 41
86.06383911965805
 71
     5
 72
     5
  1
{\fSimSun|b0|i0|c134|p54;描 述}
 73
     1
 44
1.0
1001
ACAD
1000
MTEXTBEGIN
1070
    73
1070
     1
1070
    44
1040
1.0
1070
    74
1070
     0
1000
MTEXTEND
  0
MTEXT
  5
10CD
330
10B6
100
AcDbEntity
  8
虚线
 62
     7
370
    18
100
AcDbMText
 10
1483.164797958121
 20
286.9391169533519
 30
0.0
 40
10.19670098194105
 41
86.06383911965933
 71
     5
 72
     5
  1
{\fSimSun|b0|i0|c134|p2;DWG. NO.}
 73
     1
 44
1.0
1001
ACAD
1000
MTEXTBEGIN
1070
    73
1070
     1
1070
    44
1040
1.0
1070
    74
1070
     0
1000
MTEXTEND
  0
MTEXT
  5
10CE
330
10B6
100
AcDbEntity
  8
虚线
 62
     7
370
    18
100
AcDbMText
 10
1483.164797958121
 20
269.8748888519804
 30
0.0
 40
13.17192597110637
 41
86.06383911966197
 71
     5
 72
     5
  1
{\fSimSun|b0|i0|c134|p54;图 号}
 73
     1
 44
1.0
1001
ACAD
1000
MTEXTBEGIN
1070
    73
1070
     1
1070
    44
1040
1.0
1070
    74
1070
     0
1000
MTEXTEND
  0
LINE
  5
10CF
330
10B6
100
AcDbEntity
  8
0
370
    -3
100
AcDbLine
 10
1440.13287839829
 20
228.2625263806658
 30
0.0
 11
1098.233670710939
 21
228.2625263806585
 31
0.0
  0
LINE
  5
10D0
330
10B6
100
AcDbEntity
  8
0
370
    -3
100
AcDbLine
 10
1440.13287839829
 20
254.7518100046
 30
0.0
 11
1098.233670710939
 21
254.7518100046
 31
0.0
  0
LINE
  5
10D1
330
10B6
100
AcDbEntity
  8
0
370
    -3
100
AcDbLine
 10
1526.196717517945
 20
335.1311292576211
 30
0.0
 11
1526.196717517958
 21
254.7518100046
 31
0.0
  0
MTEXT
  5
10D2
330
10B6
100
AcDbEntity
  8
虚线
 62
     7
370
    18
100
AcDbMText
 10
1483.164797958117
 20
326.5489391893461
 30
0.0
 40
10.19670098194105
 41
86.06383911965393
 71
     5
 72
     5
  1
{\fSimSun|b0|i0|c134|p2;DESCRIPTION}
 73
     1
 44
1.0
1001
ACAD
1000
MTEXTBEGIN
1070
    73
1070
     1
1070
    44
1040
1.0
1070
    74
1070
     0
1000
MTEXTEND
  0
LINE
  5
10D3
330
10B6
100
AcDbEntity
  8
0
370
    -3
100
AcDbLine
 10
1827.88013185901
 20
254.7518100046
 30
0.0
 11
1440.13287839829
 21
254.7518100046
 31
0.0
  0
LINE
  5
10D4
330
10B6
100
AcDbEntity
  8
0
370
    -3
100
AcDbLine
 10
1827.88013185901
 20
294.9414696311105
 30
0.0
 11
1440.13287839829
 21
294.9414696311105
 31
0.0
  0
LINE
  5
10D5
330
10B6
100
AcDbEntity
  8
0
370
    60
100
AcDbLine
 10
1827.88013185901
 20
335.1311292576211
 30
0.0
 11
1098.233670710939
 21
335.1311292576211
 31
0.0
  0
LINE
  5
10D6
330
10B6
100
AcDbEntity
  8
0
370
    -3
100
AcDbLine
 10
1686.911340872775
 20
85.07870569976512
 30
0.0
 11
1686.911340872775
 21
112.7309648664232
 31
0.0
  0
CIRCLE
  5
10D7
330
10B6
100
AcDbEntity
  8
0
370
    -3
100
AcDbCircle
 10
1731.055985250066
 20
98.85801757171066
 30
0.0
 40
13.77931187194604
  0
CIRCLE
  5
10D8
330
10B6
100
AcDbEntity
  8
0
370
    -3
100
AcDbCircle
 10
1731.055985250066
 20
98.85801757171066
 30
0.0
 40
6.889655935973022
  0
LINE
  5
10D9
330
10B6
100
AcDbEntity
  8
中心线
370
    -3
100
AcDbLine
 10
1731.055985250066
 20
80.90870941451795
 30
0.0
 11
1731.055985250066
 21
116.8073257289033
 31
0.0
  0
MTEXT
  5
10DA
330
10B6
100
AcDbEntity
  8
虚线
 62
     7
370
    18
100
AcDbMText
 10
1515.095338880973
 20
98.99306372799401
 30
0.0
 40
13.621608
 41
67.70591104972267
 71
     5
 72
     5
  1
{\fSimSun|b0|i0|c134|p2;1:1}
 73
     1
 44
1.0
1001
ACAD
1000
MTEXTBEGIN
1070
    73
1070
     1
1070
    44
1040
1.0
1070
    74
1070
     0
1000
MTEXTEND
  0
LINE
  5
10DB
330
10B6
100
AcDbEntity
  8
0
370
    -3
100
AcDbLine
 10
1626.987723297621
 20
91.96836163573607
 30
0.0
 11
1626.987723297621
 21
105.7629658676051
 31
0.0
  0
LINE
  5
10DC
330
10B6
100
AcDbEntity
  8
0
370
    -3
100
AcDbLine
 10
1686.911340872775
 20
85.07870569976512
 30
0.0
 11
1626.987723297621
 21
91.96836163573607
 31
0.0
  0
LINE
  5
10DD
330
10B6
100
AcDbEntity
  8
0
370
    -3
100
AcDbLine
 10
1626.987723297621
 20
105.7629658676051
 30
0.0
 11
1686.911340872775
 21
112.7309648664232
 31
0.0
  0
MTEXT
  5
10DE
330
10B6
100
AcDbEntity
  8
虚线
 62
     7
370
    18
100
AcDbMText
 10
1703.044832187719
 20
55.94322151199958
 30
0.0
 40
13.17192597110637
 41
25.44069223019861
 71
     1
 72
     5
  1
{\fSimSun|b0|i0|c134|p54;第}
 73
     1
 44
1.0
1001
ACAD
1000
MTEXTBEGIN
1070
    73
1070
     1
1070
    44
1040
1.0
1070
    74
1070
     0
1000
MTEXTEND
  0
MTEXT
  5
10DF
330
10B6
100
AcDbEntity
  8
虚线
 62
     7
370
    18
100
AcDbMText
 10
1742.415195470767
 20
52.89215462480569
 30
0.0
 40
13.17192597110637
 41
40.11586678673352
 71
     1
 72
     5
  1
{\fSimSun|b0|i0|c134|p2;(  )}
 73
     1
 44
1.0
1001
ACAD
1000
MTEXTBEGIN
1070
    73
1070
     1
1070
    44
1040
1.0
1070
    74
1070
     0
1000
MTEXTEND
  0
MTEXT
  5
10E0
330
10B6
100
AcDbEntity
  8
虚线
 62
     7
370
    18
100
AcDbMText
 10
1791.221564693779
 20
55.56625867149705
 30
0.0
 40
13.17192597110637
 41
36.65856716523467
 71
     1
 72
     5
  1
{\fSimSun|b0|i0|c134|p54;页}
 73
     1
 44
1.0
1001
ACAD
1000
MTEXTBEGIN
1070
    73
1070
     1
1070
    44
1040
1.0
1070
    74
1070
     0
1000
MTEXTEND
  0
MTEXT
  5
10E1
330
10B6
100
AcDbEntity
  8
虚线
 62
     7
370
    18
100
AcDbMText
 10
1657.360588695017
 20
55.28914160275599
 30
0.0
 40
13.17192597110637
 41
23.01701221864823
 71
     1
 72
     5
  1
{\fSimSun|b0|i0|c134|p54;页}
 73
     1
 44
1.0
1001
ACAD
1000
MTEXTBEGIN
1070
    73
1070
     1
1070
    44
1040
1.0
1070
    74
1070
     0
1000
MTEXTEND
  0
MTEXT
  5
10E2
330
10B6
100
AcDbEntity
  8
虚线
 62
     7
370
    18
100
AcDbMText
 10
1603.41978044807
 20
53.5522005284729
 30
0.0
 40
13.17192597110637
 41
43.50286927672699
 71
     1
 72
     5
  1
{\fSimSun|b0|i0|c134|p2;(  )}
 73
     1
 44
1.0
1001
ACAD
1000
MTEXTBEGIN
1070
    73
1070
     1
1070
    44
1040
1.0
1070
    74
1070
     0
1000
MTEXTEND
  0
MTEXT
  5
10E3
330
10B6
100
AcDbEntity
  8
虚线
 62
     7
370
    18
100
AcDbMText
 10
1557.80367092812
 20
55.47951212811677
 30
0.0
 40
13.17192597110637
 41
25.81082552866156
 71
     1
 72
     5
  1
{\fSimSun|b0|i0|c134|p54;共}
 73
     1
 44
1.0
1001
ACAD
1000
MTEXTBEGIN
1070
    73
1070
     1
1070
    44
1040
1.0
1070
    74
1070
     0
1000
MTEXTEND
  0
MTEXT
  5
10E4
330
10B6
100
AcDbEntity
  8
虚线
 62
     7
370
    18
100
AcDbMText
 10
1555.072389429918
 20
72.59607119524662
 30
0.0
 40
12.74587622742631
 41
35.70628935500624
 71
     1
 72
     5
  1
{\fSimSun|b0|i0|c134|p2;ALL}
 73
     1
 44
1.0
1001
ACAD
1000
MTEXTBEGIN
1070
    73
1070
     1
1070
    44
1040
1.0
1070
    74
1070
     0
1000
MTEXTEND
  0
MTEXT
  5
10E5
330
10B6
100
AcDbEntity
  8
虚线
 62
     7
370
    18
100
AcDbMText
 10
1657.645496899119
 20
72.07359810091657
 30
0.0
 40
12.74587622742631
 41
21.41665905572722
 71
     1
 72
     5
  1
{\fSimSun|b0|i0|c134|p2;PG}
 73
     1
 44
1.0
1001
ACAD
1000
MTEXTBEGIN
1070
    73
1070
     1
1070
    44
1040
1.0
1070
    74
1070
     0
1000
MTEXTEND
  0
MTEXT
  5
10E6
330
10B6
100
AcDbEntity
  8
虚线
 62
     7
370
    18
100
AcDbMText
 10
1699.488776334383
 20
71.84857038166956
 30
0.0
 40
12.74587622742631
 41
33.1020845473821
 71
     1
 72
     5
  1
{\fSimSun|b0|i0|c134|p2;LSN}
 73
     1
 44
1.0
1001
ACAD
1000
MTEXTBEGIN
1070
    73
1070
     1
1070
    44
1040
1.0
1070
    74
1070
     0
1000
MTEXTEND
  0
MTEXT
  5
10E7
330
10B6
100
AcDbEntity
  8
虚线
 62
     7
370
    18
100
AcDbMText
 10
1792.104030438294
 20
72.11880957750691
 30
0.0
 40
12.74587622742631
 41
35.77610142071755
 71
     1
 72
     5
  1
{\fSimSun|b0|i0|c134|p2;PG}
 73
     1
 44
1.0
1001
ACAD
1000
MTEXTBEGIN
1070
    73
1070
     1
1070
    44
1040
1.0
1070
    74
1070
     0
1000
MTEXTEND
  0
LINE
  5
10E8
330
10B6
100
AcDbEntity
  8
0
370
    -3
100
AcDbLine
 10
1635.980815373221
 20
167.9995526378698
 30
0.0
 11
1635.980815373221
 21
121.4369548976428
 31
0.0
  0
MTEXT
  5
10E9
330
10B6
100
AcDbEntity
  8
虚线
 62
     7
370
    18
100
AcDbMText
 10
1396.50901645553
 20
195.6136143036747
 30
0.0
 40
9.204478389447825
 41
87.24772388552347
 71
     5
 72
     5
  1
{\fSimSun|b0|i0|c134|p2;DATE}
 73
     1
 44
1.0
1001
ACAD
1000
MTEXTBEGIN
1070
    73
1070
     1
1070
    44
1040
1.0
1070
    74
1070
     0
1000
MTEXTEND
  0
MTEXT
  5
10EA
330
10B6
100
AcDbEntity
  8
虚线
 62
     7
370
    18
100
AcDbMText
 10
1396.50901645553
 20
177.6250607872716
 30
0.0
 40
9.204478389447825
 41
87.2477238855242
 71
     5
 72
     5
  1
{\fSimSun|b0|i0|c134|p54;日 期}
 73
     1
 44
1.0
1001
ACAD
1000
MTEXTBEGIN
1070
    73
1070
     1
1070
    44
1040
1.0
1070
    74
1070
     0
1000
MTEXTEND
  0
MTEXT
  5
10EB
330
10B6
100
AcDbEntity
  8
虚线
 62
     7
370
    18
100
AcDbMText
 10
1311.908197971712
 20
178.0110891163858
 30
0.0
 40
12.74587622742631
 41
81.9539130821089
 71
     5
 72
     5
  1
{\fSimSun|b0|i0|c134|p54;\H0.7222x;签 名}
 73
     1
 44
1.0
1001
ACAD
1000
MTEXTBEGIN
1070
    73
1070
     1
1070
    44
1040
1.0
1070
    74
1070
     0
1000
MTEXTEND
  0
MTEXT
  5
10EC
330
10B6
100
AcDbEntity
  8
虚线
 62
     7
370
    18
100
AcDbMText
 10
1234.109022810206
 20
177.8238758351035
 30
0.0
 40
12.74587622742631
 41
73.64443724090439
 71
     5
 72
     5
  1
{\fSimSun|b0|i0|c134|p54;\H0.7222x;处 数}
 73
     1
 44
1.0
1001
ACAD
1000
MTEXTBEGIN
1070
    73
1070
     1
1070
    44
1040
1.0
1070
    74
1070
     0
1000
MTEXTEND
  0
MTEXT
  5
10ED
330
10B6
100
AcDbEntity
  8
虚线
 62
     7
370
    18
100
AcDbMText
 10
1311.908197971712
 20
194.9659850880016
 30
0.0
 40
10.19670098194105
 41
81.95391308210682
 71
     5
 72
     5
  1
{\fSimSun|b0|i0|c134|p2;\H0.9027x;AUTOGRAPH}
 73
     1
 44
1.0
1001
ACAD
1000
MTEXTBEGIN
1070
    73
1070
     1
1070
    44
1040
1.0
1070
    74
1070
     0
1000
MTEXTEND
  0
MTEXT
  5
10EE
330
10B6
100
AcDbEntity
  8
虚线
 62
     7
370
    18
100
AcDbMText
 10
1444.755285592908
 20
155.93489869123
 30
0.0
 40
12.74587622742631
 41
72.9741955264095
 71
     5
 72
     5
  1
{\fSimSun|b0|i0|c134|p2;NUMBER}
 73
     1
 44
1.0
1001
ACAD
1000
MTEXTBEGIN
1070
    73
1070
     1
1070
    44
1040
1.0
1070
    74
1070
     0
1000
MTEXTEND
  0
MTEXT
  5
10EF
330
10B6
100
AcDbEntity
  8
虚线
 62
     7
370
    18
100
AcDbMText
 10
1444.539824985979
 20
135.9339071944705
 30
0.0
 40
13.17192597110637
 41
72.9741955264095
 71
     5
 72
     5
  1
{\fSimSun|b0|i0|c134|p54;数 量}
 73
     1
 44
1.0
1001
ACAD
1000
MTEXTBEGIN
1070
    73
1070
     1
1070
    44
1040
1.0
1070
    74
1070
     0
1000
MTEXTEND
  0
LINE
  5
10F0
330
10B6
100
AcDbEntity
  8
0
370
    -3
100
AcDbLine
 10
1440.13287839829
 20
203.0507122632916
 30
0.0
 11
1098.233670710939
 21
203.0507122632916
 31
0.0
  0
MTEXT
  5
10F1
330
10B6
100
AcDbEntity
  8
虚线
 62
     7
370
    18
100
AcDbMText
 10
1234.109022810206
 20
194.965985087998
 30
0.0
 40
10.19670098194105
 41
73.64443724090731
 71
     5
 72
     5
  1
{\fSimSun|b0|i0|c134|p2;\H0.9027x;POSITION}
 73
     1
 44
1.0
1001
ACAD
1000
MTEXTBEGIN
1070
    73
1070
     1
1070
    44
1040
1.0
1070
    74
1070
     0
1000
MTEXTEND
  0
MTEXT
  5
10F2
330
10B6
100
AcDbEntity
  8
虚线
 62
     7
370
    18
100
AcDbMText
 10
1444.755285592908
 20
89.0790339291998
 30
0.0
 40
13.17192597110637
 41
72.97419552640966
 71
     5
 72
     5
  1
{\fSimSun|b0|i0|c134|p54;比 例}
 73
     1
 44
1.0
1001
ACAD
1000
MTEXTBEGIN
1070
    73
1070
     1
1070
    44
1040
1.0
1070
    74
1070
     0
1000
MTEXTEND
  0
MTEXT
  5
10F3
330
10B6
100
AcDbEntity
  8
虚线
 62
     7
370
    18
100
AcDbMText
 10
1444.680478103723
 20
46.13033553007335
 30
0.0
 40
13.17192597110637
 41
72.92435861880744
 71
     5
 72
     5
  1
{\fSimSun|b0|i0|c134|p54;版 次}
 73
     1
 44
1.0
1001
ACAD
1000
MTEXTBEGIN
1070
    73
1070
     1
1070
    44
1040
1.0
1070
    74
1070
     0
1000
MTEXTEND
  0
LINE
  5
10F4
330
10B6
100
AcDbEntity
  8
0
370
    -3
100
AcDbLine
 10
1481.24238335611
 20
167.9995526378625
 30
0.0
 11
1481.24238335611
 21
34.05401742198228
 31
0.0
  0
MTEXT
  5
10F5
330
10B6
100
AcDbEntity
  8
虚线
 62
     7
370
    18
100
AcDbMText
 10
1444.755285592908
 20
63.92823495487755
 30
0.0
 40
12.74587622742631
 41
72.97419552640988
 71
     5
 72
     5
  1
{\fSimSun|b0|i0|c134|p2;REV.} 
 73
     1
 44
1.0
1001
ACAD
1000
MTEXTBEGIN
1070
    73
1070
     1
1070
    44
1040
1.0
1070
    74
1070
     0
1000
MTEXTEND
  0
LINE
  5
10F6
330
10B6
100
AcDbEntity
  8
0
370
    -3
100
AcDbLine
 10
1408.268187829701
 20
167.9995526378625
 30
0.0
 11
1408.268187829701
 21
34.05401742198228
 31
0.0
  0
LINE
  5
10F7
330
10B6
100
AcDbEntity
  8
0
370
    -3
100
AcDbLine
 10
1287.070112782014
 20
167.9995526378625
 30
0.0
 11
1287.070112782
 21
34.05401742198228
 31
0.0
  0
MTEXT
  5
10F8
330
10B6
100
AcDbEntity
  8
虚线
 62
     7
370
    18
100
AcDbMText
 10
1444.755285592908
 20
109.1586808245338
 30
0.0
 40
12.74587622742631
 41
72.97419552640916
 71
     5
 72
     5
  1
{\fSimSun|b0|i0|c134|p2;SCALE}
 73
     1
 44
1.0
1001
ACAD
1000
MTEXTBEGIN
1070
    73
1070
     1
1070
    44
1040
1.0
1070
    74
1070
     0
1000
MTEXTEND
  0
LINE
  5
10F9
330
10B6
100
AcDbEntity
  8
0
370
    -3
100
AcDbLine
 10
1827.88013185901
 20
74.87435715741594
 30
0.0
 11
1098.233670710939
 21
74.87435715741594
 31
0.0
  0
LINE
  5
10FA
330
10B6
100
AcDbEntity
  8
0
370
    -3
100
AcDbLine
 10
1827.88013185901
 20
121.4369548976428
 30
0.0
 11
1098.233670710939
 21
121.4369548976428
 31
0.0
  0
MTEXT
  5
10FB
330
10B6
100
AcDbEntity
  8
虚线
 62
     7
370
    18
100
AcDbMText
 10
1515.095338880973
 20
55.47077219873244
 30
0.0
 40
13.621608
 41
67.70591104972267
 71
     5
 72
     5
  1
{\fSimSun|b0|i0|c134|p2;B/0}
 73
     1
 44
1.0
1001
ACAD
1000
ACAD_MTEXT_DEFINED_HEIGHT_BEGIN
1070
    46
1040
0.0
1000
ACAD_MTEXT_DEFINED_HEIGHT_END
1000
MTEXTBEGIN
1070
    73
1070
     1
1070
    44
1040
1.0
1070
    74
1070
     0
1000
MTEXTEND
  0
LINE
  5
10FC
330
10B6
100
AcDbEntity
  8
0
370
    -3
100
AcDbLine
 10
1827.88013185901
 20
167.9995526378625
 30
0.0
 11
1098.233670710939
 21
167.9995526378625
 31
0.0
  0
LINE
  5
10FD
330
10B6
100
AcDbEntity
  8
0
370
    -3
100
AcDbLine
 10
1440.13287839829
 20
335.1311292576211
 30
0.0
 11
1440.13287839829
 21
167.9995526378625
 31
0.0
  0
LINE
  5
10FE
330
10B6
100
AcDbEntity
  8
0
370
    -3
100
AcDbLine
 10
1352.885154512767
 20
254.7518100046
 30
0.0
 11
1352.885154512763
 21
167.9995526378625
 31
0.0
  0
LINE
  5
10FF
330
10B6
100
AcDbEntity
  8
0
370
    -3
100
AcDbLine
 10
1270.931241430667
 20
254.7518100046
 30
0.0
 11
1270.931241430651
 21
167.9995526378625
 31
0.0
  0
LINE
  5
1100
330
10B6
100
AcDbEntity
  8
0
370
    60
100
AcDbLine
 10
85.13505375598652
 20
34.05401742198228
 30
0.0
 11
1827.88013185901
 21
34.05401742198228
 31
0.0
  0
MTEXT
  5
1101
330
10B6
100
AcDbEntity
  8
标注线
  6
Continuous
100
AcDbMText
 10
1634.006505128647
 20
212.7512077061183
 30
0.0
 40
22.70268
 41
387.7472534607226
 71
     5
 72
     5
  1
{\C7;821AR\fSimSun|b0|i0|c134|p54;产品图}
 73
     1
 44
1.0
1001
ACAD
1000
ACAD_MTEXT_DEFINED_HEIGHT_BEGIN
1070
    46
1040
0.0
1000
ACAD_MTEXT_DEFINED_HEIGHT_END
1000
MTEXTBEGIN
1070
    73
1070
     1
1070
    44
1040
1.0
1070
    74
1070
     0
1000
MTEXTEND
  0
LINE
  5
1102
330
10B6
100
AcDbEntity
  8
0
370
    60
100
AcDbLine
 10
1861.934151859009
 20
1294.681849428674
 30
0.0
 11
1861.934151859001
 21
-0.0000025780209398
 31
0.0
  0
LINE
  5
1103
330
10B6
100
AcDbEntity
  8
0
370
    60
100
AcDbLine
 10
0.0000037559848352
 20
-0.0000025780209398
 30
0.0
 11
1861.934151859001
 21
-0.0000025780209398
 31
0.0
  0
MTEXT
  5
1104
330
10B6
100
AcDbEntity
  8
虚线
 62
     7
370
    18
100
AcDbMText
 10
1731.930473616117
 20
145.6968045285612
 30
0.0
 40
16.34592959999999
 41
191.8993164857905
 71
     5
 72
     5
  1
{\fSimSun|b0|i0|c134|p2;T=1.2mm  SUS304}
 73
     1
 44
1.0
1001
ACAD
1000
ACAD_MTEXT_DEFINED_HEIGHT_BEGIN
1070
    46
1040
0.0
1000
ACAD_MTEXT_DEFINED_HEIGHT_END
1000
MTEXTBEGIN
1070
    73
1070
     1
1070
    44
1040
1.0
1070
    74
1070
     0
1000
MTEXTEND
  0
MTEXT
  5
1105
330
10B6
100
AcDbEntity
  8
标注线
  6
Continuous
 62
     7
100
AcDbMText
 10
1269.183274554619
 20
306.2935521146137
 30
0.0
 40
23.53813862400001
 41
341.8992076873493
 71
     5
 72
     5
  1
{\fKaiTi_GB2312|b0|i0|c134|p49;东原厨具实业有限公司}
 73
     1
 44
1.0
1001
ACAD
1000
MTEXTBEGIN
1070
    73
1070
     1
1070
    44
1040
1.0
1070
    74
1070
     0
1000
MTEXTEND
  0
MTEXT
  5
1106
330
10B6
100
AcDbEntity
  8
虚线
 62
     7
370
    18
100
AcDbMText
 10
1269.183274554619
 20
271.5648024547336
 30
0.0
 40
11.98701504
 41
341.8992076873497
 71
     5
 72
     5
  1
{\fSimSun|b0|i0|c134|p2;DONGYUAN KITCHENWARE INDUSTRIAL CO.,LTD}
 73
     1
 44
1.0
1001
ACAD
1000
MTEXTBEGIN
1070
    73
1070
     1
1070
    44
1040
1.0
1070
    74
1070
     0
1000
MTEXTEND
  0
MTEXT
  5
1107
330
10B6
100
AcDbEntity
  8
虚线
 62
     7
370
    18
100
AcDbMText
 10
1230.286640483203
 20
144.1490410706428
 30
0.0
 40
18.16214399999999
 41
113.5669445976271
 71
     5
 72
     5
  1
{\fSimSun|b0|i0|c134|p2;Fred}
 73
     1
 44
1.0
1001
ACAD
1000
ACAD_MTEXT_DEFINED_HEIGHT_BEGIN
1070
    46
1040
0.0
1000
ACAD_MTEXT_DEFINED_HEIGHT_END
1000
MTEXTBEGIN
1070
    73
1070
     1
1070
    44
1040
1.0
1070
    74
1070
     0
1000
MTEXTEND
  0
MTEXT
  5
1108
330
10B6
100
AcDbEntity
  8
虚线
 62
     7
370
    18
100
AcDbMText
 10
1347.669150305857
 20
142.8545585373031
 30
0.0
 40
13.621608
 41
121.1980750476869
 71
     5
 72
     5
  1
{\fSimSun|b0|i0|c134|p2;2009.4.20}
 73
     1
 44
1.0
1001
ACAD
1000
ACAD_MTEXT_DEFINED_HEIGHT_BEGIN
1070
    46
1040
0.0
1000
ACAD_MTEXT_DEFINED_HEIGHT_END
1000
MTEXTBEGIN
1070
    73
1070
     1
1070
    44
1040
1.0
1070
    74
1070
     0
1000
MTEXTEND
  0
MTEXT
  5
1109
330
10B6
100
AcDbEntity
  8
虚线
 62
     7
370
    18
100
AcDbMText
 10
1615.703186772228
 20
51.88998881222869
 30
0.0
 40
13.17192597110637
 41
8.900422387158332
 71
     1
 72
     5
  1
{\fSimSun|b0|i0|c134|p2;1}
 73
     1
 44
1.0
1001
ACAD
1000
MTEXTBEGIN
1070
    73
1070
     1
1070
    44
1040
1.0
1070
    74
1070
     0
1000
MTEXTEND
  0
MTEXT
  5
110A
330
10B6
100
AcDbEntity
  8
虚线
 62
     7
370
    18
100
AcDbMText
 10
1754.343155380424
 20
51.40708896586511
 30
0.0
 40
13.17192597110637
 41
10.03444811291377
 71
     1
 72
     5
  1
{\fSimSun|b0|i0|c134|p2;1}
 73
     1
 44
1.0
1001
ACAD
1000
MTEXTBEGIN
1070
    73
1070
     1
1070
    44
1040
1.0
1070
    74
1070
     0
1000
MTEXTEND
  0
LINE
  5
110B
330
10B6
100
AcDbEntity
  8
0
370
    60
100
AcDbLine
 10
1827.88013185901
 20
1260.627829428675
 30
0.0
 11
85.13505375598652
 21
1260.627829428675
 31
0.0
  0
LINE
  5
110C
330
10B6
100
AcDbEntity
  8
0
370
    60
100
AcDbLine
 10
85.13505375598652
 20
34.05401742198228
 30
0.0
 11
85.13505375598652
 21
1260.627829428675
 31
0.0
  0
LINE
  5
110D
330
10B6
100
AcDbEntity
  8
0
370
    60
100
AcDbLine
 10
1861.934151859009
 20
1294.681849428674
 30
0.0
 11
0.0000037559848352
 21
1294.681849428674
 31
0.0
  0
LINE
  5
110E
330
10B6
100
AcDbEntity
  8
0
370
    60
100
AcDbLine
 10
0.0000037559848352
 20
-0.0000025780209398
 30
0.0
 11
0.0000037559848352
 21
1294.681849428674
 31
0.0
  0
MTEXT
  5
110F
330
10B6
100
AcDbEntity
  8
虚线
 62
     7
370
    18
100
AcDbMText
 10
1677.038424688475
 20
316.5235423495542
 30
0.0
 40
15.095808
 41
301.6834143410662
 71
     5
 72
     5
  1
{\fSimSun|b0|i0|c134|p2;常规拉深对焊盆}
 73
     1
 44
1.0
1001
ACAD
1000
ACAD_MTEXT_DEFINED_HEIGHT_BEGIN
1070
    46
1040
20.22399999999779
1000
ACAD_MTEXT_DEFINED_HEIGHT_END
1000
MTEXTBEGIN
1070
    73
1070
     1
1070
    44
1040
1.0
1070
    74
1070
     0
1000
MTEXTEND
  0
MTEXT
  5
1110
330
10B6
100
AcDbEntity
  8
虚线
 62
     7
370
    18
100
AcDbMText
 10
1579.829100510879
 20
276.202107946603
 30
0.0
 40
15.095808
 41
107.2647659858523
 71
     5
 72
     5
  1
821AR
 73
     1
 44
1.0
1001
ACAD
1000
ACAD_MTEXT_DEFINED_HEIGHT_BEGIN
1070
    46
1040
15.36302362204952
1000
ACAD_MTEXT_DEFINED_HEIGHT_END
1000
MTEXTBEGIN
1070
    73
1070
     1
1070
    44
1040
1.0
1070
    74
1070
     0
1000
MTEXTEND
  0
MTEXT
  5
1111
330
10B6
100
AcDbEntity
  8
虚线
 62
     7
370
    18
100
AcDbMText
 10
1778.467843534232
 20
276.3271284512411
 30
0.0
 40
15.095808
 41
98.82457664956284
 71
     5
 72
     5
  1
821AR
 73
     1
 44
1.0
1001
ACAD
1000
ACAD_MTEXT_DEFINED_HEIGHT_BEGIN
1070
    46
1040
0.0
1000
ACAD_MTEXT_DEFINED_HEIGHT_END
1000
MTEXTBEGIN
1070
    73
1070
     1
1070
    44
1040
1.0
1070
    74
1070
     0
1000
MTEXTEND
  0
ENDBLK
  5
1115
330
10B6
100
AcDbEntity
  8
0
100
AcDbBlockEnd
  0
BLOCK
  5
1550
330
14F4
100
AcDbEntity
  8
0
100
AcDbBlockBegin
  2
A$C2A8C5988
 70
     0
 10
0.0
 20
0.0
 30
0.0
  3
A$C2A8C5988
  1

  0
MTEXT
  5
14F5
330
14F4
100
AcDbEntity
  8
虚线
 62
     7
370
    18
100
AcDbMText
 10
1147.760229127343
 20
195.9123690418064
 30
0.0
 40
10.19670098194105
 41
99.0531334788103
 71
     5
 72
     5
  1
{\fSimSun|b0|i0|c134|p2;\H0.9027x;UPDATE SYMBOL}
 73
     1
 44
1.0
1001
ACAD
1000
MTEXTBEGIN
1070
    73
1070
     1
1070
    44
1040
1.0
1070
    74
1070
     0
1000
MTEXTEND
  0
MTEXT
  5
14F6
330
14F4
100
AcDbEntity
  8
虚线
 62
     7
370
    18
100
AcDbMText
 10
1147.760229127343
 20
177.7130206133452
 30
0.0
 40
12.74587622742631
 41
99.05313347880934
 71
     5
 72
     5
  1
{\fSimSun|b0|i0|c134|p54;\H0.7222x;更改   标记}
 73
     1
 44
1.0
1001
ACAD
1000
MTEXTBEGIN
1070
    73
1070
     1
1070
    44
1040
1.0
1070
    74
1070
     0
1000
MTEXTEND
  0
MTEXT
  5
14F7
330
14F4
100
AcDbEntity
  8
虚线
 62
     7
370
    18
100
AcDbMText
 10
1135.868411124662
 20
155.3804958933406
 30
0.0
 40
12.74587622742631
 41
75.26949747344609
 71
     5
 72
     5
  1
{\fSimSun|b0|i0|c134|p2;DWN.}
 73
     1
 44
1.0
1001
ACAD
1000
MTEXTBEGIN
1070
    73
1070
     1
1070
    44
1040
1.0
1070
    74
1070
     0
1000
MTEXTEND
  0
MTEXT
  5
14F8
330
14F4
100
AcDbEntity
  8
虚线
 62
     7
370
    18
100
AcDbMText
 10
1135.868411124662
 20
135.1946633019806
 30
0.0
 40
13.17192597110637
 41
75.26949747344637
 71
     5
 72
     5
  1
{\fSimSun|b0|i0|c134|p54;制 图}
 73
     1
 44
1.0
1001
ACAD
1000
MTEXTBEGIN
1070
    73
1070
     1
1070
    44
1040
1.0
1070
    74
1070
     0
1000
MTEXTEND
  0
MTEXT
  5
14F9
330
14F4
100
AcDbEntity
  8
0
370
    -3
100
AcDbMText
 10
1135.868411124662
 20
87.84868301899132
 30
0.0
 40
13.17192597110637
 41
75.26949747344609
 71
     5
 72
     5
  1
{\fSimSun|b0|i0|c134|p54;\C7;审 核}
 73
     1
 44
1.0
1001
ACAD
1000
MTEXTBEGIN
1070
    73
1070
     1
1070
    44
1040
1.0
1070
    74
1070
     0
1000
MTEXTEND
  0
MTEXT
  5
14FA
330
14F4
100
AcDbEntity
  8
虚线
 62
     7
370
    18
100
AcDbMText
 10
1135.868411124662
 20
47.30923712691674
 30
0.0
 40
13.17192597110637
 41
75.26949747344598
 71
     5
 72
     5
  1
{\fSimSun|b0|i0|c134|p54;批 准}
 73
     1
 44
1.0
1001
ACAD
1000
MTEXTBEGIN
1070
    73
1070
     1
1070
    44
1040
1.0
1070
    74
1070
     0
1000
MTEXTEND
  0
MTEXT
  5
14FB
330
14F4
100
AcDbEntity
  8
虚线
370
    18
100
AcDbMText
 10
1135.868411124662
 20
66.29984107097062
 30
0.0
 40
12.74587622742631
 41
75.26949747344604
 71
     5
 72
     5
  1
{\fSimSun|b0|i0|c134|p2;\C7;APPD.}
 73
     1
 44
1.0
1001
ACAD
1000
MTEXTBEGIN
1070
    73
1070
     1
1070
    44
1040
1.0
1070
    74
1070
     0
1000
MTEXTEND
  0
LINE
  5
14FC
330
14F4
100
AcDbEntity
  8
0
370
    -3
100
AcDbLine
 10
1173.503159861379
 20
167.9995527354849
 30
0.0
 11
1173.503159861379
 21
34.05401751958653
 31
0.0
  0
MTEXT
  5
14FD
330
14F4
100
AcDbEntity
  8
0
370
    -3
100
AcDbMText
 10
1135.868411124662
 20
110.064611594641
 30
0.0
 40
12.74587622742631
 41
75.26949747344604
 71
     5
 72
     5
  1
{\fSimSun|b0|i0|c134|p2;\C7;CKD.}
 73
     1
 44
1.0
1001
ACAD
1000
MTEXTBEGIN
1070
    73
1070
     1
1070
    44
1040
1.0
1070
    74
1070
     0
1000
MTEXTEND
  0
LINE
  5
14FE
330
14F4
100
AcDbEntity
  8
0
370
    60
100
AcDbLine
 10
1098.233662387934
 20
335.1311293552253
 30
0.0
 11
1098.233662387934
 21
34.05401751958653
 31
0.0
  0
LINE
  5
14FF
330
14F4
100
AcDbEntity
  8
0
370
    -3
100
AcDbLine
 10
1197.286795866748
 20
254.7518101022042
 30
0.0
 11
1197.286795866745
 21
167.9995527354667
 31
0.0
  0
LINE
  5
1500
330
14F4
100
AcDbEntity
  8
中心线
370
    -3
100
AcDbLine
 10
1749.005285084262
 20
98.85801766931491
 30
0.0
 11
1621.355007224032
 21
98.85801766931491
 31
0.0
  0
MTEXT
  5
1501
330
14F4
100
AcDbEntity
  8
虚线
 62
     7
370
    18
100
AcDbMText
 10
1515.095330557969
 20
145.8707025377198
 30
0.0
 40
13.621608
 41
67.70591104972267
 71
     5
 72
     5
  1
{\fSimSun|b0|i0|c134|p2;1件}
 73
     1
 44
1.0
1001
ACAD
1000
MTEXTBEGIN
1070
    73
1070
     1
1070
    44
1040
1.0
1070
    74
1070
     0
1000
MTEXTEND
  0
MTEXT
  5
1502
330
14F4
100
AcDbEntity
  8
虚线
 62
     7
370
    18
100
AcDbMText
 10
1592.464546566524
 20
156.987705416338
 30
0.0
 40
12.7458762274263
 41
87.03252096738927
 71
     5
 72
     5
  1
{\fSimSun|b0|i0|c134|p2;MATERIAL}
 73
     1
 44
1.0
1001
ACAD
1000
MTEXTBEGIN
1070
    73
1070
     1
1070
    44
1040
1.0
1070
    74
1070
     0
1000
MTEXTEND
  0
MTEXT
  5
1503
330
14F4
100
AcDbEntity
  8
虚线
 62
     7
370
    18
100
AcDbMText
 10
1592.464546566524
 20
135.946974043899
 30
0.0
 40
13.17192597110637
 41
87.03252096738927
 71
     5
 72
     5
  1
{\fSimSun|b0|i0|c134|p54;材 料}
 73
     1
 44
1.0
1001
ACAD
1000
MTEXTBEGIN
1070
    73
1070
     1
1070
    44
1040
1.0
1070
    74
1070
     0
1000
MTEXTEND
  0
LINE
  5
1504
330
14F4
100
AcDbEntity
  8
0
370
    -3
100
AcDbLine
 10
1548.948286082828
 20
167.9995527354667
 30
0.0
 11
1548.948286082828
 21
34.05401751958653
 31
0.0
  0
LINE
  5
1505
330
14F4
100
AcDbEntity
  8
0
370
    60
100
AcDbLine
 10
1827.880123536006
 20
1260.627829526279
 30
0.0
 11
1827.880123536006
 21
34.05401751958653
 31
0.0
  0
MTEXT
  5
1506
330
14F4
100
AcDbEntity
  8
虚线
 62
     7
370
    18
100
AcDbMText
 10
1681.258511033623
 20
286.9767146018976
 30
0.0
 40
10.19670098194105
 41
95.59407170564645
 71
     5
 72
     5
  1
{\fSimSun|b0|i0|c134|p2;MODEL NO.}
 73
     1
 44
1.0
1001
ACAD
1000
MTEXTBEGIN
1070
    73
1070
     1
1070
    44
1040
1.0
1070
    74
1070
     0
1000
MTEXTEND
  0
MTEXT
  5
1507
330
14F4
100
AcDbEntity
  8
虚线
 62
     7
370
    18
100
AcDbMText
 10
1681.258511033623
 20
268.70511921042
 30
0.0
 40
13.17192597110637
 41
95.59407170564641
 71
     5
 72
     5
  1
{\fSimSun|b0|i0|c134|p2;型 号}
 73
     1
 44
1.0
1001
ACAD
1000
MTEXTBEGIN
1070
    73
1070
     1
1070
    44
1040
1.0
1070
    74
1070
     0
1000
MTEXTEND
  0
LINE
  5
1508
330
14F4
100
AcDbEntity
  8
0
370
    -3
100
AcDbLine
 10
1633.461475180797
 20
294.9414697287402
 30
0.0
 11
1633.461475180797
 21
254.7518101022042
 31
0.0
  0
LINE
  5
1509
330
14F4
100
AcDbEntity
  8
0
370
    -3
100
AcDbLine
 10
1729.055546886446
 20
294.9414697287402
 30
0.0
 11
1729.055546886446
 21
254.7518101022042
 31
0.0
  0
MTEXT
  5
150A
330
14F4
100
AcDbEntity
  8
虚线
 62
     7
370
    18
100
AcDbMText
 10
1483.164789635113
 20
306.9764800662606
 30
0.0
 40
13.17192597110637
 41
86.06383911965805
 71
     5
 72
     5
  1
{\fSimSun|b0|i0|c134|p54;描 述}
 73
     1
 44
1.0
1001
ACAD
1000
MTEXTBEGIN
1070
    73
1070
     1
1070
    44
1040
1.0
1070
    74
1070
     0
1000
MTEXTEND
  0
MTEXT
  5
150B
330
14F4
100
AcDbEntity
  8
虚线
 62
     7
370
    18
100
AcDbMText
 10
1483.164789635117
 20
286.9391170509562
 30
0.0
 40
10.19670098194105
 41
86.06383911965933
 71
     5
 72
     5
  1
{\fSimSun|b0|i0|c134|p2;DWG. NO.}
 73
     1
 44
1.0
1001
ACAD
1000
MTEXTBEGIN
1070
    73
1070
     1
1070
    44
1040
1.0
1070
    74
1070
     0
1000
MTEXTEND
  0
MTEXT
  5
150C
330
14F4
100
AcDbEntity
  8
虚线
 62
     7
370
    18
100
AcDbMText
 10
1483.164789635117
 20
269.8748889495846
 30
0.0
 40
13.17192597110637
 41
86.06383911966197
 71
     5
 72
     5
  1
{\fSimSun|b0|i0|c134|p54;图 号}
 73
     1
 44
1.0
1001
ACAD
1000
MTEXTBEGIN
1070
    73
1070
     1
1070
    44
1040
1.0
1070
    74
1070
     0
1000
MTEXTEND
  0
LINE
  5
150D
330
14F4
100
AcDbEntity
  8
0
370
    -3
100
AcDbLine
 10
1440.132870075285
 20
228.2625264782701
 30
0.0
 11
1098.233662387934
 21
228.2625264782628
 31
0.0
  0
LINE
  5
150E
330
14F4
100
AcDbEntity
  8
0
370
    -3
100
AcDbLine
 10
1440.132870075285
 20
254.7518101022042
 30
0.0
 11
1098.233662387934
 21
254.7518101022042
 31
0.0
  0
LINE
  5
150F
330
14F4
100
AcDbEntity
  8
0
370
    -3
100
AcDbLine
 10
1526.196709194941
 20
335.1311293552253
 30
0.0
 11
1526.196709194953
 21
254.7518101022042
 31
0.0
  0
MTEXT
  5
1510
330
14F4
100
AcDbEntity
  8
虚线
 62
     7
370
    18
100
AcDbMText
 10
1483.164789635113
 20
326.5489392869504
 30
0.0
 40
10.19670098194105
 41
86.06383911965393
 71
     5
 72
     5
  1
{\fSimSun|b0|i0|c134|p2;DESCRIPTION}
 73
     1
 44
1.0
1001
ACAD
1000
MTEXTBEGIN
1070
    73
1070
     1
1070
    44
1040
1.0
1070
    74
1070
     0
1000
MTEXTEND
  0
LINE
  5
1511
330
14F4
100
AcDbEntity
  8
0
370
    -3
100
AcDbLine
 10
1827.880123536006
 20
254.7518101022042
 30
0.0
 11
1440.132870075285
 21
254.7518101022042
 31
0.0
  0
LINE
  5
1512
330
14F4
100
AcDbEntity
  8
0
370
    -3
100
AcDbLine
 10
1827.880123536006
 20
294.9414697287148
 30
0.0
 11
1440.132870075285
 21
294.9414697287148
 31
0.0
  0
LINE
  5
1513
330
14F4
100
AcDbEntity
  8
0
370
    60
100
AcDbLine
 10
1827.880123536006
 20
335.1311293552253
 30
0.0
 11
1098.233662387934
 21
335.1311293552253
 31
0.0
  0
LINE
  5
1514
330
14F4
100
AcDbEntity
  8
0
370
    -3
100
AcDbLine
 10
1686.911332549771
 20
85.07870579736936
 30
0.0
 11
1686.911332549771
 21
112.7309649640274
 31
0.0
  0
CIRCLE
  5
1515
330
14F4
100
AcDbEntity
  8
0
370
    -3
100
AcDbCircle
 10
1731.055976927062
 20
98.85801766931491
 30
0.0
 40
13.77931187194604
  0
CIRCLE
  5
1516
330
14F4
100
AcDbEntity
  8
0
370
    -3
100
AcDbCircle
 10
1731.055976927062
 20
98.85801766931491
 30
0.0
 40
6.889655935973022
  0
LINE
  5
1517
330
14F4
100
AcDbEntity
  8
中心线
370
    -3
100
AcDbLine
 10
1731.055976927062
 20
80.90870951212218
 30
0.0
 11
1731.055976927062
 21
116.8073258265076
 31
0.0
  0
MTEXT
  5
1518
330
14F4
100
AcDbEntity
  8
虚线
 62
     7
370
    18
100
AcDbMText
 10
1515.095330557969
 20
98.99306382559826
 30
0.0
 40
13.621608
 41
67.70591104972267
 71
     5
 72
     5
  1
{\fSimSun|b0|i0|c134|p2;1:1}
 73
     1
 44
1.0
1001
ACAD
1000
MTEXTBEGIN
1070
    73
1070
     1
1070
    44
1040
1.0
1070
    74
1070
     0
1000
MTEXTEND
  0
LINE
  5
1519
330
14F4
100
AcDbEntity
  8
0
370
    -3
100
AcDbLine
 10
1626.987714974617
 20
91.96836173334032
 30
0.0
 11
1626.987714974617
 21
105.7629659652093
 31
0.0
  0
LINE
  5
151A
330
14F4
100
AcDbEntity
  8
0
370
    -3
100
AcDbLine
 10
1686.911332549771
 20
85.07870579736936
 30
0.0
 11
1626.987714974617
 21
91.96836173334032
 31
0.0
  0
LINE
  5
151B
330
14F4
100
AcDbEntity
  8
0
370
    -3
100
AcDbLine
 10
1626.987714974617
 20
105.7629659652093
 30
0.0
 11
1686.911332549771
 21
112.7309649640274
 31
0.0
  0
MTEXT
  5
151C
330
14F4
100
AcDbEntity
  8
虚线
 62
     7
370
    18
100
AcDbMText
 10
1703.044823864715
 20
55.94322160960382
 30
0.0
 40
13.17192597110637
 41
25.44069223019861
 71
     1
 72
     5
  1
{\fSimSun|b0|i0|c134|p54;第}
 73
     1
 44
1.0
1001
ACAD
1000
MTEXTBEGIN
1070
    73
1070
     1
1070
    44
1040
1.0
1070
    74
1070
     0
1000
MTEXTEND
  0
MTEXT
  5
151D
330
14F4
100
AcDbEntity
  8
虚线
 62
     7
370
    18
100
AcDbMText
 10
1742.415187147762
 20
52.89215472240994
 30
0.0
 40
13.17192597110637
 41
40.11586678673352
 71
     1
 72
     5
  1
{\fSimSun|b0|i0|c134|p2;(  )}
 73
     1
 44
1.0
1001
ACAD
1000
MTEXTBEGIN
1070
    73
1070
     1
1070
    44
1040
1.0
1070
    74
1070
     0
1000
MTEXTEND
  0
MTEXT
  5
151E
330
14F4
100
AcDbEntity
  8
虚线
 62
     7
370
    18
100
AcDbMText
 10
1791.221556370775
 20
55.56625876910129
 30
0.0
 40
13.17192597110637
 41
36.65856716523467
 71
     1
 72
     5
  1
{\fSimSun|b0|i0|c134|p54;页}
 73
     1
 44
1.0
1001
ACAD
1000
MTEXTBEGIN
1070
    73
1070
     1
1070
    44
1040
1.0
1070
    74
1070
     0
1000
MTEXTEND
  0
MTEXT
  5
151F
330
14F4
100
AcDbEntity
  8
虚线
 62
     7
370
    18
100
AcDbMText
 10
1657.360580372013
 20
55.28914170036023
 30
0.0
 40
13.17192597110637
 41
23.01701221864823
 71
     1
 72
     5
  1
{\fSimSun|b0|i0|c134|p54;页}
 73
     1
 44
1.0
1001
ACAD
1000
MTEXTBEGIN
1070
    73
1070
     1
1070
    44
1040
1.0
1070
    74
1070
     0
1000
MTEXTEND
  0
MTEXT
  5
1520
330
14F4
100
AcDbEntity
  8
虚线
 62
     7
370
    18
100
AcDbMText
 10
1603.419772125065
 20
53.55220062607713
 30
0.0
 40
13.17192597110637
 41
43.50286927672699
 71
     1
 72
     5
  1
{\fSimSun|b0|i0|c134|p2;(  )}
 73
     1
 44
1.0
1001
ACAD
1000
MTEXTBEGIN
1070
    73
1070
     1
1070
    44
1040
1.0
1070
    74
1070
     0
1000
MTEXTEND
  0
MTEXT
  5
1521
330
14F4
100
AcDbEntity
  8
虚线
 62
     7
370
    18
100
AcDbMText
 10
1557.803662605116
 20
55.47951222572101
 30
0.0
 40
13.17192597110637
 41
25.81082552866156
 71
     1
 72
     5
  1
{\fSimSun|b0|i0|c134|p54;共}
 73
     1
 44
1.0
1001
ACAD
1000
MTEXTBEGIN
1070
    73
1070
     1
1070
    44
1040
1.0
1070
    74
1070
     0
1000
MTEXTEND
  0
MTEXT
  5
1522
330
14F4
100
AcDbEntity
  8
虚线
 62
     7
370
    18
100
AcDbMText
 10
1555.072381106914
 20
72.59607129285086
 30
0.0
 40
12.74587622742631
 41
35.70628935500624
 71
     1
 72
     5
  1
{\fSimSun|b0|i0|c134|p2;ALL}
 73
     1
 44
1.0
1001
ACAD
1000
MTEXTBEGIN
1070
    73
1070
     1
1070
    44
1040
1.0
1070
    74
1070
     0
1000
MTEXTEND
  0
MTEXT
  5
1523
330
14F4
100
AcDbEntity
  8
虚线
 62
     7
370
    18
100
AcDbMText
 10
1657.645488576115
 20
72.07359819852081
 30
0.0
 40
12.74587622742631
 41
21.41665905572722
 71
     1
 72
     5
  1
{\fSimSun|b0|i0|c134|p2;PG}
 73
     1
 44
1.0
1001
ACAD
1000
MTEXTBEGIN
1070
    73
1070
     1
1070
    44
1040
1.0
1070
    74
1070
     0
1000
MTEXTEND
  0
MTEXT
  5
1524
330
14F4
100
AcDbEntity
  8
虚线
 62
     7
370
    18
100
AcDbMText
 10
1699.488768011379
 20
71.8485704792738
 30
0.0
 40
12.74587622742631
 41
33.1020845473821
 71
     1
 72
     5
  1
{\fSimSun|b0|i0|c134|p2;LSN}
 73
     1
 44
1.0
1001
ACAD
1000
MTEXTBEGIN
1070
    73
1070
     1
1070
    44
1040
1.0
1070
    74
1070
     0
1000
MTEXTEND
  0
MTEXT
  5
1525
330
14F4
100
AcDbEntity
  8
虚线
 62
     7
370
    18
100
AcDbMText
 10
1792.10402211529
 20
72.11880967511115
 30
0.0
 40
12.74587622742631
 41
35.77610142071755
 71
     1
 72
     5
  1
{\fSimSun|b0|i0|c134|p2;PG}
 73
     1
 44
1.0
1001
ACAD
1000
MTEXTBEGIN
1070
    73
1070
     1
1070
    44
1040
1.0
1070
    74
1070
     0
1000
MTEXTEND
  0
LINE
  5
1526
330
14F4
100
AcDbEntity
  8
0
370
    -3
100
AcDbLine
 10
1635.980807050217
 20
167.999552735474
 30
0.0
 11
1635.980807050217
 21
121.4369549952471
 31
0.0
  0
MTEXT
  5
1527
330
14F4
100
AcDbEntity
  8
虚线
 62
     7
370
    18
100
AcDbMText
 10
1396.509008132526
 20
195.6136144012789
 30
0.0
 40
9.204478389447825
 41
87.24772388552347
 71
     5
 72
     5
  1
{\fSimSun|b0|i0|c134|p2;DATE}
 73
     1
 44
1.0
1001
ACAD
1000
MTEXTBEGIN
1070
    73
1070
     1
1070
    44
1040
1.0
1070
    74
1070
     0
1000
MTEXTEND
  0
MTEXT
  5
1528
330
14F4
100
AcDbEntity
  8
虚线
 62
     7
370
    18
100
AcDbMText
 10
1396.509008132526
 20
177.6250608848759
 30
0.0
 40
9.204478389447825
 41
87.2477238855242
 71
     5
 72
     5
  1
{\fSimSun|b0|i0|c134|p54;日 期}
 73
     1
 44
1.0
1001
ACAD
1000
MTEXTBEGIN
1070
    73
1070
     1
1070
    44
1040
1.0
1070
    74
1070
     0
1000
MTEXTEND
  0
MTEXT
  5
1529
330
14F4
100
AcDbEntity
  8
虚线
 62
     7
370
    18
100
AcDbMText
 10
1311.908189648708
 20
178.0110892139901
 30
0.0
 40
12.74587622742631
 41
81.9539130821089
 71
     5
 72
     5
  1
{\fSimSun|b0|i0|c134|p54;\H0.7222x;签 名}
 73
     1
 44
1.0
1001
ACAD
1000
MTEXTBEGIN
1070
    73
1070
     1
1070
    44
1040
1.0
1070
    74
1070
     0
1000
MTEXTEND
  0
MTEXT
  5
152A
330
14F4
100
AcDbEntity
  8
虚线
 62
     7
370
    18
100
AcDbMText
 10
1234.109014487202
 20
177.8238759327078
 30
0.0
 40
12.74587622742631
 41
73.64443724090439
 71
     5
 72
     5
  1
{\fSimSun|b0|i0|c134|p54;\H0.7222x;处 数}
 73
     1
 44
1.0
1001
ACAD
1000
MTEXTBEGIN
1070
    73
1070
     1
1070
    44
1040
1.0
1070
    74
1070
     0
1000
MTEXTEND
  0
MTEXT
  5
152B
330
14F4
100
AcDbEntity
  8
虚线
 62
     7
370
    18
100
AcDbMText
 10
1311.908189648708
 20
194.9659851856058
 30
0.0
 40
10.19670098194105
 41
81.95391308210682
 71
     5
 72
     5
  1
{\fSimSun|b0|i0|c134|p2;\H0.9027x;AUTOGRAPH}
 73
     1
 44
1.0
1001
ACAD
1000
MTEXTBEGIN
1070
    73
1070
     1
1070
    44
1040
1.0
1070
    74
1070
     0
1000
MTEXTEND
  0
MTEXT
  5
152C
330
14F4
100
AcDbEntity
  8
虚线
 62
     7
370
    18
100
AcDbMText
 10
1444.755277269903
 20
155.9348987888343
 30
0.0
 40
12.74587622742631
 41
72.9741955264095
 71
     5
 72
     5
  1
{\fSimSun|b0|i0|c134|p2;NUMBER}
 73
     1
 44
1.0
1001
ACAD
1000
MTEXTBEGIN
1070
    73
1070
     1
1070
    44
1040
1.0
1070
    74
1070
     0
1000
MTEXTEND
  0
MTEXT
  5
152D
330
14F4
100
AcDbEntity
  8
虚线
 62
     7
370
    18
100
AcDbMText
 10
1444.539816662975
 20
135.9339072920747
 30
0.0
 40
13.17192597110637
 41
72.9741955264095
 71
     5
 72
     5
  1
{\fSimSun|b0|i0|c134|p54;数 量}
 73
     1
 44
1.0
1001
ACAD
1000
MTEXTBEGIN
1070
    73
1070
     1
1070
    44
1040
1.0
1070
    74
1070
     0
1000
MTEXTEND
  0
LINE
  5
152E
330
14F4
100
AcDbEntity
  8
0
370
    -3
100
AcDbLine
 10
1440.132870075285
 20
203.0507123608959
 30
0.0
 11
1098.233662387934
 21
203.0507123608959
 31
0.0
  0
MTEXT
  5
152F
330
14F4
100
AcDbEntity
  8
虚线
 62
     7
370
    18
100
AcDbMText
 10
1234.109014487202
 20
194.9659851856022
 30
0.0
 40
10.19670098194105
 41
73.64443724090731
 71
     5
 72
     5
  1
{\fSimSun|b0|i0|c134|p2;\H0.9027x;POSITION}
 73
     1
 44
1.0
1001
ACAD
1000
MTEXTBEGIN
1070
    73
1070
     1
1070
    44
1040
1.0
1070
    74
1070
     0
1000
MTEXTEND
  0
MTEXT
  5
1530
330
14F4
100
AcDbEntity
  8
虚线
 62
     7
370
    18
100
AcDbMText
 10
1444.755277269903
 20
89.07903402680403
 30
0.0
 40
13.17192597110637
 41
72.97419552640966
 71
     5
 72
     5
  1
{\fSimSun|b0|i0|c134|p54;比 例}
 73
     1
 44
1.0
1001
ACAD
1000
MTEXTBEGIN
1070
    73
1070
     1
1070
    44
1040
1.0
1070
    74
1070
     0
1000
MTEXTEND
  0
MTEXT
  5
1531
330
14F4
100
AcDbEntity
  8
虚线
 62
     7
370
    18
100
AcDbMText
 10
1444.680469780719
 20
46.1303356276776
 30
0.0
 40
13.17192597110637
 41
72.92435861880744
 71
     5
 72
     5
  1
{\fSimSun|b0|i0|c134|p54;版 次}
 73
     1
 44
1.0
1001
ACAD
1000
MTEXTBEGIN
1070
    73
1070
     1
1070
    44
1040
1.0
1070
    74
1070
     0
1000
MTEXTEND
  0
LINE
  5
1532
330
14F4
100
AcDbEntity
  8
0
370
    -3
100
AcDbLine
 10
1481.242375033105
 20
167.9995527354667
 30
0.0
 11
1481.242375033105
 21
34.05401751958653
 31
0.0
  0
MTEXT
  5
1533
330
14F4
100
AcDbEntity
  8
虚线
 62
     7
370
    18
100
AcDbMText
 10
1444.755277269903
 20
63.9282350524818
 30
0.0
 40
12.74587622742631
 41
72.97419552640988
 71
     5
 72
     5
  1
{\fSimSun|b0|i0|c134|p2;REV.} 
 73
     1
 44
1.0
1001
ACAD
1000
MTEXTBEGIN
1070
    73
1070
     1
1070
    44
1040
1.0
1070
    74
1070
     0
1000
MTEXTEND
  0
LINE
  5
1534
330
14F4
100
AcDbEntity
  8
0
370
    -3
100
AcDbLine
 10
1408.268179506697
 20
167.9995527354667
 30
0.0
 11
1408.268179506697
 21
34.05401751958653
 31
0.0
  0
LINE
  5
1535
330
14F4
100
AcDbEntity
  8
0
370
    -3
100
AcDbLine
 10
1287.070104459009
 20
167.9995527354667
 30
0.0
 11
1287.070104458996
 21
34.05401751958653
 31
0.0
  0
MTEXT
  5
1536
330
14F4
100
AcDbEntity
  8
虚线
 62
     7
370
    18
100
AcDbMText
 10
1444.755277269903
 20
109.158680922138
 30
0.0
 40
12.74587622742631
 41
72.97419552640916
 71
     5
 72
     5
  1
{\fSimSun|b0|i0|c134|p2;SCALE}
 73
     1
 44
1.0
1001
ACAD
1000
MTEXTBEGIN
1070
    73
1070
     1
1070
    44
1040
1.0
1070
    74
1070
     0
1000
MTEXTEND
  0
LINE
  5
1537
330
14F4
100
AcDbEntity
  8
0
370
    -3
100
AcDbLine
 10
1827.880123536006
 20
74.87435725502018
 30
0.0
 11
1098.233662387934
 21
74.87435725502018
 31
0.0
  0
LINE
  5
1538
330
14F4
100
AcDbEntity
  8
0
370
    -3
100
AcDbLine
 10
1827.880123536006
 20
121.4369549952471
 30
0.0
 11
1098.233662387934
 21
121.4369549952471
 31
0.0
  0
MTEXT
  5
1539
330
14F4
100
AcDbEntity
  8
虚线
 62
     7
370
    18
100
AcDbMText
 10
1515.095330557969
 20
55.47077229633669
 30
0.0
 40
13.621608
 41
67.70591104972267
 71
     5
 72
     5
  1
{\fSimSun|b0|i0|c134|p2;B/0}
 73
     1
 44
1.0
1001
ACAD
1000
ACAD_MTEXT_DEFINED_HEIGHT_BEGIN
1070
    46
1040
0.0
1000
ACAD_MTEXT_DEFINED_HEIGHT_END
1000
MTEXTBEGIN
1070
    73
1070
     1
1070
    44
1040
1.0
1070
    74
1070
     0
1000
MTEXTEND
  0
LINE
  5
153A
330
14F4
100
AcDbEntity
  8
0
370
    -3
100
AcDbLine
 10
1827.880123536006
 20
167.9995527354667
 30
0.0
 11
1098.233662387934
 21
167.9995527354667
 31
0.0
  0
LINE
  5
153B
330
14F4
100
AcDbEntity
  8
0
370
    -3
100
AcDbLine
 10
1440.132870075285
 20
335.1311293552253
 30
0.0
 11
1440.132870075285
 21
167.9995527354667
 31
0.0
  0
LINE
  5
153C
330
14F4
100
AcDbEntity
  8
0
370
    -3
100
AcDbLine
 10
1352.885146189763
 20
254.7518101022042
 30
0.0
 11
1352.885146189758
 21
167.9995527354667
 31
0.0
  0
LINE
  5
153D
330
14F4
100
AcDbEntity
  8
0
370
    -3
100
AcDbLine
 10
1270.931233107662
 20
254.7518101022042
 30
0.0
 11
1270.931233107647
 21
167.9995527354667
 31
0.0
  0
LINE
  5
153E
330
14F4
100
AcDbEntity
  8
0
370
    60
100
AcDbLine
 10
85.13504543298223
 20
34.05401751958653
 30
0.0
 11
1827.880123536006
 21
34.05401751958653
 31
0.0
  0
MTEXT
  5
153F
330
14F4
100
AcDbEntity
  8
标注线
  6
Continuous
100
AcDbMText
 10
1634.006496805643
 20
212.7512078037225
 30
0.0
 40
22.70268
 41
387.7472534607226
 71
     5
 72
     5
  1
{\C7;867\fSimSun|b0|i0|c134|p54;－\fTimes New Roman|b0|i0|c0|p18;R45\fSimSun|b0|i0|c134|p54;产品图}
 73
     1
 44
1.0
1001
ACAD
1000
ACAD_MTEXT_DEFINED_HEIGHT_BEGIN
1070
    46
1040
0.0
1000
ACAD_MTEXT_DEFINED_HEIGHT_END
1000
MTEXTBEGIN
1070
    73
1070
     1
1070
    44
1040
1.0
1070
    74
1070
     0
1000
MTEXTEND
  0
LINE
  5
1540
330
14F4
100
AcDbEntity
  8
0
370
    60
100
AcDbLine
 10
1861.934143536005
 20
1294.681849526279
 30
0.0
 11
1861.934143535997
 21
-0.0000024804166969
 31
0.0
  0
LINE
  5
1541
330
14F4
100
AcDbEntity
  8
0
370
    60
100
AcDbLine
 10
-0.0000045670194595
 20
-0.0000024804166969
 30
0.0
 11
1861.934143535997
 21
-0.0000024804166969
 31
0.0
  0
MTEXT
  5
1542
330
14F4
100
AcDbEntity
  8
虚线
 62
     7
370
    18
100
AcDbMText
 10
1731.930465293113
 20
145.6968046261654
 30
0.0
 40
16.34592959999999
 41
191.8993164857905
 71
     5
 72
     5
  1
{\fSimSun|b0|i0|c134|p2;T=1.2mm  SUS304}
 73
     1
 44
1.0
1001
ACAD
1000
ACAD_MTEXT_DEFINED_HEIGHT_BEGIN
1070
    46
1040
0.0
1000
ACAD_MTEXT_DEFINED_HEIGHT_END
1000
MTEXTBEGIN
1070
    73
1070
     1
1070
    44
1040
1.0
1070
    74
1070
     0
1000
MTEXTEND
  0
MTEXT
  5
1543
330
14F4
100
AcDbEntity
  8
标注线
  6
Continuous
 62
     7
100
AcDbMText
 10
1269.183266231614
 20
306.293552212218
 30
0.0
 40
23.53813862400001
 41
341.8992076873493
 71
     5
 72
     5
  1
{\fKaiTi_GB2312|b0|i0|c134|p49;东原厨具实业有限公司}
 73
     1
 44
1.0
1001
ACAD
1000
MTEXTBEGIN
1070
    73
1070
     1
1070
    44
1040
1.0
1070
    74
1070
     0
1000
MTEXTEND
  0
MTEXT
  5
1544
330
14F4
100
AcDbEntity
  8
虚线
 62
     7
370
    18
100
AcDbMText
 10
1269.183266231614
 20
271.5648025523378
 30
0.0
 40
11.98701504
 41
341.8992076873497
 71
     5
 72
     5
  1
{\fSimSun|b0|i0|c134|p2;DONGYUAN KITCHENWARE INDUSTRIAL CO.,LTD}
 73
     1
 44
1.0
1001
ACAD
1000
MTEXTBEGIN
1070
    73
1070
     1
1070
    44
1040
1.0
1070
    74
1070
     0
1000
MTEXTEND
  0
MTEXT
  5
1545
330
14F4
100
AcDbEntity
  8
虚线
 62
     7
370
    18
100
AcDbMText
 10
1230.286632160199
 20
144.1490411682471
 30
0.0
 40
18.16214399999999
 41
113.5669445976271
 71
     5
 72
     5
  1
{\fSimSun|b0|i0|c134|p2;Fred}
 73
     1
 44
1.0
1001
ACAD
1000
ACAD_MTEXT_DEFINED_HEIGHT_BEGIN
1070
    46
1040
0.0
1000
ACAD_MTEXT_DEFINED_HEIGHT_END
1000
MTEXTBEGIN
1070
    73
1070
     1
1070
    44
1040
1.0
1070
    74
1070
     0
1000
MTEXTEND
  0
MTEXT
  5
1546
330
14F4
100
AcDbEntity
  8
虚线
 62
     7
370
    18
100
AcDbMText
 10
1347.669141982853
 20
142.8545586349073
 30
0.0
 40
13.621608
 41
121.1980750476869
 71
     5
 72
     5
  1
{\fSimSun|b0|i0|c134|p2;2009.4.28}
 73
     1
 44
1.0
1001
ACAD
1000
ACAD_MTEXT_DEFINED_HEIGHT_BEGIN
1070
    46
1040
0.0
1000
ACAD_MTEXT_DEFINED_HEIGHT_END
1000
MTEXTBEGIN
1070
    73
1070
     1
1070
    44
1040
1.0
1070
    74
1070
     0
1000
MTEXTEND
  0
MTEXT
  5
1547
330
14F4
100
AcDbEntity
  8
虚线
 62
     7
370
    18
100
AcDbMText
 10
1615.703178449223
 20
51.88998890983294
 30
0.0
 40
13.17192597110637
 41
8.900422387158332
 71
     1
 72
     5
  1
{\fSimSun|b0|i0|c134|p2;1}
 73
     1
 44
1.0
1001
ACAD
1000
MTEXTBEGIN
1070
    73
1070
     1
1070
    44
1040
1.0
1070
    74
1070
     0
1000
MTEXTEND
  0
MTEXT
  5
1548
330
14F4
100
AcDbEntity
  8
虚线
 62
     7
370
    18
100
AcDbMText
 10
1754.34314705742
 20
51.40708906346936
 30
0.0
 40
13.17192597110637
 41
10.03444811291377
 71
     1
 72
     5
  1
{\fSimSun|b0|i0|c134|p2;1}
 73
     1
 44
1.0
1001
ACAD
1000
MTEXTBEGIN
1070
    73
1070
     1
1070
    44
1040
1.0
1070
    74
1070
     0
1000
MTEXTEND
  0
LINE
  5
1549
330
14F4
100
AcDbEntity
  8
0
370
    60
100
AcDbLine
 10
1827.880123536006
 20
1260.627829526279
 30
0.0
 11
85.13504543298223
 21
1260.627829526279
 31
0.0
  0
LINE
  5
154A
330
14F4
100
AcDbEntity
  8
0
370
    60
100
AcDbLine
 10
85.13504543298223
 20
34.05401751958653
 30
0.0
 11
85.13504543298223
 21
1260.627829526279
 31
0.0
  0
LINE
  5
154B
330
14F4
100
AcDbEntity
  8
0
370
    60
100
AcDbLine
 10
1861.934143536005
 20
1294.681849526279
 30
0.0
 11
-0.0000045670194595
 21
1294.681849526279
 31
0.0
  0
LINE
  5
154C
330
14F4
100
AcDbEntity
  8
0
370
    60
100
AcDbLine
 10
-0.0000045670194595
 20
-0.0000024804166969
 30
0.0
 11
-0.0000045670194595
 21
1294.681849526279
 31
0.0
  0
MTEXT
  5
154D
330
14F4
100
AcDbEntity
  8
虚线
 62
     7
370
    18
100
AcDbMText
 10
1677.038416365471
 20
316.5235424471585
 30
0.0
 40
15.095808
 41
301.6834143410662
 71
     5
 72
     5
  1
{\fSimSun|b0|i0|c134|p2;小圆角拉深台下单盆}
 73
     1
 44
1.0
1001
ACAD
1000
ACAD_MTEXT_DEFINED_HEIGHT_BEGIN
1070
    46
1040
20.22399999999779
1000
ACAD_MTEXT_DEFINED_HEIGHT_END
1000
MTEXTBEGIN
1070
    73
1070
     1
1070
    44
1040
1.0
1070
    74
1070
     0
1000
MTEXTEND
  0
ENDBLK
  5
1551
330
14F4
100
AcDbEntity
  8
0
100
AcDbBlockEnd
  0
ENDSEC
  0
SECTION
  2
ENTITIES
  0
ARC
  5
B63
330
1F
100
AcDbEntity
  8
0
370
    40
100
AcDbCircle
 10
2085.996652075773
 20
2015.097430009133
 30
0.0
 40
70.0
100
AcDbArc
 50
270.0
 51
0.0
  0
LINE
  5
B64
330
1F
100
AcDbEntity
  8
0
370
    40
100
AcDbLine
 10
2155.996652075774
 20
2281.097430009134
 30
0.0
 11
2155.996652075772
 21
2015.097430009133
 31
0.0
  0
LINE
  5
B65
330
1F
100
AcDbEntity
  8
0
370
    40
100
AcDbLine
 10
2085.996652075773
 20
1945.097430009132
 30
0.0
 11
1690.996652075772
 21
1945.097430009133
 31
0.0
  0
ARC
  5
B66
330
1F
100
AcDbEntity
  8
0
370
    40
100
AcDbCircle
 10
2085.996652075774
 20
2281.097430009134
 30
0.0
 40
70.0
100
AcDbArc
 50
0.0
 51
90.0
  0
ARC
  5
B67
330
1F
100
AcDbEntity
  8
0
370
    40
100
AcDbCircle
 10
1690.996652075772
 20
2015.097430009133
 30
0.0
 40
70.0
100
AcDbArc
 50
180.0
 51
270.0
  0
LINE
  5
B68
330
1F
100
AcDbEntity
  8
0
370
    40
100
AcDbLine
 10
1690.996652075772
 20
2351.097430009133
 30
0.0
 11
2085.996652075774
 21
2351.097430009133
 31
0.0
  0
LINE
  5
B69
330
1F
100
AcDbEntity
  8
0
370
    40
100
AcDbLine
 10
1620.996652075772
 20
2015.097430009133
 30
0.0
 11
1620.996652075772
 21
2281.097430009134
 31
0.0
  0
ARC
  5
B6A
102
{ACAD_REACTORS
330
BDD
102
}
330
1F
100
AcDbEntity
  8
0
370
    40
100
AcDbCircle
 10
1690.996652075772
 20
2281.097430009134
 30
0.0
 40
70.0
100
AcDbArc
 50
90.0
 51
180.0
  0
LINE
  5
B6E
330
1F
100
AcDbEntity
  8
0
370
    40
100
AcDbLine
 10
1651.646363650328
 20
2376.097430009133
 30
0.0
 11
2125.346940501216
 21
2376.097430009133
 31
0.0
  0
LINE
  5
B6F
330
1F
100
AcDbEntity
  8
0
370
    40
100
AcDbLine
 10
1595.996652075772
 20
2320.447718434577
 30
0.0
 11
1595.996652075772
 21
1975.747141583689
 31
0.0
  0
LINE
  5
B70
330
1F
100
AcDbEntity
  8
0
370
    40
100
AcDbLine
 10
1651.646363650328
 20
1920.097430009133
 30
0.0
 11
2125.346940501216
 21
1920.097430009133
 31
0.0
  0
LINE
  5
B71
330
1F
100
AcDbEntity
  8
0
370
    40
100
AcDbLine
 10
2180.996652075773
 20
1975.747141583689
 30
0.0
 11
2180.996652075773
 21
2320.447718434577
 31
0.0
  0
DIMENSION
  5
B72
330
1F
100
AcDbEntity
  8
0
100
AcDbDimension
  2
*D1
 10
2288.632760152403
 20
1920.097430009133
 30
0.0
 11
2288.632760152402
 21
2148.097430009133
 31
0.0
 70
   160
  1
457mm(18")
 71
     5
 42
456.0
  3
ISO-25
100
AcDbAlignedDimension
 13
2142.999482627546
 23
2376.097430009133
 33
0.0
 14
2135.016900394002
 24
1920.097430009133
 34
0.0
 50
90.0
100
AcDbRotatedDimension
  0
DIMENSION
  5
B73
330
1F
100
AcDbEntity
  8
0
100
AcDbDimension
  2
*D2
 10
2180.996652075773
 20
1811.275315408316
 30
0.0
 11
1888.496652075773
 21
1811.275315408316
 31
0.0
 70
   160
  1
585mm(23")
 71
     5
 42
585.0000000000002
  3
ISO-25
100
AcDbAlignedDimension
 13
1595.996652075772
 23
1958.101168547888
 33
0.0
 14
2180.996652075773
 24
1966.228487127651
 34
0.0
100
AcDbRotatedDimension
  0
DIMENSION
  5
B74
330
1F
100
AcDbEntity
  8
0
100
AcDbDimension
  2
*D3
 10
2234.155766567833
 20
1945.097430009133
 30
0.0
 11
2234.155766567833
 21
2148.097430009133
 31
0.0
 70
   160
  1
406mm(16")
 71
     5
 42
405.9999999999997
  3
ISO-25
100
AcDbAlignedDimension
 13
2104.921923430208
 23
2351.097430009133
 33
0.0
 14
2111.432019312491
 24
1945.097430009133
 34
0.0
 50
90.0
100
AcDbRotatedDimension
  0
DIMENSION
  5
B75
330
1F
100
AcDbEntity
  8
0
100
AcDbDimension
  2
*D4
 10
2155.996652075772
 20
1863.106096568081
 30
0.0
 11
1888.496652075772
 21
1863.106096568081
 31
0.0
 70
   160
  1
535mm(21")
 71
     5
 42
535.0000000000002
  3
ISO-25
100
AcDbAlignedDimension
 13
1620.996652075772
 23
1983.969039073332
 33
0.0
 14
2155.996652075772
 24
1990.537154252233
 34
0.0
100
AcDbRotatedDimension
  0
LINE
  5
B76
330
1F
100
AcDbEntity
  8
0
370
    40
100
AcDbLine
 10
1595.996652075772
 20
1975.747141583689
 30
0.0
 11
1651.646363650328
 21
1920.097430009133
 31
0.0
  0
LINE
  5
B77
330
1F
100
AcDbEntity
  8
0
370
    40
100
AcDbLine
 10
1595.996652075772
 20
2320.447718434577
 30
0.0
 11
1651.646363650328
 21
2376.097430009133
 31
0.0
  0
LINE
  5
B78
330
1F
100
AcDbEntity
  8
0
370
    40
100
AcDbLine
 10
2180.996652075773
 20
1975.747141583689
 30
0.0
 11
2125.346940501216
 21
1920.097430009133
 31
0.0
  0
LINE
  5
B79
330
1F
100
AcDbEntity
  8
0
370
    40
100
AcDbLine
 10
2180.996652075773
 20
2320.447718434577
 30
0.0
 11
2125.346940501216
 21
2376.097430009133
 31
0.0
  0
DIMENSION
  5
BCE
102
{ACAD_XDICTIONARY
360
BD7
102
}
102
{ACAD_REACTORS
330
BDD
102
}
330
1F
100
AcDbEntity
  8
0
100
AcDbDimension
  2
*D5
 10
1690.996652075773
 20
2281.097430009133
 30
0.0
 11
1685.278839503562
 21
2285.482125383165
 31
0.0
 70
   164
 71
     5
 42
70.00000000000113
  3
ISO-25
100
AcDbRadialDimension
 15
1635.449081269696
 25
2323.693995334802
 35
0.0
 40
0.0
1001
ACAD
1000
DSTYLE
1002
{
1070
   288
1070
     1
1002
}
  0
ENDSEC
  0
SECTION
  2
OBJECTS
  0
DICTIONARY
  5
C
330
0
100
AcDbDictionary
281
     1
  3
ACAD_COLOR
350
73
  3
ACAD_GROUP
350
D
  3
ACAD_LAYOUT
350
1A
  3
ACAD_MATERIAL
350
72
  3
ACAD_MLINESTYLE
350
17
  3
ACAD_PLOTSETTINGS
350
19
  3
ACAD_PLOTSTYLENAME
350
E
  3
ACAD_TABLESTYLE
350
22C
  3
ACDBHEADERROUNDTRIPXREC
350
167C
  3
AcDbVariableDictionary
350
66
  0
DICTIONARY
  5
2E1
330
2
100
AcDbDictionary
280
     1
281
     1
  3
ACAD_LAYERSTATES
360
2E2
  0
DICTIONARY
  5
2C6
330
1F
100
AcDbDictionary
280
     1
281
     1
  3
ACAD_SORTENTS
360
2C7
  0
DICTIONARY
  5
1112
330
10B6
100
AcDbDictionary
280
     1
281
     1
  3
ACAD_SORTENTS
360
1113
  0
DICTIONARY
  5
154E
330
14F4
100
AcDbDictionary
280
     1
281
     1
  3
ACAD_SORTENTS
360
154F
  0
DICTIONARY
  5
BD7
330
BCE
100
AcDbDictionary
280
     1
281
     1
  3
ACAD_DIMASSOC
360
BDD
  0
DICTIONARY
  5
73
102
{ACAD_REACTORS
330
C
102
}
330
C
100
AcDbDictionary
281
     1
  0
DICTIONARY
  5
D
102
{ACAD_REACTORS
330
C
102
}
330
C
100
AcDbDictionary
281
     1
  0
DICTIONARY
  5
1A
102
{ACAD_REACTORS
330
C
102
}
330
C
100
AcDbDictionary
281
     1
  3
Model
350
22
  3
布局1
350
59
  3
布局2
350
5E
  0
DICTIONARY
  5
72
102
{ACAD_REACTORS
330
C
102
}
330
C
100
AcDbDictionary
281
     1
  0
DICTIONARY
  5
17
102
{ACAD_REACTORS
330
C
102
}
330
C
100
AcDbDictionary
281
     1
  3
Standard
350
18
  0
DICTIONARY
  5
19
102
{ACAD_REACTORS
330
C
102
}
330
C
100
AcDbDictionary
281
     1
  0
ACDBDICTIONARYWDFLT
  5
E
102
{ACAD_REACTORS
330
C
102
}
330
C
100
AcDbDictionary
281
     1
  3
Normal
350
F
100
AcDbDictionaryWithDefault
340
F
  0
DICTIONARY
  5
22C
102
{ACAD_REACTORS
330
C
102
}
330
C
100
AcDbDictionary
281
     1
  3
Standard
350
22D
  0
DICTIONARY
  5
167C
102
{ACAD_REACTORS
330
C
102
}
330
C
100
AcDbDictionary
281
     1
  0
DICTIONARY
  5
66
102
{ACAD_REACTORS
330
C
102
}
330
C
100
AcDbDictionary
281
     1
  3
CTABLESTYLE
350
251
  3
DIMASSOC
350
67
  3
HIDETEXT
350
6B
  3
PROJECTNAME
350
167A
  0
DICTIONARY
  5
2E2
102
{ACAD_REACTORS
330
2E1
102
}
330
2E1
100
AcDbDictionary
281
     1
  0
SORTENTSTABLE
  5
2C7
102
{ACAD_REACTORS
330
2C6
102
}
330
2C6
100
AcDbSortentsTable
330
1F
331
B77
  5
B77
331
B6A
  5
B6A
331
B72
  5
B72
331
B64
  5
B64
331
B75
  5
B75
331
B68
  5
B68
331
B70
  5
B70
331
B67
  5
B67
331
B78
  5
B78
331
B73
  5
B73
331
BCE
  5
BCE
331
B65
  5
B65
331
B6E
  5
B6E
331
B76
  5
B76
331
B69
  5
B69
331
B71
  5
B71
331
B79
  5
B79
331
B63
  5
B63
331
B74
  5
B74
331
B6F
  5
B6F
331
B66
  5
B66
  0
SORTENTSTABLE
  5
1113
102
{ACAD_REACTORS
330
1112
102
}
330
1112
100
AcDbSortentsTable
330
10B6
  0
SORTENTSTABLE
  5
154F
102
{ACAD_REACTORS
330
154E
102
}
330
154E
100
AcDbSortentsTable
330
14F4
  0
DIMASSOC
  5
BDD
102
{ACAD_REACTORS
330
BD7
102
}
330
BD7
100
AcDbDimAssoc
330
BCE
 90
        2
 70
     0
 71
     0
  1
AcDbOsnapPointRef
 72
     3
331
B6A
 73
     2
 91
        0
 40
0.0
 10
0.0
 20
0.0
 30
0.0
 75
     0
  0
LAYOUT
  5
22
102
{ACAD_XDICTIONARY
360
167D
102
}
102
{ACAD_REACTORS
330
1A
102
}
330
1A
100
AcDbPlotSettings
  1

  2
\\Dongyuan\EPSON Stylus Photo 830U Series
  4
A4
  6

 40
3.757083
 41
14.76373
 42
3.75708
 43
3.75708
 44
209.973328
 45
296.968323
 46
0.43
 47
0.0
 48
82.02793570537712
 49
43.15498294142831
140
1168.027935705377
141
1543.154982941428
142
1.0
143
5.387011662768917
 70
 11956
 72
     1
 73
     0
 74
     4
  7

 75
     0
147
0.1856316753333334
148
-82.02793570537712
149
-43.15498294142831
100
AcDbLayout
  1
Model
 70
     1
 71
     0
 10
0.0
 20
0.0
 11
12.0
 21
9.0
 12
0.0
 22
0.0
 32
0.0
 14
0.0
 24
0.0
 34
0.0
 15
0.0
 25
0.0
 35
0.0
146
0.0
 13
0.0
 23
0.0
 33
0.0
 16
1.0
 26
0.0
 36
0.0
 17
0.0
 27
1.0
 37
0.0
 76
     0
330
1F
  0
LAYOUT
  5
59
102
{ACAD_XDICTIONARY
360
167F
102
}
102
{ACAD_REACTORS
330
1A
102
}
330
1A
100
AcDbPlotSettings
  1

  2
None
  4

  6

 40
0.0
 41
0.0
 42
0.0
 43
0.0
 44
0.0
 45
0.0
 46
0.0
 47
0.0
 48
0.0
 49
0.0
140
0.0
141
0.0
142
1.0
143
1.0
 70
   688
 72
     0
 73
     0
 74
     5
  7

 75
    16
147
1.0
148
0.0
149
0.0
100
AcDbLayout
  1
布局1
 70
     1
 71
     1
 10
0.0
 20
0.0
 11
12.0
 21
9.0
 12
0.0
 22
0.0
 32
0.0
 14
0.0
 24
0.0
 34
0.0
 15
0.0
 25
0.0
 35
0.0
146
0.0
 13
0.0
 23
0.0
 33
0.0
 16
1.0
 26
0.0
 36
0.0
 17
0.0
 27
1.0
 37
0.0
 76
     0
330
58
  0
LAYOUT
  5
5E
102
{ACAD_XDICTIONARY
360
1681
102
}
102
{ACAD_REACTORS
330
1A
102
}
330
1A
100
AcDbPlotSettings
  1

  2
None
  4

  6

 40
0.0
 41
0.0
 42
0.0
 43
0.0
 44
0.0
 45
0.0
 46
0.0
 47
0.0
 48
0.0
 49
0.0
140
0.0
141
0.0
142
1.0
143
1.0
 70
   688
 72
     0
 73
     0
 74
     5
  7

 75
    16
147
1.0
148
0.0
149
0.0
100
AcDbLayout
  1
布局2
 70
     1
 71
     2
 10
0.0
 20
0.0
 11
12.0
 21
9.0
 12
0.0
 22
0.0
 32
0.0
 14
0.0
 24
0.0
 34
0.0
 15
0.0
 25
0.0
 35
0.0
146
0.0
 13
0.0
 23
0.0
 33
0.0
 16
1.0
 26
0.0
 36
0.0
 17
0.0
 27
1.0
 37
0.0
 76
     0
330
5D
  0
MLINESTYLE
  5
18
102
{ACAD_REACTORS
330
17
102
}
330
17
100
AcDbMlineStyle
  2
STANDARD
 70
     0
  3

 62
   256
 51
90.0
 52
90.0
 71
     2
 49
0.5
 62
   256
  6
BYLAYER
 49
-0.5
 62
   256
  6
BYLAYER
  0
ACDBPLACEHOLDER
  5
F
102
{ACAD_REACTORS
330
E
102
}
330
E
  0
TABLESTYLE
  5
22D
102
{ACAD_REACTORS
330
22C
102
}
330
22C
100
AcDbTableStyle
  3
Standard
 70
     0
 71
     0
 40
0.06
 41
0.06
280
     0
281
     0
  7
Standard
140
0.18
170
     2
 62
     0
 63
     7
283
     0
274
    -2
284
     1
 64
     0
275
    -2
285
     1
 65
     0
276
    -2
286
     1
 66
     0
277
    -2
287
     1
 67
     0
278
    -2
288
     1
 68
     0
279
    -2
289
     1
 69
     0
  7
Standard
140
0.25
170
     5
 62
     0
 63
     7
283
     0
274
    -2
284
     1
 64
     0
275
    -2
285
     1
 65
     0
276
    -2
286
     1
 66
     0
277
    -2
287
     1
 67
     0
278
    -2
288
     1
 68
     0
279
    -2
289
     1
 69
     0
  7
Standard
140
0.18
170
     5
 62
     0
 63
     7
283
     0
274
    -2
284
     1
 64
     0
275
    -2
285
     1
 65
     0
276
    -2
286
     1
 66
     0
277
    -2
287
     1
 67
     0
278
    -2
288
     1
 68
     0
279
    -2
289
     1
 69
     0
  0
DICTIONARYVAR
  5
251
102
{ACAD_REACTORS
330
66
102
}
330
66
100
DictionaryVariables
280
     0
  1
STANDARD
  0
DICTIONARYVAR
  5
67
102
{ACAD_REACTORS
330
66
102
}
330
66
100
DictionaryVariables
280
     0
  1
2
  0
DICTIONARYVAR
  5
6B
102
{ACAD_REACTORS
330
66
102
}
330
66
100
DictionaryVariables
280
     0
  1
1
  0
DICTIONARYVAR
  5
167A
102
{ACAD_REACTORS
330
66
102
}
330
66
100
DictionaryVariables
280
     0
  1

  0
DICTIONARY
  5
167D
330
22
100
AcDbDictionary
280
     1
281
     1
  3
ACAD_XREC_ROUNDTRIP
360
167E
  0
DICTIONARY
  5
167F
330
59
100
AcDbDictionary
280
     1
281
     1
  3
ACAD_XREC_ROUNDTRIP
360
1680
  0
DICTIONARY
  5
1681
330
5E
100
AcDbDictionary
280
     1
281
     1
  3
ACAD_XREC_ROUNDTRIP
360
1682
  0
XRECORD
  5
167E
102
{ACAD_REACTORS
330
167D
102
}
330
167D
100
AcDbXrecord
280
     1
102
SHADEPLOT
 70
     1
102
SHADEPLOTRESLEVEL
 70
     2
102
SHADEPLOTCUSTOMDPI
 70
   300
  0
XRECORD
  5
1680
102
{ACAD_REACTORS
330
167F
102
}
330
167F
100
AcDbXrecord
280
     1
102
SHADEPLOT
 70
     0
102
SHADEPLOTRESLEVEL
 70
     2
102
SHADEPLOTCUSTOMDPI
 70
   300
  0
XRECORD
  5
1682
102
{ACAD_REACTORS
330
1681
102
}
330
1681
100
AcDbXrecord
280
     1
102
SHADEPLOT
 70
     0
102
SHADEPLOTRESLEVEL
 70
     2
102
SHADEPLOTCUSTOMDPI
 70
   300
  0
ENDSEC
  0
EOF
