  0
SECTION
  2
HEADER
  9
$ACADVER
  1
AC1015
  9
$ACADMAINTVER
 70
    20
  9
$DWGCODEPAGE
  3
ANSI_936
  9
$INSBASE
 10
0.0
 20
0.0
 30
0.0
  9
$EXTMIN
 10
7317.932529642795
 20
2736.683731547011
 30
0.0
  9
$EXTMAX
 10
8210.75849059609
 20
3321.307588638992
 30
0.0
  9
$LIMMIN
 10
0.0
 20
0.0
  9
$LIMMAX
 10
12.0
 20
9.0
  9
$ORTHOMODE
 70
     1
  9
$REGENMODE
 70
     1
  9
$FILLMODE
 70
     1
  9
$QTEXTMODE
 70
     0
  9
$MIRRTEXT
 70
     0
  9
$LTSCALE
 40
1.0
  9
$ATTMODE
 70
     1
  9
$TEXTSIZE
 40
0.2
  9
$TRACEWID
 40
0.05
  9
$TEXTSTYLE
  7
Standard
  9
$CLAYER
  8
0
  9
$CELTYPE
  6
ByLayer
  9
$CECOLOR
 62
   256
  9
$CELTSCALE
 40
1.0
  9
$DISPSILH
 70
     0
  9
$DIMSCALE
 40
1.0
  9
$DIMASZ
 40
15.0
  9
$DIMEXO
 40
0.0
  9
$DIMDLI
 40
3.75
  9
$DIMRND
 40
0.0
  9
$DIMDLE
 40
0.0
  9
$DIMEXE
 40
1.25
  9
$DIMTP
 40
0.0
  9
$DIMTM
 40
0.0
  9
$DIMTXT
 40
25.0
  9
$DIMCEN
 40
15.0
  9
$DIMTSZ
 40
0.0
  9
$DIMTOL
 70
     0
  9
$DIMLIM
 70
     0
  9
$DIMTIH
 70
     0
  9
$DIMTOH
 70
     1
  9
$DIMSE1
 70
     0
  9
$DIMSE2
 70
     0
  9
$DIMTAD
 70
     1
  9
$DIMZIN
 70
     8
  9
$DIMBLK
  1

  9
$DIMASO
 70
     1
  9
$DIMSHO
 70
     1
  9
$DIMPOST
  1

  9
$DIMAPOST
  1

  9
$DIMALT
 70
     0
  9
$DIMALTD
 70
     3
  9
$DIMALTF
 40
0.03937007874016
  9
$DIMLFAC
 40
1.0
  9
$DIMTOFL
 70
     1
  9
$DIMTVP
 40
0.0
  9
$DIMTIX
 70
     0
  9
$DIMSOXD
 70
     0
  9
$DIMSAH
 70
     0
  9
$DIMBLK1
  1

  9
$DIMBLK2
  1

  9
$DIMSTYLE
  2
ISO-25
  9
$DIMCLRD
 70
     6
  9
$DIMCLRE
 70
     6
  9
$DIMCLRT
 70
     6
  9
$DIMTFAC
 40
1.0
  9
$DIMGAP
 40
3.0
  9
$DIMJUST
 70
     0
  9
$DIMSD1
 70
     0
  9
$DIMSD2
 70
     0
  9
$DIMTOLJ
 70
     0
  9
$DIMTZIN
 70
     8
  9
$DIMALTZ
 70
     0
  9
$DIMALTTZ
 70
     0
  9
$DIMUPT
 70
     0
  9
$DIMDEC
 70
     2
  9
$DIMTDEC
 70
     2
  9
$DIMALTU
 70
     2
  9
$DIMALTTD
 70
     3
  9
$DIMTXSTY
  7
Standard
  9
$DIMAUNIT
 70
     0
  9
$DIMADEC
 70
     0
  9
$DIMALTRND
 40
0.0
  9
$DIMAZIN
 70
     0
  9
$DIMDSEP
 70
    44
  9
$DIMATFIT
 70
     3
  9
$DIMFRAC
 70
     0
  9
$DIMLDRBLK
  1

  9
$DIMLUNIT
 70
     2
  9
$DIMLWD
 70
     5
  9
$DIMLWE
 70
     5
  9
$DIMTMOVE
 70
     0
  9
$LUNITS
 70
     2
  9
$LUPREC
 70
     4
  9
$SKETCHINC
 40
0.1
  9
$FILLETRAD
 40
100.0
  9
$AUNITS
 70
     0
  9
$AUPREC
 70
     0
  9
$MENU
  1
.
  9
$ELEVATION
 40
0.0
  9
$PELEVATION
 40
0.0
  9
$THICKNESS
 40
0.0
  9
$LIMCHECK
 70
     0
  9
$CHAMFERA
 40
0.0
  9
$CHAMFERB
 40
0.0
  9
$CHAMFERC
 40
0.0
  9
$CHAMFERD
 40
0.0
  9
$SKPOLY
 70
     0
  9
$TDCREATE
 40
2453580.638369861
  9
$TDUCREATE
 40
2453580.305036528
  9
$TDUPDATE
 40
2455233.717980324
  9
$TDUUPDATE
 40
2455233.384646991
  9
$TDINDWG
 40
0.2394572685
  9
$TDUSRTIMER
 40
0.2394572685
  9
$USRTIMER
 70
     1
  9
$ANGBASE
 50
0.0
  9
$ANGDIR
 70
     0
  9
$PDMODE
 70
     0
  9
$PDSIZE
 40
0.0
  9
$PLINEWID
 40
0.0
  9
$SPLFRAME
 70
     0
  9
$SPLINETYPE
 70
     6
  9
$SPLINESEGS
 70
     8
  9
$HANDSEED
  5
22D3
  9
$SURFTAB1
 70
     6
  9
$SURFTAB2
 70
     6
  9
$SURFTYPE
 70
     6
  9
$SURFU
 70
     6
  9
$SURFV
 70
     6
  9
$UCSBASE
  2

  9
$UCSNAME
  2

  9
$UCSORG
 10
0.0
 20
0.0
 30
0.0
  9
$UCSXDIR
 10
1.0
 20
0.0
 30
0.0
  9
$UCSYDIR
 10
0.0
 20
1.0
 30
0.0
  9
$UCSORTHOREF
  2

  9
$UCSORTHOVIEW
 70
     1
  9
$UCSORGTOP
 10
0.0
 20
0.0
 30
0.0
  9
$UCSORGBOTTOM
 10
0.0
 20
0.0
 30
0.0
  9
$UCSORGLEFT
 10
0.0
 20
0.0
 30
0.0
  9
$UCSORGRIGHT
 10
0.0
 20
0.0
 30
0.0
  9
$UCSORGFRONT
 10
0.0
 20
0.0
 30
0.0
  9
$UCSORGBACK
 10
0.0
 20
0.0
 30
0.0
  9
$PUCSBASE
  2

  9
$PUCSNAME
  2

  9
$PUCSORG
 10
0.0
 20
0.0
 30
0.0
  9
$PUCSXDIR
 10
1.0
 20
0.0
 30
0.0
  9
$PUCSYDIR
 10
0.0
 20
1.0
 30
0.0
  9
$PUCSORTHOREF
  2

  9
$PUCSORTHOVIEW
 70
     0
  9
$PUCSORGTOP
 10
0.0
 20
0.0
 30
0.0
  9
$PUCSORGBOTTOM
 10
0.0
 20
0.0
 30
0.0
  9
$PUCSORGLEFT
 10
0.0
 20
0.0
 30
0.0
  9
$PUCSORGRIGHT
 10
0.0
 20
0.0
 30
0.0
  9
$PUCSORGFRONT
 10
0.0
 20
0.0
 30
0.0
  9
$PUCSORGBACK
 10
0.0
 20
0.0
 30
0.0
  9
$USERI1
 70
     0
  9
$USERI2
 70
     0
  9
$USERI3
 70
     0
  9
$USERI4
 70
     0
  9
$USERI5
 70
     0
  9
$USERR1
 40
0.0
  9
$USERR2
 40
0.0
  9
$USERR3
 40
0.0
  9
$USERR4
 40
0.0
  9
$USERR5
 40
0.0
  9
$WORLDVIEW
 70
     1
  9
$SHADEDGE
 70
     3
  9
$SHADEDIF
 70
    70
  9
$TILEMODE
 70
     1
  9
$MAXACTVP
 70
    64
  9
$PINSBASE
 10
0.0
 20
0.0
 30
0.0
  9
$PLIMCHECK
 70
     0
  9
$PEXTMIN
 10
0.0
 20
0.0
 30
0.0
  9
$PEXTMAX
 10
0.0
 20
0.0
 30
0.0
  9
$PLIMMIN
 10
0.0
 20
0.0
  9
$PLIMMAX
 10
12.0
 20
9.0
  9
$UNITMODE
 70
     0
  9
$VISRETAIN
 70
     1
  9
$PLINEGEN
 70
     0
  9
$PSLTSCALE
 70
     1
  9
$TREEDEPTH
 70
  3020
  9
$CMLSTYLE
  2
Standard
  9
$CMLJUST
 70
     0
  9
$CMLSCALE
 40
1.0
  9
$PROXYGRAPHICS
 70
     1
  9
$MEASUREMENT
 70
     0
  9
$CELWEIGHT
370
    -1
  9
$ENDCAPS
280
     0
  9
$JOINSTYLE
280
     0
  9
$LWDISPLAY
290
     0
  9
$INSUNITS
 70
     1
  9
$HYPERLINKBASE
  1

  9
$STYLESHEET
  1
monochrome.ctb
  9
$XEDIT
290
     1
  9
$CEPSNTYPE
380
     0
  9
$PSTYLEMODE
290
     1
  9
$FINGERPRINTGUID
  2
{FDEAD576-A652-11D2-9A35-0060089B3A3F}
  9
$VERSIONGUID
  2
{2BCE090B-1FDB-4880-806D-CEB4C88B4A01}
  9
$EXTNAMES
290
     1
  9
$PSVPSCALE
 40
0.0
  9
$OLESTARTUP
290
     0
  0
ENDSEC
  0
SECTION
  2
CLASSES
  0
CLASS
  1
ACDBDICTIONARYWDFLT
  2
AcDbDictionaryWithDefault
  3
ObjectDBX Classes
 90
        0
280
     0
281
     0
  0
CLASS
  1
ACDBPLACEHOLDER
  2
AcDbPlaceHolder
  3
ObjectDBX Classes
 90
        0
280
     0
281
     0
  0
CLASS
  1
LAYOUT
  2
AcDbLayout
  3
ObjectDBX Classes
 90
        0
280
     0
281
     0
  0
CLASS
  1
DICTIONARYVAR
  2
AcDbDictionaryVar
  3
ObjectDBX Classes
 90
        0
280
     0
281
     0
  0
CLASS
  1
DIMASSOC
  2
AcDbDimAssoc
  3
"AcDbDimAssoc|Product Desc:     AcDim ARX App For Dimension|Company:          Autodesk, Inc.|WEB Address:      www.autodesk.com"
 90
        0
280
     0
281
     0
  0
CLASS
  1
TABLESTYLE
  2
AcDbTableStyle
  3
ObjectDBX Classes
 90
     2047
280
     0
281
     0
  0
CLASS
  1
SORTENTSTABLE
  2
AcDbSortentsTable
  3
ObjectDBX Classes
 90
        0
280
     0
281
     0
  0
ENDSEC
  0
SECTION
  2
TABLES
  0
TABLE
  2
VPORT
  5
8
330
0
100
AcDbSymbolTable
 70
     2
  0
VPORT
  5
22C8
330
8
100
AcDbSymbolTableRecord
100
AcDbViewportTableRecord
  2
*Active
 70
     0
 10
0.0
 20
0.0
 11
1.0
 21
1.0
 12
7764.429052814655
 22
3029.217675062575
 13
0.0
 23
0.0
 14
0.5
 24
0.5
 15
0.5
 25
0.5
 16
0.0
 26
0.0
 36
1.0
 17
0.0
 27
0.0
 37
0.0
 40
590.2959476174692
 41
1.586251621271076
 42
50.0
 43
0.0
 44
0.0
 50
0.0
 51
0.0
 71
     0
 72
  1000
 73
     1
 74
     3
 75
     0
 76
     0
 77
     0
 78
     0
281
     0
 65
     1
110
0.0
120
0.0
130
0.0
111
1.0
121
0.0
131
0.0
112
0.0
122
1.0
132
0.0
 79
     1
146
0.0
  0
ENDTAB
  0
TABLE
  2
LTYPE
  5
5
330
0
100
AcDbSymbolTable
 70
     4
  0
LTYPE
  5
14
330
5
100
AcDbSymbolTableRecord
100
AcDbLinetypeTableRecord
  2
ByBlock
 70
     0
  3

 72
    65
 73
     0
 40
0.0
  0
LTYPE
  5
15
330
5
100
AcDbSymbolTableRecord
100
AcDbLinetypeTableRecord
  2
ByLayer
 70
     0
  3

 72
    65
 73
     0
 40
0.0
  0
LTYPE
  5
16
330
5
100
AcDbSymbolTableRecord
100
AcDbLinetypeTableRecord
  2
Continuous
 70
     0
  3
Solid line
 72
    65
 73
     0
 40
0.0
  0
LTYPE
  5
5E8
330
5
100
AcDbSymbolTableRecord
100
AcDbLinetypeTableRecord
  2
HIDDEN2
 70
     0
  3
Hidden (.5x) _ _ _ _ _ _ _ _ _ _ _ _ _ _ _ _ _
 72
    65
 73
     2
 40
0.1875
 49
0.125
 74
     0
 49
-0.0625
 74
     0
  0
LTYPE
  5
C65
330
5
100
AcDbSymbolTableRecord
100
AcDbLinetypeTableRecord
  2
ACAD_ISO10W100
 70
     0
  3
ISO dash dot __ . __ . __ . __ . __ . __ . __ .
 72
    65
 73
     4
 40
18.0
 49
12.0
 74
     0
 49
-3.0
 74
     0
 49
0.0
 74
     0
 49
-3.0
 74
     0
  0
LTYPE
  5
E55
330
5
100
AcDbSymbolTableRecord
100
AcDbLinetypeTableRecord
  2
CENTER2
 70
     0
  3
Center (.5x) ___ _ ___ _ ___ _ ___ _ ___ _ ___
 72
    65
 73
     4
 40
28.575
 49
19.05
 74
     0
 49
-3.174999999999999
 74
     0
 49
3.174999999999999
 74
     0
 49
-3.174999999999999
 74
     0
  0
ENDTAB
  0
TABLE
  2
LAYER
  5
2
102
{ACAD_XDICTIONARY
360
C16
102
}
330
0
100
AcDbSymbolTable
 70
     7
  0
LAYER
  5
10
330
2
100
AcDbSymbolTableRecord
100
AcDbLayerTableRecord
  2
0
 70
     0
 62
     7
  6
Continuous
370
    -3
390
F
  0
LAYER
  5
CB
330
2
100
AcDbSymbolTableRecord
100
AcDbLayerTableRecord
  2
Defpoints
 70
     0
 62
     7
  6
Continuous
290
     0
370
    -3
390
F
  0
LAYER
  5
CC
330
2
100
AcDbSymbolTableRecord
100
AcDbLayerTableRecord
  2
Title Block
 70
     0
 62
     7
  6
Continuous
370
    -3
390
F
  0
LAYER
  5
5E9
330
2
100
AcDbSymbolTableRecord
100
AcDbLayerTableRecord
  2
图层1
 70
     0
 62
     7
  6
HIDDEN2
370
    -3
390
F
  0
LAYER
  5
E56
330
2
100
AcDbSymbolTableRecord
100
AcDbLayerTableRecord
  2
标注线
 70
     0
 62
     6
  6
Continuous
370
    -3
390
F
  0
LAYER
  5
E57
330
2
100
AcDbSymbolTableRecord
100
AcDbLayerTableRecord
  2
中心线
 70
     0
 62
     1
  6
CENTER2
370
    -3
390
F
  0
LAYER
  5
E58
330
2
100
AcDbSymbolTableRecord
100
AcDbLayerTableRecord
  2
虚线
 70
     0
 62
     3
  6
HIDDEN2
370
    -3
390
F
  0
ENDTAB
  0
TABLE
  2
STYLE
  5
3
330
0
100
AcDbSymbolTable
 70
     3
  0
STYLE
  5
11
330
3
100
AcDbSymbolTableRecord
100
AcDbTextStyleTableRecord
  2
Standard
 70
     0
 40
0.0
 41
1.0
 50
0.0
 71
     0
 42
0.2
  3
TIMES.TTF
  4

1001
ACAD
1000
Times New Roman
1071
       18
  0
STYLE
  5
CD
330
3
100
AcDbSymbolTableRecord
100
AcDbTextStyleTableRecord
  2
Roman
 70
     0
 40
0.0
 41
1.0
 50
0.0
 71
     0
 42
0.065
  3
romans
  4

  0
STYLE
  5
5E7
330
3
100
AcDbSymbolTableRecord
100
AcDbTextStyleTableRecord
  2

 70
     1
 40
0.0
 41
1.0
 50
0.0
 71
     0
 42
0.2
  3
ltypeshp.shx
  4

  0
ENDTAB
  0
TABLE
  2
VIEW
  5
6
330
0
100
AcDbSymbolTable
 70
     0
  0
ENDTAB
  0
TABLE
  2
UCS
  5
7
330
0
100
AcDbSymbolTable
 70
     0
  0
ENDTAB
  0
TABLE
  2
APPID
  5
9
330
0
100
AcDbSymbolTable
 70
     5
  0
APPID
  5
12
330
9
100
AcDbSymbolTableRecord
100
AcDbRegAppTableRecord
  2
ACAD
 70
     0
  0
APPID
  5
211E
330
9
100
AcDbSymbolTableRecord
100
AcDbRegAppTableRecord
  2
ACAD_DSTYLE_DIMEXT_LENGTH
 70
     0
  0
APPID
  5
211F
330
9
100
AcDbSymbolTableRecord
100
AcDbRegAppTableRecord
  2
ACAD_DSTYLE_DIMEXT_ENABLED
 70
     0
  0
APPID
  5
2120
330
9
100
AcDbSymbolTableRecord
100
AcDbRegAppTableRecord
  2
ACAD_DSTYLE_DIMJOGGED_JOGANGLE_SYMBOL
 70
     0
  0
APPID
  5
2121
330
9
100
AcDbSymbolTableRecord
100
AcDbRegAppTableRecord
  2
ACAD_DSTYLE_DIMARC_LENGTH_SYMBOL
 70
     0
  0
ENDTAB
  0
TABLE
  2
DIMSTYLE
  5
A
330
0
100
AcDbSymbolTable
 70
     3
100
AcDbDimStyleTable
 71
     1
340
CE
  0
DIMSTYLE
105
27
330
A
100
AcDbSymbolTableRecord
100
AcDbDimStyleTableRecord
  2
Standard
 70
     0
340
11
  0
DIMSTYLE
105
CE
102
{ACAD_REACTORS
330
209B
330
209C
330
215B
330
209A
330
2099
102
}
330
A
100
AcDbSymbolTableRecord
100
AcDbDimStyleTableRecord
  2
ISO-25
 70
     0
 41
15.0
 42
0.0
 43
3.75
 44
1.25
 73
     0
 77
     1
 78
     8
140
25.0
141
15.0
143
0.03937007874016
147
3.0
171
     3
172
     1
176
     6
177
     6
178
     6
271
     2
272
     2
274
     3
278
    44
283
     0
284
     8
340
11
371
     5
372
     5
  0
DIMSTYLE
105
C15
330
A
100
AcDbSymbolTableRecord
100
AcDbDimStyleTableRecord
  2
副本ISO-25
 70
     0
 41
15.0
 42
0.625
 43
3.75
 44
1.25
 73
     0
 77
     1
 78
     8
140
15.0
141
2.5
143
0.03937007874016
147
0.625
170
     1
171
     1
172
     1
176
     6
177
     6
271
     2
272
     2
274
     1
278
    44
283
     0
284
     8
340
11
371
    15
372
    15
  0
ENDTAB
  0
TABLE
  2
BLOCK_RECORD
  5
1
330
0
100
AcDbSymbolTable
 70
     8
  0
BLOCK_RECORD
  5
1F
102
{ACAD_XDICTIONARY
360
1898
102
}
330
1
100
AcDbSymbolTableRecord
100
AcDbBlockTableRecord
  2
*Model_Space
340
22
  0
BLOCK_RECORD
  5
58
330
1
100
AcDbSymbolTableRecord
100
AcDbBlockTableRecord
  2
*Paper_Space
340
59
  0
BLOCK_RECORD
  5
5D
330
1
100
AcDbSymbolTableRecord
100
AcDbBlockTableRecord
  2
*Paper_Space0
340
5E
  0
BLOCK_RECORD
  5
8F3
330
1
100
AcDbSymbolTableRecord
100
AcDbBlockTableRecord
  2
A$C1B6172BE
340
0
  0
BLOCK_RECORD
  5
C11
330
1
100
AcDbSymbolTableRecord
100
AcDbBlockTableRecord
  2
A$C06924280
340
0
  0
BLOCK_RECORD
  5
20A3
330
1
100
AcDbSymbolTableRecord
100
AcDbBlockTableRecord
  2
*D3
340
0
  0
BLOCK_RECORD
  5
20AF
330
1
100
AcDbSymbolTableRecord
100
AcDbBlockTableRecord
  2
*D4
340
0
  0
BLOCK_RECORD
  5
20BB
330
1
100
AcDbSymbolTableRecord
100
AcDbBlockTableRecord
  2
*D5
340
0
  0
BLOCK_RECORD
  5
20C7
330
1
100
AcDbSymbolTableRecord
100
AcDbBlockTableRecord
  2
*D6
340
0
  0
BLOCK_RECORD
  5
215C
330
1
100
AcDbSymbolTableRecord
100
AcDbBlockTableRecord
  2
*D7
340
0
  0
ENDTAB
  0
ENDSEC
  0
SECTION
  2
BLOCKS
  0
BLOCK
  5
20
330
1F
100
AcDbEntity
  8
0
100
AcDbBlockBegin
  2
*Model_Space
 70
     0
 10
0.0
 20
0.0
 30
0.0
  3
*Model_Space
  1

  0
ENDBLK
  5
21
330
1F
100
AcDbEntity
  8
0
100
AcDbBlockEnd
  0
BLOCK
  5
5A
330
58
100
AcDbEntity
 67
     1
  8
0
100
AcDbBlockBegin
  2
*Paper_Space
 70
     0
 10
0.0
 20
0.0
 30
0.0
  3
*Paper_Space
  1

  0
ENDBLK
  5
5B
330
58
100
AcDbEntity
 67
     1
  8
0
100
AcDbBlockEnd
  0
BLOCK
  5
5F
330
5D
100
AcDbEntity
 67
     1
  8
0
100
AcDbBlockBegin
  2
*Paper_Space0
 70
     0
 10
0.0
 20
0.0
 30
0.0
  3
*Paper_Space0
  1

  0
ENDBLK
  5
60
330
5D
100
AcDbEntity
 67
     1
  8
0
100
AcDbBlockEnd
  0
BLOCK
  5
925
330
8F3
100
AcDbEntity
  8
0
100
AcDbBlockBegin
  2
A$C1B6172BE
 70
     2
 10
0.0
 20
0.0
 30
0.0
  3
A$C1B6172BE
  1

  0
MTEXT
  5
8F4
330
8F3
100
AcDbEntity
  8
0
100
AcDbMText
 10
613.1447647137401
 20
196.1572292975912
 30
0.0
 40
20.0
 41
468.75
 71
     1
 72
     5
  1
{\fNSimSun|b0|i0|c134|p49;1.5mm SUS304 STAINLESS STEEL}
 73
     1
 44
1.0
1001
ACAD
1000
MTEXTBEGIN
1070
    73
1070
     1
1070
    44
1040
1.0
1070
    74
1070
     0
1000
MTEXTEND
  0
MTEXT
  5
8F5
330
8F3
100
AcDbEntity
  8
0
100
AcDbMText
 10
676.1619671129965
 20
156.4211124295585
 30
0.0
 40
45.0
 41
318.75
 71
     1
 72
     5
  1
8 6 8
 73
     1
 44
1.0
1001
ACAD
1000
MTEXTBEGIN
1070
    73
1070
     1
1070
    44
1040
1.0
1070
    74
1070
     0
1000
MTEXTEND
  0
MTEXT
  5
8F6
330
8F3
100
AcDbEntity
  8
0
100
AcDbMText
 10
988.9245912886989
 20
64.36916207749949
 30
0.0
 40
15.0
 41
187.1342842590093
 71
     1
 72
     5
  1
   {\fSimSun|b0|i0|c134|p54;年   月   日}
 73
     1
 44
1.0
1001
ACAD
1000
MTEXTBEGIN
1070
    73
1070
     1
1070
    44
1040
1.0
1070
    74
1070
     0
1000
MTEXTEND
  0
MTEXT
  5
8F7
330
8F3
100
AcDbEntity
  8
0
100
AcDbMText
 10
988.9245912886989
 20
97.39777402649693
 30
0.0
 40
15.0
 41
187.1342842590093
 71
     1
 72
     5
  1
   {\fSimSun|b0|i0|c134|p54;年   月   日}
 73
     1
 44
1.0
1001
ACAD
1000
MTEXTBEGIN
1070
    73
1070
     1
1070
    44
1040
1.0
1070
    74
1070
     0
1000
MTEXTEND
  0
MTEXT
  5
8F8
330
8F3
100
AcDbEntity
  8
0
100
AcDbMText
 10
863.8405295497515
 20
66.83337082739003
 30
0.0
 40
20.0
 41
144.5691098365569
 71
     1
 72
     5
  1
{\fSimSun|b0|i0|c134|p54;日 期}
 73
     1
 44
1.0
1001
ACAD
1000
MTEXTBEGIN
1070
    73
1070
     1
1070
    44
1040
1.0
1070
    74
1070
     0
1000
MTEXTEND
  0
MTEXT
  5
8F9
330
8F3
100
AcDbEntity
  8
0
100
AcDbMText
 10
863.8405295497515
 20
100.2667836506449
 30
0.0
 40
20.0
 41
144.5691098365569
 71
     1
 72
     5
  1
{\fSimSun|b0|i0|c134|p54;日 期}
 73
     1
 44
1.0
1001
ACAD
1000
MTEXTBEGIN
1070
    73
1070
     1
1070
    44
1040
1.0
1070
    74
1070
     0
1000
MTEXTEND
  0
MTEXT
  5
8FA
330
8F3
100
AcDbEntity
  8
0
100
AcDbMText
 10
518.8339527252692
 20
68.9249849592676
 30
0.0
 40
20.0
 41
101.3041646945203
 71
     1
 72
     5
  1
{\fSimSun|b0|i0|c134|p54;批 准}
 73
     1
 44
1.0
1001
ACAD
1000
MTEXTBEGIN
1070
    73
1070
     1
1070
    44
1040
1.0
1070
    74
1070
     0
1000
MTEXTEND
  0
MTEXT
  5
8FB
330
8F3
100
AcDbEntity
  8
0
100
AcDbMText
 10
518.8339527252692
 20
101.2779833143983
 30
0.0
 40
20.0
 41
101.3041646945203
 71
     1
 72
     5
  1
{\fSimSun|b0|i0|c134|p54;审 核}
 73
     1
 44
1.0
1001
ACAD
1000
MTEXTBEGIN
1070
    73
1070
     1
1070
    44
1040
1.0
1070
    74
1070
     0
1000
MTEXTEND
  0
LINE
  5
8FC
330
8F3
100
AcDbEntity
  8
0
100
AcDbLine
 10
955.8657165980848
 20
104.8123439375309
 30
0.0
 11
955.8657165980848
 21
37.49999777484176
 31
0.0
  0
LINE
  5
8FD
330
8F3
100
AcDbEntity
  8
0
100
AcDbLine
 10
606.8041655516144
 20
104.8123439375309
 30
0.0
 11
606.8041655516144
 21
37.49999777484176
 31
0.0
  0
MTEXT
  5
8FE
330
8F3
100
AcDbEntity
  8
0
100
AcDbMText
 10
508.1376295776954
 20
203.5406309272772
 30
0.0
 40
20.0
 41
318.7499999999991
 71
     1
 72
     5
  1
{\fSimSun|b0|i0|c134|p54;\H0.75x;材 料:}
 73
     1
 44
1.0
1001
ACAD
1000
MTEXTBEGIN
1070
    73
1070
     1
1070
    44
1040
1.0
1070
    74
1070
     0
1000
MTEXTEND
  0
MTEXT
  5
8FF
330
8F3
100
AcDbEntity
  8
0
100
AcDbMText
 10
508.1376295776954
 20
159.5222505822099
 30
0.0
 40
15.0
 41
318.7499999999991
 71
     1
 72
     5
  1
{\fSimSun|b0|i0|c134|p54;产品编号:}
 73
     1
 44
1.0
1001
ACAD
1000
MTEXTBEGIN
1070
    73
1070
     1
1070
    44
1040
1.0
1070
    74
1070
     0
1000
MTEXTEND
  0
LINE
  5
900
330
8F3
100
AcDbEntity
  8
0
100
AcDbLine
 10
845.8428623280351
 20
104.8123439375309
 30
0.0
 11
845.8428623280351
 21
37.49999777484176
 31
0.0
  0
LINE
  5
901
330
8F3
100
AcDbEntity
  8
0
100
AcDbLine
 10
505.5000008570941
 20
71.15617085618454
 30
0.0
 11
1143.000000857094
 21
71.15617085618636
 31
0.0
  0
SOLID
  5
902
330
8F3
100
AcDbEntity
  8
Title Block
100
AcDbTrace
 10
577.5000008570932
 20
14.99999777484176
 30
0.0
 11
622.500000857095
 21
14.99999777484176
 31
0.0
 12
600.0000008570942
 22
37.49999777484176
 32
0.0
 13
600.0000008570942
 23
37.49999777484176
 33
0.0
  0
LINE
  5
903
330
8F3
100
AcDbEntity
  8
Title Block
100
AcDbLine
 10
505.5000008570941
 20
161.9892437003515
 30
0.0
 11
1143.000000857094
 21
161.9892437003515
 31
0.0
  0
LINE
  5
904
330
8F3
100
AcDbEntity
  8
Title Block
100
AcDbLine
 10
205.5000008570942
 20
104.8123439375309
 30
0.0
 11
1143.000000857094
 21
104.8123439375309
 31
0.0
  0
LINE
  5
905
330
8F3
100
AcDbEntity
  8
Title Block
100
AcDbLine
 10
205.5000008570942
 20
207.1661434631757
 30
0.0
 11
1143.000000857094
 21
207.1661434631757
 31
0.0
  0
LINE
  5
906
330
8F3
100
AcDbEntity
  8
Title Block
100
AcDbLine
 10
57.00000085709416
 20
37.49999777484176
 30
0.0
 11
1143.000000857094
 21
37.49999777484176
 31
0.0
  0
LINE
  5
907
330
8F3
100
AcDbEntity
  8
Title Block
100
AcDbLine
 10
0.0000008570941645
 20
-0.0000022251582408
 30
0.0
 11
1200.000000857094
 21
-0.0000022251582408
 31
0.0
  0
LINE
  5
908
330
8F3
100
AcDbEntity
  8
Title Block
100
AcDbLine
 10
57.00000085709416
 20
1537.499997774841
 30
0.0
 11
57.00000085709416
 21
37.49999777484176
 31
0.0
  0
LINE
  5
909
330
8F3
100
AcDbEntity
  8
Title Block
100
AcDbLine
 10
0.0000008570941645
 20
1574.999997774842
 30
0.0
 11
0.0000008570941645
 21
-0.0000022251582408
 31
0.0
  0
LINE
  5
90A
330
8F3
100
AcDbEntity
  8
Title Block
100
AcDbLine
 10
505.5000008570941
 20
37.49999777484176
 30
0.0
 11
505.500000857095
 21
207.1661434631757
 31
0.0
  0
LINE
  5
90B
330
8F3
100
AcDbEntity
  8
Title Block
100
AcDbLine
 10
205.5000008570942
 20
37.49999777484176
 30
0.0
 11
205.5000008570951
 21
207.1661434631757
 31
0.0
  0
LWPOLYLINE
  5
90C
330
8F3
100
AcDbEntity
  8
Title Block
100
AcDbPolyline
 90
        2
 70
     0
 43
3.0
 10
600.0000008570942
 20
-0.0000022251582408
 10
600.0000008570942
 20
14.99999777484176
  0
LINE
  5
90D
330
8F3
100
AcDbEntity
  8
Title Block
100
AcDbLine
 10
1143.000000857094
 20
37.49999777484176
 30
0.0
 11
1143.000000857094
 21
1537.499997774841
 31
0.0
  0
LINE
  5
90E
330
8F3
100
AcDbEntity
  8
Title Block
100
AcDbLine
 10
1200.000000857094
 20
-0.0000022251582408
 30
0.0
 11
1200.000000857094
 21
1574.999997774842
 31
0.0
  0
MTEXT
  5
90F
330
8F3
100
AcDbEntity
  8
0
100
AcDbMText
 10
212.7999980399263
 20
187.3234697522171
 30
0.0
 40
30.0
 41
618.75
 71
     1
 72
     5
  1
{\fSimSun|b0|i0|c134|p54;\H1.667x;东原厨具}
 73
     1
 44
1.0
1001
ACAD
1000
MTEXTBEGIN
1070
    73
1070
     1
1070
    44
1040
1.0
1070
    74
1070
     0
1000
MTEXTEND
  0
SOLID
  5
910
330
8F3
100
AcDbEntity
  8
Title Block
100
AcDbTrace
 10
34.50000085709234
 20
764.9999977748417
 30
0.0
 11
34.50000085709234
 21
809.9999977748417
 31
0.0
 12
57.00000085709416
 22
787.4999977748417
 32
0.0
 13
57.00000085709416
 23
787.4999977748417
 33
0.0
  0
LWPOLYLINE
  5
911
330
8F3
100
AcDbEntity
  8
Title Block
100
AcDbPolyline
 90
        2
 70
     0
 43
3.0
 10
19.50000085709416
 20
787.4999977748417
 10
34.50000085709234
 20
787.4999977748417
  0
SOLID
  5
912
330
8F3
100
AcDbEntity
  8
Title Block
100
AcDbTrace
 10
1165.500000857096
 20
764.9999977748417
 30
0.0
 11
1165.500000857096
 21
809.9999977748417
 31
0.0
 12
1143.000000857094
 22
787.4999977748417
 32
0.0
 13
1143.000000857094
 23
787.4999977748417
 33
0.0
  0
LWPOLYLINE
  5
913
330
8F3
100
AcDbEntity
  8
Title Block
100
AcDbPolyline
 90
        2
 70
     0
 43
3.0
 10
1180.500000857094
 20
787.4999977748417
 10
1165.500000857096
 20
787.4999977748417
  0
MTEXT
  5
914
330
8F3
100
AcDbEntity
  8
0
100
AcDbMText
 10
822.5193827358461
 20
1495.079502778154
 30
0.0
 40
20.0
 41
144.5691098365569
 71
     1
 72
     5
  1
{\fSimSun|b0|i0|c134|p54;日 期}
 73
     1
 44
1.0
1001
ACAD
1000
MTEXTBEGIN
1070
    73
1070
     1
1070
    44
1040
1.0
1070
    74
1070
     0
1000
MTEXTEND
  0
LINE
  5
915
330
8F3
100
AcDbEntity
  8
Title Block
100
AcDbLine
 10
811.762666742471
 20
1462.499997774842
 30
0.0
 11
811.762666742471
 21
1499.999997774842
 31
0.0
  0
LINE
  5
916
330
8F3
100
AcDbEntity
  8
Title Block
100
AcDbLine
 10
901.6037644399121
 20
1462.499997774842
 30
0.0
 11
901.6037644399121
 21
1499.999997774842
 31
0.0
  0
ATTDEF
  5
917
330
8F3
100
AcDbEntity
  8
0
 62
     0
380
     1
100
AcDbText
 10
825.0000008570941
 20
1582.499997774842
 30
0.0
 40
22.5
  1

  7
Roman
100
AcDbAttributeDefinition
  3
File name
  2
FNAME
 70
     8
  0
MTEXT
  5
918
330
8F3
100
AcDbEntity
  8
0
100
AcDbMText
 10
912.8338338413023
 20
1492.164059774852
 30
0.0
 40
15.0
 41
246.5161472592154
 71
     1
 72
     5
  1
   {\fSimSun|b0|i0|c134|p18;2006 \fSimSun|b0|i0|c134|p54;年 12 月 12 日}
 73
     1
 44
1.0
1001
ACAD
1000
MTEXTBEGIN
1070
    73
1070
     1
1070
    44
1040
1.0
1070
    74
1070
     0
1000
MTEXTEND
  0
MTEXT
  5
919
330
8F3
100
AcDbEntity
  8
0
100
AcDbMText
 10
357.400118590137
 20
1495.079502778154
 30
0.0
 40
20.0
 41
144.5691098365569
 71
     1
 72
     5
  1
{\fSimSun|b0|i0|c134|p54;设 计}
 73
     1
 44
1.0
1001
ACAD
1000
MTEXTBEGIN
1070
    73
1070
     1
1070
    44
1040
1.0
1070
    74
1070
     0
1000
MTEXTEND
  0
SOLID
  5
91A
330
8F3
100
AcDbEntity
  8
Title Block
100
AcDbTrace
 10
577.5000008570932
 20
1559.999997774842
 30
0.0
 11
622.500000857095
 21
1559.999997774842
 31
0.0
 12
600.0000008570942
 22
1537.499997774841
 32
0.0
 13
600.0000008570942
 23
1537.499997774841
 33
0.0
  0
LINE
  5
91B
330
8F3
100
AcDbEntity
  8
Title Block
100
AcDbLine
 10
318.0000008570942
 20
1462.499997774842
 30
0.0
 11
1143.000000857094
 21
1462.499997774842
 31
0.0
  0
LINE
  5
91C
330
8F3
100
AcDbEntity
  8
Title Block
100
AcDbLine
 10
318.0000008570942
 20
1499.999997774842
 30
0.0
 11
1143.000000857094
 21
1499.999997774842
 31
0.0
  0
LINE
  5
91D
330
8F3
100
AcDbEntity
  8
Title Block
100
AcDbLine
 10
1143.000000857094
 20
1537.499997774841
 30
0.0
 11
57.00000085709416
 21
1537.499997774841
 31
0.0
  0
LINE
  5
91E
330
8F3
100
AcDbEntity
  8
Title Block
100
AcDbLine
 10
1200.000000857094
 20
1574.999997774842
 30
0.0
 11
0.0000008570941645
 21
1574.999997774842
 31
0.0
  0
ATTDEF
  5
91F
330
8F3
100
AcDbEntity
  8
0
 62
     0
380
     1
100
AcDbText
 10
0.0000008570941645
 20
1582.499997774842
 30
0.0
 40
22.5
  1

  7
Roman
100
AcDbAttributeDefinition
  3
Author:
  2
USER
 70
     8
  0
ATTDEF
  5
920
330
8F3
100
AcDbEntity
  8
0
 62
     0
380
     1
100
AcDbText
 10
375.0000008570942
 20
1582.499997774842
 30
0.0
 40
22.5
  1

  7
Roman
100
AcDbAttributeDefinition
  3
Revision date:
  2
REVDATE
 70
     8
  0
LINE
  5
921
330
8F3
100
AcDbEntity
  8
Title Block
100
AcDbLine
 10
318.0000008570942
 20
1537.499997774841
 30
0.0
 11
318.0000008570942
 21
1462.499997774841
 31
0.0
  0
LWPOLYLINE
  5
922
330
8F3
100
AcDbEntity
  8
Title Block
100
AcDbPolyline
 90
        2
 70
     0
 43
3.0
 10
600.0000008570942
 20
1574.999997774842
 10
600.0000008570942
 20
1559.999997774842
  0
LINE
  5
923
330
8F3
100
AcDbEntity
  8
Title Block
100
AcDbLine
 10
462.569110693651
 20
1462.499997774842
 30
0.0
 11
462.569110693651
 21
1499.999997774842
 31
0.0
  0
MTEXT
  5
924
330
8F3
100
AcDbEntity
  8
0
100
AcDbMText
 10
511.2422483228519
 20
1497.991174645031
 30
0.0
 40
30.0
 41
349.19355604882
 71
     1
 72
     5
  1
Fred
 73
     1
 44
1.0
1001
ACAD
1000
MTEXTBEGIN
1070
    73
1070
     1
1070
    44
1040
1.0
1070
    74
1070
     0
1000
MTEXTEND
  0
ENDBLK
  5
926
330
8F3
100
AcDbEntity
  8
0
100
AcDbBlockEnd
  0
BLOCK
  5
C13
330
C11
100
AcDbEntity
  8
0
100
AcDbBlockBegin
  2
A$C06924280
 70
     0
 10
0.0
 20
0.0
 30
0.0
  3
A$C06924280
  1

  0
CIRCLE
  5
C12
330
C11
100
AcDbEntity
  8
0
100
AcDbCircle
 10
0.0
 20
0.0
 30
0.0
 40
45.0
  0
ENDBLK
  5
C14
330
C11
100
AcDbEntity
  8
0
100
AcDbBlockEnd
  0
BLOCK
  5
20AD
330
20A3
100
AcDbEntity
  8
0
100
AcDbBlockBegin
  2
*D3
 70
     1
 10
0.0
 20
0.0
 30
0.0
  3
*D3
  1

  0
LINE
  5
227B
330
20A3
100
AcDbEntity
  8
0
370
     5
100
AcDbLine
 10
7317.932529642795
 20
2916.716258616762
 30
0.0
 11
7317.932529642795
 21
2737.933731547011
 31
0.0
  0
LINE
  5
227C
330
20A3
100
AcDbEntity
  8
0
370
     5
100
AcDbLine
 10
8082.732529642795
 20
2917.447102256127
 30
0.0
 11
8082.732529642795
 21
2737.933731547011
 31
0.0
  0
LINE
  5
227D
330
20A3
100
AcDbEntity
  8
0
370
     5
100
AcDbLine
 10
7332.932529642795
 20
2739.183731547012
 30
0.0
 11
8067.732529642796
 21
2739.183731547012
 31
0.0
  0
SOLID
  5
227E
330
20A3
100
AcDbEntity
  8
0
100
AcDbTrace
 10
7332.932529642795
 20
2741.683731547011
 30
0.0
 11
7332.932529642795
 21
2736.683731547011
 31
0.0
 12
7317.932529642795
 22
2739.183731547012
 32
0.0
 13
7317.932529642795
 23
2739.183731547012
 33
0.0
  0
SOLID
  5
227F
330
20A3
100
AcDbEntity
  8
0
100
AcDbTrace
 10
8067.732529642796
 20
2741.683731547011
 30
0.0
 11
8067.732529642796
 21
2736.683731547011
 31
0.0
 12
8082.732529642795
 22
2739.183731547012
 32
0.0
 13
8082.732529642795
 23
2739.183731547012
 33
0.0
  0
MTEXT
  5
2280
330
20A3
100
AcDbEntity
  8
0
100
AcDbMText
 10
7700.332529642794
 20
2755.593969470587
 30
0.0
 40
20.0
 41
0.0
 71
     5
 72
     1
  1
762mm(30")
 73
     1
 44
1.0
1001
ACAD
1000
MTEXTBEGIN
1070
    73
1070
     1
1070
    44
1040
1.0
1070
    74
1070
     0
1000
MTEXTEND
  0
POINT
  5
2281
330
20A3
100
AcDbEntity
  8
Defpoints
 62
     0
100
AcDbPoint
 10
7317.932529642795
 20
2916.716258616762
 30
0.0
  0
POINT
  5
2282
330
20A3
100
AcDbEntity
  8
Defpoints
 62
     0
100
AcDbPoint
 10
8082.732529642795
 20
2917.447102256127
 30
0.0
  0
POINT
  5
2283
330
20A3
100
AcDbEntity
  8
Defpoints
 62
     0
100
AcDbPoint
 10
8082.732529642795
 20
2739.183731547012
 30
0.0
  0
ENDBLK
  5
20AE
330
20A3
100
AcDbEntity
  8
0
100
AcDbBlockEnd
  0
BLOCK
  5
20B9
330
20AF
100
AcDbEntity
  8
0
100
AcDbBlockBegin
  2
*D4
 70
     1
 10
0.0
 20
0.0
 30
0.0
  3
*D4
  1

  0
LINE
  5
2269
330
20AF
100
AcDbEntity
  8
0
370
     5
100
AcDbLine
 10
7343.332529642795
 20
2952.686522955009
 30
0.0
 11
7343.332529642795
 21
2791.037077150752
 31
0.0
  0
LINE
  5
226A
330
20AF
100
AcDbEntity
  8
0
370
     5
100
AcDbLine
 10
8057.332529642796
 20
2954.937636565978
 30
0.0
 11
8057.332529642796
 21
2791.037077150752
 31
0.0
  0
LINE
  5
226B
330
20AF
100
AcDbEntity
  8
0
370
     5
100
AcDbLine
 10
7358.332529642794
 20
2792.287077150751
 30
0.0
 11
8042.332529642795
 21
2792.287077150751
 31
0.0
  0
SOLID
  5
226C
330
20AF
100
AcDbEntity
  8
0
100
AcDbTrace
 10
7358.332529642794
 20
2794.787077150751
 30
0.0
 11
7358.332529642794
 21
2789.787077150752
 31
0.0
 12
7343.332529642795
 22
2792.287077150751
 32
0.0
 13
7343.332529642795
 23
2792.287077150751
 33
0.0
  0
SOLID
  5
226D
330
20AF
100
AcDbEntity
  8
0
100
AcDbTrace
 10
8042.332529642795
 20
2794.787077150751
 30
0.0
 11
8042.332529642795
 21
2789.787077150752
 31
0.0
 12
8057.332529642796
 22
2792.287077150751
 32
0.0
 13
8057.332529642796
 23
2792.287077150751
 33
0.0
  0
MTEXT
  5
226E
330
20AF
100
AcDbEntity
  8
0
100
AcDbMText
 10
7700.332529642794
 20
2808.697315074328
 30
0.0
 40
20.0
 41
0.0
 71
     5
 72
     1
  1
711mm(28")
 73
     1
 44
1.0
1001
ACAD
1000
MTEXTBEGIN
1070
    73
1070
     1
1070
    44
1040
1.0
1070
    74
1070
     0
1000
MTEXTEND
  0
POINT
  5
226F
330
20AF
100
AcDbEntity
  8
Defpoints
 62
     0
100
AcDbPoint
 10
7343.332529642795
 20
2952.686522955009
 30
0.0
  0
POINT
  5
2270
330
20AF
100
AcDbEntity
  8
Defpoints
 62
     0
100
AcDbPoint
 10
8057.332529642796
 20
2954.937636565978
 30
0.0
  0
POINT
  5
2271
330
20AF
100
AcDbEntity
  8
Defpoints
 62
     0
100
AcDbPoint
 10
8057.332529642796
 20
2792.287077150751
 30
0.0
  0
ENDBLK
  5
20BA
330
20AF
100
AcDbEntity
  8
0
100
AcDbBlockEnd
  0
BLOCK
  5
20C5
330
20BB
100
AcDbEntity
  8
0
100
AcDbBlockBegin
  2
*D5
 70
     1
 10
0.0
 20
0.0
 30
0.0
  3
*D5
  1

  0
LINE
  5
2252
330
20BB
100
AcDbEntity
  8
0
370
     5
100
AcDbLine
 10
7988.107058120267
 20
3295.907588638992
 30
0.0
 11
8145.775807036327
 21
3295.907588638992
 31
0.0
  0
LINE
  5
2253
330
20BB
100
AcDbEntity
  8
0
370
     5
100
AcDbLine
 10
7985.513567214795
 20
2887.907588638992
 30
0.0
 11
8145.775807036327
 21
2887.907588638992
 31
0.0
  0
LINE
  5
2254
330
20BB
100
AcDbEntity
  8
0
370
     5
100
AcDbLine
 10
8144.525807036329
 20
3280.907588638991
 30
0.0
 11
8144.525807036329
 21
2902.907588638992
 31
0.0
  0
SOLID
  5
2255
330
20BB
100
AcDbEntity
  8
0
100
AcDbTrace
 10
8142.025807036327
 20
3280.907588638991
 30
0.0
 11
8147.025807036328
 21
3280.907588638991
 31
0.0
 12
8144.525807036329
 22
3295.907588638992
 32
0.0
 13
8144.525807036329
 23
3295.907588638992
 33
0.0
  0
SOLID
  5
2256
330
20BB
100
AcDbEntity
  8
0
100
AcDbTrace
 10
8142.025807036327
 20
2902.907588638992
 30
0.0
 11
8147.025807036328
 21
2902.907588638992
 31
0.0
 12
8144.525807036329
 22
2887.907588638992
 32
0.0
 13
8144.525807036329
 23
2887.907588638992
 33
0.0
  0
MTEXT
  5
2257
330
20BB
100
AcDbEntity
  8
0
100
AcDbMText
 10
8128.11556911275
 20
3091.907588638992
 30
0.0
 40
20.0
 41
0.0
 71
     5
 72
     1
  1
408mm(16")
 11
0.0000000000000001
 21
1.0
 31
0.0
 73
     1
 44
1.0
1001
ACAD
1000
MTEXTBEGIN
1070
    73
1070
     1
1070
    44
1040
1.0
1070
    74
1070
     0
1000
MTEXTEND
  0
POINT
  5
2258
330
20BB
100
AcDbEntity
  8
Defpoints
 62
     0
100
AcDbPoint
 10
7988.107058120267
 20
3295.907588638992
 30
0.0
  0
POINT
  5
2259
330
20BB
100
AcDbEntity
  8
Defpoints
 62
     0
100
AcDbPoint
 10
7985.513567214795
 20
2887.907588638992
 30
0.0
  0
POINT
  5
225A
330
20BB
100
AcDbEntity
  8
Defpoints
 62
     0
100
AcDbPoint
 10
8144.525807036329
 20
2887.907588638992
 30
0.0
  0
ENDBLK
  5
20C6
330
20BB
100
AcDbEntity
  8
0
100
AcDbBlockEnd
  0
BLOCK
  5
20D1
330
20C7
100
AcDbEntity
  8
0
100
AcDbBlockBegin
  2
*D6
 70
     1
 10
0.0
 20
0.0
 30
0.0
  3
*D6
  1

  0
LINE
  5
225B
330
20C7
100
AcDbEntity
  8
0
370
     5
100
AcDbLine
 10
8024.94078603344
 20
3321.307588638991
 30
0.0
 11
8209.508490596091
 21
3321.307588638991
 31
0.0
  0
LINE
  5
225C
330
20C7
100
AcDbEntity
  8
0
370
     5
100
AcDbLine
 10
8021.574340665299
 20
2862.507588638992
 30
0.0
 11
8209.508490596091
 21
2862.507588638992
 31
0.0
  0
LINE
  5
225D
330
20C7
100
AcDbEntity
  8
0
370
     5
100
AcDbLine
 10
8208.25849059609
 20
3306.307588638991
 30
0.0
 11
8208.25849059609
 21
2877.507588638991
 31
0.0
  0
SOLID
  5
225E
330
20C7
100
AcDbEntity
  8
0
100
AcDbTrace
 10
8205.758490596091
 20
3306.307588638991
 30
0.0
 11
8210.75849059609
 21
3306.307588638991
 31
0.0
 12
8208.25849059609
 22
3321.307588638991
 32
0.0
 13
8208.25849059609
 23
3321.307588638991
 33
0.0
  0
SOLID
  5
225F
330
20C7
100
AcDbEntity
  8
0
100
AcDbTrace
 10
8205.758490596091
 20
2877.507588638991
 30
0.0
 11
8210.75849059609
 21
2877.507588638991
 31
0.0
 12
8208.25849059609
 22
2862.507588638992
 32
0.0
 13
8208.25849059609
 23
2862.507588638992
 33
0.0
  0
MTEXT
  5
2260
330
20C7
100
AcDbEntity
  8
0
100
AcDbMText
 10
8191.848252672514
 20
3091.907588638992
 30
0.0
 40
20.0
 41
0.0
 71
     5
 72
     1
  1
457mm(18")
 11
0.0000000000000001
 21
1.0
 31
0.0
 73
     1
 44
1.0
1001
ACAD
1000
MTEXTBEGIN
1070
    73
1070
     1
1070
    44
1040
1.0
1070
    74
1070
     0
1000
MTEXTEND
  0
POINT
  5
2261
330
20C7
100
AcDbEntity
  8
Defpoints
 62
     0
100
AcDbPoint
 10
8024.94078603344
 20
3321.307588638991
 30
0.0
  0
POINT
  5
2262
330
20C7
100
AcDbEntity
  8
Defpoints
 62
     0
100
AcDbPoint
 10
8021.574340665299
 20
2862.507588638992
 30
0.0
  0
POINT
  5
2263
330
20C7
100
AcDbEntity
  8
Defpoints
 62
     0
100
AcDbPoint
 10
8208.25849059609
 20
2862.507588638992
 30
0.0
  0
ENDBLK
  5
20D2
330
20C7
100
AcDbEntity
  8
0
100
AcDbBlockEnd
  0
BLOCK
  5
2162
330
215C
100
AcDbEntity
  8
0
100
AcDbBlockBegin
  2
*D7
 70
     1
 10
0.0
 20
0.0
 30
0.0
  3
*D7
  1

  0
LINE
  5
2264
330
215C
100
AcDbEntity
  8
0
370
     5
100
AcDbLine
 10
7952.557079313407
 20
3191.888664416972
 30
0.0
 11
8022.366804401205
 21
3250.639143583538
 31
0.0
  0
MTEXT
  5
2265
330
215C
100
AcDbEntity
  8
0
100
AcDbMText
 10
7970.255806773578
 20
3224.000760462894
 30
0.0
 40
20.0
 41
0.0
 71
     5
 72
     1
  1
R100
 11
0.7651091148047874
 21
0.6439006464064426
 31
0.0
 73
     1
 44
1.0
1001
ACAD
1000
MTEXTBEGIN
1070
    73
1070
     1
1070
    44
1040
1.0
1070
    74
1070
     0
1000
MTEXTEND
  0
SOLID
  5
2266
330
215C
100
AcDbEntity
  8
0
100
AcDbTrace
 10
8020.757052785187
 20
3252.55191637055
 30
0.0
 11
8023.97655601722
 21
3248.726370796526
 31
0.0
 12
8033.843441123275
 22
3260.297653279636
 32
0.0
 13
8033.843441123275
 23
3260.297653279636
 33
0.0
  0
POINT
  5
2267
330
215C
100
AcDbEntity
  8
Defpoints
 62
     0
100
AcDbPoint
 10
8033.843441123275
 20
3260.297653279636
 30
0.0
  0
POINT
  5
2268
330
215C
100
AcDbEntity
  8
Defpoints
 62
     0
100
AcDbPoint
 10
7957.332529642794
 20
3195.907588638988
 30
0.0
  0
ENDBLK
  5
2163
330
215C
100
AcDbEntity
  8
0
100
AcDbBlockEnd
  0
ENDSEC
  0
SECTION
  2
ENTITIES
  0
LINE
  5
2095
330
1F
100
AcDbEntity
  8
0
100
AcDbLine
 10
7317.932529642796
 20
3247.849969360579
 30
0.0
 11
7317.932529642795
 21
2935.965207917405
 31
0.0
  0
LINE
  5
2096
330
1F
100
AcDbEntity
  8
0
100
AcDbLine
 10
7391.390148921209
 20
2862.507588638992
 30
0.0
 11
8009.274910364378
 21
2862.507588638991
 31
0.0
  0
LINE
  5
2097
330
1F
100
AcDbEntity
  8
0
100
AcDbLine
 10
8082.732529642795
 20
2935.965207917407
 30
0.0
 11
8082.732529642795
 21
3247.849969360574
 31
0.0
  0
LINE
  5
2098
330
1F
100
AcDbEntity
  8
0
100
AcDbLine
 10
8009.274910364377
 20
3321.307588638991
 30
0.0
 11
7391.390148921209
 21
3321.307588638992
 31
0.0
  0
DIMENSION
  5
2099
330
1F
100
AcDbEntity
  8
0
100
AcDbDimension
  2
*D3
 10
8082.732529642795
 20
2739.183731547012
 30
0.0
 11
7700.332529642794
 21
2739.183731547012
 31
0.0
 70
   160
  1
762mm(30")
 71
     5
 42
764.8000000000011
  3
ISO-25
100
AcDbAlignedDimension
 13
7317.932529642795
 23
2916.716258616762
 33
0.0
 14
8082.732529642795
 24
2917.447102256127
 34
0.0
100
AcDbRotatedDimension
1001
ACAD
1000
DSTYLE
1002
{
1070
   140
1040
20.0
1070
   176
1070
   256
1070
   177
1070
   256
1070
   178
1070
   256
1002
}
  0
DIMENSION
  5
209A
330
1F
100
AcDbEntity
  8
0
100
AcDbDimension
  2
*D4
 10
8057.332529642796
 20
2792.287077150751
 30
0.0
 11
7700.332529642794
 21
2792.287077150751
 31
0.0
 70
   160
  1
711mm(28")
 71
     5
 42
714.0
  3
ISO-25
100
AcDbAlignedDimension
 13
7343.332529642795
 23
2952.686522955009
 33
0.0
 14
8057.332529642796
 24
2954.937636565978
 34
0.0
100
AcDbRotatedDimension
1001
ACAD
1000
DSTYLE
1002
{
1070
   140
1040
20.0
1070
   176
1070
   256
1070
   177
1070
   256
1070
   178
1070
   256
1002
}
  0
DIMENSION
  5
209B
330
1F
100
AcDbEntity
  8
0
100
AcDbDimension
  2
*D5
 10
8144.525807036329
 20
2887.907588638992
 30
0.0
 11
8144.525807036327
 21
3091.907588638992
 31
0.0
 70
   160
  1
408mm(16")
 71
     5
 42
408.0
  3
ISO-25
100
AcDbAlignedDimension
 13
7988.107058120267
 23
3295.907588638992
 33
0.0
 14
7985.513567214795
 24
2887.907588638992
 34
0.0
 50
90.0
100
AcDbRotatedDimension
1001
ACAD
1000
DSTYLE
1002
{
1070
   140
1040
20.0
1070
   178
1070
   256
1070
   177
1070
   256
1070
   176
1070
   256
1002
}
  0
DIMENSION
  5
209C
330
1F
100
AcDbEntity
  8
0
100
AcDbDimension
  2
*D6
 10
8208.25849059609
 20
2862.507588638992
 30
0.0
 11
8208.25849059609
 21
3091.907588638992
 31
0.0
 70
   160
  1
457mm(18")
 71
     5
 42
458.7999999999997
  3
ISO-25
100
AcDbAlignedDimension
 13
8024.94078603344
 23
3321.307588638991
 33
0.0
 14
8021.574340665299
 24
2862.507588638992
 34
0.0
 50
90.0
100
AcDbRotatedDimension
1001
ACAD
1000
DSTYLE
1002
{
1070
   140
1040
20.0
1070
   176
1070
   256
1070
   177
1070
   256
1070
   178
1070
   256
1002
}
  0
LINE
  5
2147
330
1F
100
AcDbEntity
  8
0
100
AcDbLine
 10
8057.332529642796
 20
3195.907588638992
 30
0.0
 11
8057.332529642796
 21
2987.907588638991
 31
0.0
  0
LINE
  5
2148
330
1F
100
AcDbEntity
  8
0
100
AcDbLine
 10
7957.332529642795
 20
2887.907588638992
 30
0.0
 11
7443.332529642794
 21
2887.907588638992
 31
0.0
  0
LINE
  5
214B
330
1F
100
AcDbEntity
  8
0
100
AcDbLine
 10
7443.332529642794
 20
3295.907588638991
 30
0.0
 11
7957.332529642795
 21
3295.907588638992
 31
0.0
  0
LINE
  5
214C
330
1F
100
AcDbEntity
  8
0
100
AcDbLine
 10
7343.332529642793
 20
2987.907588638991
 30
0.0
 11
7343.332529642793
 21
3195.907588638992
 31
0.0
  0
ARC
  5
2153
330
1F
100
AcDbEntity
  8
0
100
AcDbCircle
 10
7443.332529642794
 20
2987.907588638991
 30
0.0
 40
100.0
100
AcDbArc
 50
180.0
 51
270.0
  0
ARC
  5
2154
330
1F
100
AcDbEntity
  8
0
100
AcDbCircle
 10
7957.332529642795
 20
2987.907588638991
 30
0.0
 40
100.0
100
AcDbArc
 50
270.0
 51
0.0
  0
ARC
  5
2155
102
{ACAD_REACTORS
330
216A
102
}
330
1F
100
AcDbEntity
  8
0
100
AcDbCircle
 10
7957.332529642795
 20
3195.907588638992
 30
0.0
 40
100.0
100
AcDbArc
 50
0.0
 51
90.0
  0
ARC
  5
2156
330
1F
100
AcDbEntity
  8
0
100
AcDbCircle
 10
7443.332529642794
 20
3195.907588638991
 30
0.0
 40
100.0
100
AcDbArc
 50
90.0
 51
179.9999999999998
  0
DIMENSION
  5
215B
102
{ACAD_XDICTIONARY
360
2164
102
}
102
{ACAD_REACTORS
330
216A
102
}
330
1F
100
AcDbEntity
  8
0
100
AcDbDimension
  2
*D7
 10
7957.332529642794
 20
3195.907588638988
 30
0.0
 11
7978.737932736442
 21
3213.92195106376
 31
0.0
 70
   164
 71
     5
 42
100.0000000000036
  3
ISO-25
100
AcDbRadialDimension
 15
8033.843441123275
 25
3260.297653279636
 35
0.0
 40
0.0
1001
ACAD
1000
DSTYLE
1002
{
1070
   140
1040
20.0
1070
   176
1070
   256
1070
   177
1070
   256
1070
   178
1070
   256
1002
}
  0
LINE
  5
21AF
330
1F
100
AcDbEntity
  8
0
100
AcDbLine
 10
7317.932529642795
 20
2935.965207917404
 30
0.0
 11
7391.390148921208
 21
2862.507588638992
 31
0.0
  0
LINE
  5
21B0
330
1F
100
AcDbEntity
  8
0
100
AcDbLine
 10
8082.732529642793
 20
2935.965207917404
 30
0.0
 11
8009.27491036438
 21
2862.507588638992
 31
0.0
  0
LINE
  5
21B1
330
1F
100
AcDbEntity
  8
0
100
AcDbLine
 10
7317.932529642795
 20
3247.84996936058
 30
0.0
 11
7391.390148921208
 21
3321.307588638991
 31
0.0
  0
LINE
  5
21B2
330
1F
100
AcDbEntity
  8
0
100
AcDbLine
 10
8082.732529642793
 20
3247.84996936058
 30
0.0
 11
8009.27491036438
 21
3321.307588638991
 31
0.0
  0
ENDSEC
  0
SECTION
  2
OBJECTS
  0
DICTIONARY
  5
C
330
0
100
AcDbDictionary
281
     1
  3
ACAD_COLOR
350
73
  3
ACAD_GROUP
350
D
  3
ACAD_LAYOUT
350
1A
  3
ACAD_MATERIAL
350
72
  3
ACAD_MLINESTYLE
350
17
  3
ACAD_PLOTSETTINGS
350
19
  3
ACAD_PLOTSTYLENAME
350
E
  3
ACAD_TABLESTYLE
350
130B
  3
ACDBHEADERROUNDTRIPXREC
350
22C9
  3
AcDbVariableDictionary
350
66
  0
DICTIONARY
  5
C16
330
2
100
AcDbDictionary
280
     1
281
     1
  3
ACAD_LAYERSTATES
360
C17
  0
DICTIONARY
  5
1898
330
1F
100
AcDbDictionary
280
     1
281
     1
  3
ACAD_SORTENTS
360
1899
  0
DICTIONARY
  5
2164
330
215B
100
AcDbDictionary
280
     1
281
     1
  3
ACAD_DIMASSOC
360
216A
  0
DICTIONARY
  5
73
102
{ACAD_REACTORS
330
C
102
}
330
C
100
AcDbDictionary
281
     1
  0
DICTIONARY
  5
D
102
{ACAD_REACTORS
330
C
102
}
330
C
100
AcDbDictionary
281
     1
  0
DICTIONARY
  5
1A
102
{ACAD_REACTORS
330
C
102
}
330
C
100
AcDbDictionary
281
     1
  3
Model
350
22
  3
布局1
350
59
  3
布局2
350
5E
  0
DICTIONARY
  5
72
102
{ACAD_REACTORS
330
C
102
}
330
C
100
AcDbDictionary
281
     1
  0
DICTIONARY
  5
17
102
{ACAD_REACTORS
330
C
102
}
330
C
100
AcDbDictionary
281
     1
  3
Standard
350
18
  0
DICTIONARY
  5
19
102
{ACAD_REACTORS
330
C
102
}
330
C
100
AcDbDictionary
281
     1
  0
ACDBDICTIONARYWDFLT
  5
E
102
{ACAD_REACTORS
330
C
102
}
330
C
100
AcDbDictionary
281
     1
  3
Normal
350
F
100
AcDbDictionaryWithDefault
340
F
  0
DICTIONARY
  5
130B
102
{ACAD_REACTORS
330
C
102
}
330
C
100
AcDbDictionary
281
     1
  3
Standard
350
130C
  0
DICTIONARY
  5
22C9
102
{ACAD_REACTORS
330
C
102
}
330
C
100
AcDbDictionary
281
     1
  0
DICTIONARY
  5
66
102
{ACAD_REACTORS
330
C
102
}
330
C
100
AcDbDictionary
281
     1
  3
CTABLESTYLE
350
1513
  3
DIMASSOC
350
67
  3
HIDETEXT
350
6B
  3
PROJECTNAME
350
22C7
  0
DICTIONARY
  5
C17
102
{ACAD_REACTORS
330
C16
102
}
330
C16
100
AcDbDictionary
281
     1
  0
SORTENTSTABLE
  5
1899
102
{ACAD_REACTORS
330
1898
102
}
330
1898
100
AcDbSortentsTable
330
1F
331
2156
  5
2148
331
2154
  5
209A
331
214B
  5
2146
331
209B
  5
2155
331
2147
  5
2096
331
2099
  5
2153
331
21AF
  5
21AF
331
2096
  5
214A
331
2155
  5
2097
331
214C
  5
2147
331
209C
  5
2156
331
2153
  5
20A0
331
209A
  5
2154
331
2097
  5
214B
331
2148
  5
209B
331
2095
  5
2149
331
215B
  5
215B
331
2098
  5
214C
  0
DIMASSOC
  5
216A
102
{ACAD_REACTORS
330
2164
102
}
330
2164
100
AcDbDimAssoc
330
215B
 90
        2
 70
     0
 71
     0
  1
AcDbOsnapPointRef
 72
     3
331
2155
 73
     2
 91
        0
 40
0.0
 10
0.0
 20
0.0
 30
0.0
 75
     0
  0
LAYOUT
  5
22
102
{ACAD_XDICTIONARY
360
22CA
102
}
102
{ACAD_REACTORS
330
1A
102
}
330
1A
100
AcDbPlotSettings
  1

  2
\\Benng\FX DocuPrint 255-AP
  4
A4
  6

 40
4.900083
 41
4.900057
 42
4.900084999999999
 43
4.900084999999999
 44
210.015671
 45
297.010651
 46
0.0
 47
5.33
 48
1628.848836562779
 49
38.39823641457828
140
2714.848836562779
141
1538.398236414578
142
1.0
143
5.424155391203647
 70
 11956
 72
     1
 73
     0
 74
     4
  7
acad.ctb
 75
     0
147
0.1843605
148
-1628.848836562779
149
-38.39823641457828
100
AcDbLayout
  1
Model
 70
     1
 71
     0
 10
0.0
 20
0.0
 11
12.0
 21
9.0
 12
0.0
 22
0.0
 32
0.0
 14
0.0
 24
0.0
 34
0.0
 15
0.0
 25
0.0
 35
0.0
146
0.0
 13
0.0
 23
0.0
 33
0.0
 16
1.0
 26
0.0
 36
0.0
 17
0.0
 27
1.0
 37
0.0
 76
     0
330
1F
  0
LAYOUT
  5
59
102
{ACAD_XDICTIONARY
360
22CC
102
}
102
{ACAD_REACTORS
330
1A
102
}
330
1A
100
AcDbPlotSettings
  1

  2
None
  4

  6

 40
0.0
 41
0.0
 42
0.0
 43
0.0
 44
0.0
 45
0.0
 46
0.0
 47
0.0
 48
0.0
 49
0.0
140
0.0
141
0.0
142
1.0
143
1.0
 70
   688
 72
     0
 73
     0
 74
     5
  7

 75
    16
147
1.0
148
0.0
149
0.0
100
AcDbLayout
  1
布局1
 70
     1
 71
     1
 10
0.0
 20
0.0
 11
12.0
 21
9.0
 12
0.0
 22
0.0
 32
0.0
 14
0.0
 24
0.0
 34
0.0
 15
0.0
 25
0.0
 35
0.0
146
0.0
 13
0.0
 23
0.0
 33
0.0
 16
1.0
 26
0.0
 36
0.0
 17
0.0
 27
1.0
 37
0.0
 76
     0
330
58
  0
LAYOUT
  5
5E
102
{ACAD_XDICTIONARY
360
22CE
102
}
102
{ACAD_REACTORS
330
1A
102
}
330
1A
100
AcDbPlotSettings
  1

  2
None
  4

  6

 40
0.0
 41
0.0
 42
0.0
 43
0.0
 44
0.0
 45
0.0
 46
0.0
 47
0.0
 48
0.0
 49
0.0
140
0.0
141
0.0
142
1.0
143
1.0
 70
   688
 72
     0
 73
     0
 74
     5
  7

 75
    16
147
1.0
148
0.0
149
0.0
100
AcDbLayout
  1
布局2
 70
     1
 71
     2
 10
0.0
 20
0.0
 11
12.0
 21
9.0
 12
0.0
 22
0.0
 32
0.0
 14
0.0
 24
0.0
 34
0.0
 15
0.0
 25
0.0
 35
0.0
146
0.0
 13
0.0
 23
0.0
 33
0.0
 16
1.0
 26
0.0
 36
0.0
 17
0.0
 27
1.0
 37
0.0
 76
     0
330
5D
  0
MLINESTYLE
  5
18
102
{ACAD_REACTORS
330
17
102
}
330
17
100
AcDbMlineStyle
  2
STANDARD
 70
     0
  3

 62
   256
 51
90.0
 52
90.0
 71
     2
 49
0.5
 62
   256
  6
BYLAYER
 49
-0.5
 62
   256
  6
BYLAYER
  0
ACDBPLACEHOLDER
  5
F
102
{ACAD_REACTORS
330
E
102
}
330
E
  0
TABLESTYLE
  5
130C
102
{ACAD_REACTORS
330
130B
102
}
330
130B
100
AcDbTableStyle
  3
Standard
 70
     0
 71
     0
 40
0.06
 41
0.06
280
     0
281
     0
  7
Standard
140
0.18
170
     2
 62
     0
 63
     7
283
     0
274
    -2
284
     1
 64
     0
275
    -2
285
     1
 65
     0
276
    -2
286
     1
 66
     0
277
    -2
287
     1
 67
     0
278
    -2
288
     1
 68
     0
279
    -2
289
     1
 69
     0
  7
Standard
140
0.25
170
     5
 62
     0
 63
     7
283
     0
274
    -2
284
     1
 64
     0
275
    -2
285
     1
 65
     0
276
    -2
286
     1
 66
     0
277
    -2
287
     1
 67
     0
278
    -2
288
     1
 68
     0
279
    -2
289
     1
 69
     0
  7
Standard
140
0.18
170
     5
 62
     0
 63
     7
283
     0
274
    -2
284
     1
 64
     0
275
    -2
285
     1
 65
     0
276
    -2
286
     1
 66
     0
277
    -2
287
     1
 67
     0
278
    -2
288
     1
 68
     0
279
    -2
289
     1
 69
     0
  0
DICTIONARYVAR
  5
1513
102
{ACAD_REACTORS
330
66
102
}
330
66
100
DictionaryVariables
280
     0
  1
STANDARD
  0
DICTIONARYVAR
  5
67
102
{ACAD_REACTORS
330
66
102
}
330
66
100
DictionaryVariables
280
     0
  1
2
  0
DICTIONARYVAR
  5
6B
102
{ACAD_REACTORS
330
66
102
}
330
66
100
DictionaryVariables
280
     0
  1
1
  0
DICTIONARYVAR
  5
22C7
102
{ACAD_REACTORS
330
66
102
}
330
66
100
DictionaryVariables
280
     0
  1

  0
DICTIONARY
  5
22CA
330
22
100
AcDbDictionary
280
     1
281
     1
  3
ACAD_XREC_ROUNDTRIP
360
22CB
  0
DICTIONARY
  5
22CC
330
59
100
AcDbDictionary
280
     1
281
     1
  3
ACAD_XREC_ROUNDTRIP
360
22CD
  0
DICTIONARY
  5
22CE
330
5E
100
AcDbDictionary
280
     1
281
     1
  3
ACAD_XREC_ROUNDTRIP
360
22CF
  0
XRECORD
  5
22CB
102
{ACAD_REACTORS
330
22CA
102
}
330
22CA
100
AcDbXrecord
280
     1
102
SHADEPLOT
 70
     1
102
SHADEPLOTRESLEVEL
 70
     2
102
SHADEPLOTCUSTOMDPI
 70
   300
  0
XRECORD
  5
22CD
102
{ACAD_REACTORS
330
22CC
102
}
330
22CC
100
AcDbXrecord
280
     1
102
SHADEPLOT
 70
     0
102
SHADEPLOTRESLEVEL
 70
     2
102
SHADEPLOTCUSTOMDPI
 70
   300
  0
XRECORD
  5
22CF
102
{ACAD_REACTORS
330
22CE
102
}
330
22CE
100
AcDbXrecord
280
     1
102
SHADEPLOT
 70
     0
102
SHADEPLOTRESLEVEL
 70
     2
102
SHADEPLOTCUSTOMDPI
 70
   300
  0
ENDSEC
  0
EOF
