  0
SECTION
  2
HEADER
  9
$ACADVER
  1
AC1015
  9
$ACADMAINTVER
 70
    18
  9
$DWGCODEPAGE
  3
ANSI_936
  9
$INSBASE
 10
0.0
 20
0.0
 30
0.0
  9
$EXTMIN
 10
144910.9391198004
 20
-183268.7155414065
 30
0.0
  9
$EXTMAX
 10
162812.1901417104
 20
-160513.9698761082
 30
0.0
  9
$LIMMIN
 10
0.0
 20
0.0
  9
$LIMMAX
 10
12.0
 20
9.0
  9
$ORTHOMODE
 70
     1
  9
$REGENMODE
 70
     1
  9
$FILLMODE
 70
     1
  9
$QTEXTMODE
 70
     0
  9
$MIRRTEXT
 70
     0
  9
$LTSCALE
 40
1.0
  9
$ATTMODE
 70
     1
  9
$TEXTSIZE
 40
0.2
  9
$TRACEWID
 40
0.05
  9
$TEXTSTYLE
  7
Standard
  9
$CLAYER
  8
标注
  9
$CELTYPE
  6
ByLayer
  9
$CECOLOR
 62
   256
  9
$CELTSCALE
 40
5.0
  9
$DISPSILH
 70
     0
  9
$DIMSCALE
 40
1.0
  9
$DIMASZ
 40
16.0
  9
$DIMEXO
 40
20.0
  9
$DIMDLI
 40
0.38
  9
$DIMRND
 40
0.0
  9
$DIMDLE
 40
0.0
  9
$DIMEXE
 40
7.0
  9
$DIMTP
 40
0.0
  9
$DIMTM
 40
0.0
  9
$DIMTXT
 40
20.0
  9
$DIMCEN
 40
0.09
  9
$DIMTSZ
 40
0.0
  9
$DIMTOL
 70
     0
  9
$DIMLIM
 70
     0
  9
$DIMTIH
 70
     0
  9
$DIMTOH
 70
     0
  9
$DIMSE1
 70
     0
  9
$DIMSE2
 70
     0
  9
$DIMTAD
 70
     0
  9
$DIMZIN
 70
     8
  9
$DIMBLK
  1

  9
$DIMASO
 70
     1
  9
$DIMSHO
 70
     1
  9
$DIMPOST
  1

  9
$DIMAPOST
  1
"
  9
$DIMALT
 70
     0
  9
$DIMALTD
 70
     3
  9
$DIMALTF
 40
0.03937
  9
$DIMLFAC
 40
1.0
  9
$DIMTOFL
 70
     1
  9
$DIMTVP
 40
0.0
  9
$DIMTIX
 70
     0
  9
$DIMSOXD
 70
     0
  9
$DIMSAH
 70
     0
  9
$DIMBLK1
  1

  9
$DIMBLK2
  1

  9
$DIMSTYLE
  2
副本Standard
  9
$DIMCLRD
 70
   256
  9
$DIMCLRE
 70
   256
  9
$DIMCLRT
 70
   256
  9
$DIMTFAC
 40
1.0
  9
$DIMGAP
 40
5.0
  9
$DIMJUST
 70
     0
  9
$DIMSD1
 70
     0
  9
$DIMSD2
 70
     0
  9
$DIMTOLJ
 70
     1
  9
$DIMTZIN
 70
     0
  9
$DIMALTZ
 70
     0
  9
$DIMALTTZ
 70
     0
  9
$DIMUPT
 70
     0
  9
$DIMDEC
 70
     1
  9
$DIMTDEC
 70
     1
  9
$DIMALTU
 70
     7
  9
$DIMALTTD
 70
     3
  9
$DIMTXSTY
  7
Standard
  9
$DIMAUNIT
 70
     0
  9
$DIMADEC
 70
     1
  9
$DIMALTRND
 40
0.0
  9
$DIMAZIN
 70
     2
  9
$DIMDSEP
 70
    44
  9
$DIMATFIT
 70
     3
  9
$DIMFRAC
 70
     0
  9
$DIMLDRBLK
  1

  9
$DIMLUNIT
 70
     2
  9
$DIMLWD
 70
    -2
  9
$DIMLWE
 70
    -2
  9
$DIMTMOVE
 70
     0
  9
$LUNITS
 70
     2
  9
$LUPREC
 70
     4
  9
$SKETCHINC
 40
0.1
  9
$FILLETRAD
 40
0.0
  9
$AUNITS
 70
     0
  9
$AUPREC
 70
     0
  9
$MENU
  1
.
  9
$ELEVATION
 40
0.0
  9
$PELEVATION
 40
0.0
  9
$THICKNESS
 40
0.0
  9
$LIMCHECK
 70
     0
  9
$CHAMFERA
 40
20.7
  9
$CHAMFERB
 40
20.7
  9
$CHAMFERC
 40
0.0
  9
$CHAMFERD
 40
0.0
  9
$SKPOLY
 70
     0
  9
$TDCREATE
 40
2454355.343801713
  9
$TDUCREATE
 40
2454355.010468380
  9
$TDUPDATE
 40
2457707.657435590
  9
$TDUUPDATE
 40
2457707.324102257
  9
$TDINDWG
 40
9.1159029977
  9
$TDUSRTIMER
 40
9.1159029977
  9
$USRTIMER
 70
     1
  9
$ANGBASE
 50
0.0
  9
$ANGDIR
 70
     0
  9
$PDMODE
 70
     0
  9
$PDSIZE
 40
0.0
  9
$PLINEWID
 40
0.0
  9
$SPLFRAME
 70
     0
  9
$SPLINETYPE
 70
     6
  9
$SPLINESEGS
 70
     8
  9
$HANDSEED
  5
2A8
  9
$SURFTAB1
 70
     6
  9
$SURFTAB2
 70
     6
  9
$SURFTYPE
 70
     6
  9
$SURFU
 70
     6
  9
$SURFV
 70
     6
  9
$UCSBASE
  2

  9
$UCSNAME
  2

  9
$UCSORG
 10
0.0
 20
0.0
 30
0.0
  9
$UCSXDIR
 10
1.0
 20
0.0
 30
0.0
  9
$UCSYDIR
 10
0.0
 20
1.0
 30
0.0
  9
$UCSORTHOREF
  2

  9
$UCSORTHOVIEW
 70
     0
  9
$UCSORGTOP
 10
0.0
 20
0.0
 30
0.0
  9
$UCSORGBOTTOM
 10
0.0
 20
0.0
 30
0.0
  9
$UCSORGLEFT
 10
0.0
 20
0.0
 30
0.0
  9
$UCSORGRIGHT
 10
0.0
 20
0.0
 30
0.0
  9
$UCSORGFRONT
 10
0.0
 20
0.0
 30
0.0
  9
$UCSORGBACK
 10
0.0
 20
0.0
 30
0.0
  9
$PUCSBASE
  2

  9
$PUCSNAME
  2

  9
$PUCSORG
 10
0.0
 20
0.0
 30
0.0
  9
$PUCSXDIR
 10
1.0
 20
0.0
 30
0.0
  9
$PUCSYDIR
 10
0.0
 20
1.0
 30
0.0
  9
$PUCSORTHOREF
  2

  9
$PUCSORTHOVIEW
 70
     0
  9
$PUCSORGTOP
 10
0.0
 20
0.0
 30
0.0
  9
$PUCSORGBOTTOM
 10
0.0
 20
0.0
 30
0.0
  9
$PUCSORGLEFT
 10
0.0
 20
0.0
 30
0.0
  9
$PUCSORGRIGHT
 10
0.0
 20
0.0
 30
0.0
  9
$PUCSORGFRONT
 10
0.0
 20
0.0
 30
0.0
  9
$PUCSORGBACK
 10
0.0
 20
0.0
 30
0.0
  9
$USERI1
 70
     0
  9
$USERI2
 70
     0
  9
$USERI3
 70
     0
  9
$USERI4
 70
     0
  9
$USERI5
 70
     0
  9
$USERR1
 40
0.0
  9
$USERR2
 40
0.0
  9
$USERR3
 40
0.0
  9
$USERR4
 40
0.0
  9
$USERR5
 40
2.5
  9
$WORLDVIEW
 70
     1
  9
$SHADEDGE
 70
     3
  9
$SHADEDIF
 70
    70
  9
$TILEMODE
 70
     1
  9
$MAXACTVP
 70
    64
  9
$PINSBASE
 10
0.0
 20
0.0
 30
0.0
  9
$PLIMCHECK
 70
     0
  9
$PEXTMIN
 10
1.049999952316284
 20
0.7999999523162842
 30
0.0
  9
$PEXTMAX
 10
9.449999570846555
 20
7.199999570846556
 30
0.0
  9
$PLIMMIN
 10
-0.2500002402958907
 20
-0.2499999962453767
  9
$PLIMMAX
 10
10.74999951940821
 20
8.249999763458731
  9
$UNITMODE
 70
     0
  9
$VISRETAIN
 70
     1
  9
$PLINEGEN
 70
     0
  9
$PSLTSCALE
 70
     1
  9
$TREEDEPTH
 70
  3020
  9
$CMLSTYLE
  2
Standard
  9
$CMLJUST
 70
     0
  9
$CMLSCALE
 40
1.0
  9
$PROXYGRAPHICS
 70
     1
  9
$MEASUREMENT
 70
     0
  9
$CELWEIGHT
370
    -1
  9
$ENDCAPS
280
     0
  9
$JOINSTYLE
280
     0
  9
$LWDISPLAY
290
     0
  9
$INSUNITS
 70
     1
  9
$HYPERLINKBASE
  1

  9
$STYLESHEET
  1

  9
$XEDIT
290
     1
  9
$CEPSNTYPE
380
     0
  9
$PSTYLEMODE
290
     1
  9
$FINGERPRINTGUID
  2
{AC7AF151-08F0-46B5-8907-61AB92FFE5D9}
  9
$VERSIONGUID
  2
{3D7E65B5-802D-40A5-8F2F-9BEF55E8D35D}
  9
$EXTNAMES
290
     1
  9
$PSVPSCALE
 40
0.0
  9
$OLESTARTUP
290
     0
  0
ENDSEC
  0
SECTION
  2
CLASSES
  0
CLASS
  1
ACDBDICTIONARYWDFLT
  2
AcDbDictionaryWithDefault
  3
ObjectDBX Classes
 90
        0
280
     0
281
     0
  0
CLASS
  1
ACDBPLACEHOLDER
  2
AcDbPlaceHolder
  3
ObjectDBX Classes
 90
        0
280
     0
281
     0
  0
CLASS
  1
LAYOUT
  2
AcDbLayout
  3
ObjectDBX Classes
 90
        0
280
     0
281
     0
  0
CLASS
  1
DICTIONARYVAR
  2
AcDbDictionaryVar
  3
ObjectDBX Classes
 90
        0
280
     0
281
     0
  0
CLASS
  1
SORTENTSTABLE
  2
AcDbSortentsTable
  3
ObjectDBX Classes
 90
        0
280
     0
281
     0
  0
CLASS
  1
DIMASSOC
  2
AcDbDimAssoc
  3
"AcDbDimAssoc|Product Desc:     AcDim ARX App For Dimension|Company:          Autodesk, Inc.|WEB Address:      www.autodesk.com"
 90
        0
280
     0
281
     0
  0
CLASS
  1
TABLESTYLE
  2
AcDbTableStyle
  3
ObjectDBX Classes
 90
     4095
280
     0
281
     0
  0
CLASS
  1
VLO-VL
  2
vlo_VL
  3
VL|AutoLISP based application
 90
    32897
280
     0
281
     0
  0
CLASS
  1
MATERIAL
  2
AcDbMaterial
  3
ObjectDBX Classes
 90
     1153
280
     0
281
     0
  0
CLASS
  1
VISUALSTYLE
  2
AcDbVisualStyle
  3
ObjectDBX Classes
 90
     4095
280
     0
281
     0
  0
CLASS
  1
SCALE
  2
AcDbScale
  3
ObjectDBX Classes
 90
     1153
280
     0
281
     0
  0
CLASS
  1
MLEADERSTYLE
  2
AcDbMLeaderStyle
  3
ACDB_MLEADERSTYLE_CLASS
 90
    36863
280
     0
281
     0
  0
CLASS
  1
EXACXREFPANELOBJECT
  2
ExAcXREFPanelObject
  3
EXAC_ESW
 90
    33793
280
     0
281
     0
  0
CLASS
  1
NPOCOLLECTION
  2
AcDbImpNonPersistentObjectsCollection
  3
ObjectDBX Classes
 90
    33921
280
     0
281
     0
  0
CLASS
  1
CELLSTYLEMAP
  2
AcDbCellStyleMap
  3
ObjectDBX Classes
 90
     1152
280
     0
281
     0
  0
CLASS
  1
AEC_REFEDIT_STATUS_TRACKER
  2
AecDbRefEditStatusTracker
  3
AecArchBase60|Product Desc: Autodesk Architectural Desktop 2007 |Company: Autodesk,Inc. |WEB Address: www.autodesk.com
 90
    32897
280
     0
281
     0
  0
CLASS
  1
ACME_DOCUMENT
  2
AcMeDbDoc
  3
AcMeServices
 90
    33792
280
     0
281
     0
  0
CLASS
  1
AMGSETTINGSOBJ
  2
AmgSettingsObj
  3
"AcadM|Product Description: AutoCAD Mechanical|Company: Autodesk, Inc."
 90
     1024
280
     0
281
     0
  0
CLASS
  1
ACMESCOPE
  2
AcMeScope
  3
AcMeServices
 90
     1024
280
     0
281
     0
  0
CLASS
  1
ACMECOMMANDHISTORY
  2
AcMeCommandHistory
  3
AcMeServices
 90
    33792
280
     0
281
     0
  0
CLASS
  1
ACIMSYSVARMAN
  2
AcImSysVarManager
  3
AcMeServices
 90
     1024
280
     0
281
     0
  0
CLASS
  1
ACIMINTSYSVAR
  2
AcImIntSysVar
  3
AcMeServices
 90
     1024
280
     0
281
     0
  0
CLASS
  1
ACMEDRAWINGMAN
  2
AcMeDrawingMan
  3
AcMeServices
 90
    33792
280
     0
281
     0
  0
CLASS
  1
ACMEVIEW
  2
AcMeView
  3
AcMeServices
 90
    33792
280
     0
281
     0
  0
CLASS
  1
ACDBENTITYCACHE
  2
AcMeEntityCache
  3
AcMeServices
 90
    33792
280
     0
281
     0
  0
CLASS
  1
ACMESTATEMGR
  2
AcMeStateMgr
  3
AcMeServices
 90
     1024
280
     0
281
     0
  0
CLASS
  1
ACGREFMASTER
  2
AcGrefMaster
  3
AcAttribServices
 90
     1024
280
     0
281
     0
  0
CLASS
  1
AM_DRAWING_MGR
  2
AcDmDwgMgr
  3
AcMechDwgViewMgmt
 90
     1024
280
     0
281
     0
  0
CLASS
  1
AM_DWG_DOCUMENT
  2
AcDmDwgDocument
  3
AcMechDwgViewMgmt
 90
     1024
280
     0
281
     0
  0
CLASS
  1
AM_DWG_SHEET
  2
AcDmSheet
  3
AcMechDwgViewMgmt
 90
     1024
280
     0
281
     0
  0
CLASS
  1
AM_VIEWDIMPARMAP
  2
AcDmViewDimParMap
  3
AcMechDwgViewMgmt
 90
     1024
280
     0
281
     0
  0
CLASS
  1
AMDTINTERNALREACTOR
  2
AmdtInternalReactor
  3
AcMeServices
 90
     1024
280
     0
281
     0
  0
CLASS
  1
ACIMREALSYSVAR
  2
AcImRealSysVar
  3
AcMeServices
 90
     1024
280
     0
281
     0
  0
CLASS
  1
AM_DWGMGR_NAME
  2
AcDmDwgMgrName
  3
AcMechDwgViewMgmt
 90
     1024
280
     0
281
     0
  0
CLASS
  1
ACME_DATABASE
  2
AcMeDbDatabase
  3
AcMeServices
 90
    33792
280
     0
281
     0
  0
CLASS
  1
ACRFINSADJUSTERMGR
  2
AcRfInsAdjusterMgr
  3
AcMeServices
 90
    33792
280
     0
281
     0
  0
CLASS
  1
ACGREFACADMASTER
  2
AcGrefacadMaster
  3
AcGrefServices
 90
    33792
280
     0
281
     0
  0
CLASS
  1
AMDTMENUSTATEMGR
  2
AmdtMenuStateMgr
  3
McadcomServices
 90
    33792
280
     0
281
     0
  0
CLASS
  1
AMDTMCOMMENUSTATE
  2
AmdtMcomMenuState
  3
McadcomServices
 90
    33792
280
     0
281
     0
  0
CLASS
  1
AMIMASTER
  2
AmiMaster
  3
AmiServices
 90
    33792
280
     0
281
     0
  0
CLASS
  1
MAPIAMMOUDLE
  2
MApiAmModule
  3
MApiAmServices
 90
    33792
280
     0
281
     0
  0
CLASS
  1
ACIMSTRSYSVAR
  2
AcImStrSysVar
  3
AcMeServices
 90
     1024
280
     0
281
     0
  0
CLASS
  1
AMDTADMENUSTATE
  2
AmdtAdMenuState
  3
DesignerServices
 90
    33792
280
     0
281
     0
  0
CLASS
  1
ADAPPL
  2
AcAdAppl
  3
DesignerServices
 90
     1024
280
     0
281
     0
  0
CLASS
  1
DEPMGR
  2
AcAdDepMgr
  3
DesignerServices
 90
     1024
280
     0
281
     0
  0
CLASS
  1
PARAMMGR
  2
AcAdParamMgr
  3
DesignerServices
 90
     1024
280
     0
281
     0
  0
CLASS
  1
PARAMSCOPE
  2
AcAdParamScope
  3
DesignerServices
 90
     1024
280
     0
281
     0
  0
CLASS
  1
NAMEDAPPL
  2
AcAdNamedAppl
  3
DesignerServices
 90
     1024
280
     0
281
     0
  0
CLASS
  1
AMDTDMMENUSTATE
  2
AmdtDmMenuState
  3
AcMechDwgViewMgmt
 90
    33792
280
     0
281
     0
  0
CLASS
  1
AMDTAMMENUSTATE
  2
AmdtAmMenuState
  3
DesignerAssemblies
 90
    33792
280
     0
281
     0
  0
CLASS
  1
ACAMPROJECT
  2
AcAmProject
  3
DesignerAssemblies
 90
    33792
280
     0
281
     0
  0
CLASS
  1
ACAMGRCOMPDEF
  2
AcAmGrCompDef
  3
DesignerAssemblies
 90
    33792
280
     0
281
     0
  0
CLASS
  1
ACAMCOMPDEF
  2
AcAmCompDef
  3
DesignerAssemblies
 90
    33792
280
     0
281
     0
  0
CLASS
  1
ACAMCOMPDEFMGR
  2
AcAmCompDefMgr
  3
DesignerAssemblies
 90
    33792
280
     0
281
     0
  0
CLASS
  1
AMCONTEXTMGR
  2
AcAmContextMgr
  3
DesignerAssemblies
 90
    33792
280
     0
281
     0
  0
CLASS
  1
ACAMCONTEXTMODELER
  2
AcAmContextModeler
  3
DesignerAssemblies
 90
    33792
280
     0
281
     0
  0
CLASS
  1
ACMDATADICTIONARY
  2
AcmDataDictionary
  3
"AcmSymBB|Product Description: AutoCAD Mechanical|Company: Autodesk, Inc."
 90
    33792
280
     0
281
     0
  0
CLASS
  1
CATALOGSTATE
  2
AcAmCatalogState
  3
DesignerAssemblies
 90
    33792
280
     0
281
     0
  0
CLASS
  1
ACAMGRCOMPDEFSET
  2
AcAmGrCompDefSet
  3
DesignerAssemblies
 90
    33792
280
     0
281
     0
  0
CLASS
  1
AMDTBROWSERDBTAB
  2
AmdtBrowserDbTab
  3
McadcomServices
 90
    33792
280
     0
281
     0
  0
CLASS
  1
CBROWSERAPPOBJECT
  2
CBrowserAppObject
  3
McadcomServices
 90
    33792
280
     0
281
     0
  0
CLASS
  1
DM_PLACEHOLDER
  2
AcDmSelsetPlaceholder
  3
AcMechDwgViewMgmt
 90
    33792
280
     0
281
     0
  0
CLASS
  1
ACMSTANDARDANSI
  2
AcmStandardANSI
  3
"Amdt_StdImp|Product Description: AutoCAD Mechanical|Company: Autodesk, Inc."
 90
     1024
280
     0
281
     0
  0
CLASS
  1
ACMSURFSTANDARDANSI
  2
AcmSurfTextStdANSI
  3
"Amdt_StdImp|Product Description: AutoCAD Mechanical|Company: Autodesk, Inc."
 90
     1024
280
     0
281
     0
  0
CLASS
  1
ACMFCFSTANDARDANSI
  2
AcmFCFStdANSI
  3
"Amdt_StdImp|Product Description: AutoCAD Mechanical|Company: Autodesk, Inc."
 90
     1024
280
     0
281
     0
  0
CLASS
  1
ACMWELDSTANDARDANSI
  2
AcmWeldingStdANSI
  3
"Amdt_StdImp|Product Description: AutoCAD Mechanical|Company: Autodesk, Inc."
 90
     1024
280
     0
281
     0
  0
CLASS
  1
ACMIDSTANDARDANSI
  2
AcmIdStdANSI
  3
"Amdt_StdImp|Product Description: AutoCAD Mechanical|Company: Autodesk, Inc."
 90
     1024
280
     0
281
     0
  0
CLASS
  1
ACMDATUMSTANDARDANSI
  2
AcmDatumStdANSI
  3
"Amdt_StdImp|Product Description: AutoCAD Mechanical|Company: Autodesk, Inc."
 90
     1024
280
     0
281
     0
  0
CLASS
  1
ACMBOMSTANDARDANSI
  2
AcmBOMStdANSI
  3
"Amdt_StdImp|Product Description: AutoCAD Mechanical|Company: Autodesk, Inc."
 90
     1024
280
     0
281
     0
  0
CLASS
  1
ACMDETAILSTANDARDANSI
  2
AmdtDetailSymStdANSI
  3
"Amdt_StdImp|Product Description: AutoCAD Mechanical|Company: Autodesk, Inc."
 90
     1024
280
     0
281
     0
  0
CLASS
  1
ACMSECTIONSTANDARDANSI
  2
AmdtSectionSymStdANSI
  3
"Amdt_StdImp|Product Description: AutoCAD Mechanical|Company: Autodesk, Inc."
 90
     1024
280
     0
281
     0
  0
CLASS
  1
ACMCENTERLINESTANDARDANSI
  2
AmdtCenterLineStdANSI
  3
"Amdt_StdImp|Product Description: AutoCAD Mechanical|Company: Autodesk, Inc."
 90
     1024
280
     0
281
     0
  0
CLASS
  1
ACMTHREADLINESTANDARDANSI
  2
AmdtThreadLineStdANSI
  3
"Amdt_StdImp|Product Description: AutoCAD Mechanical|Company: Autodesk, Inc."
 90
     1024
280
     0
281
     0
  0
CLASS
  1
ACMNOTESTANDARDANSI
  2
AmdtNoteStdANSI
  3
"Amdt_StdImp|Product Description: AutoCAD Mechanical|Company: Autodesk, Inc."
 90
     1024
280
     0
281
     0
  0
CLASS
  1
ACMTAPERSTANDARDANSI
  2
AcmTaperStdANSI
  3
"Amdt_StdImp|Product Description: AutoCAD Mechanical|Company: Autodesk, Inc."
 90
     1024
280
     0
281
     0
  0
CLASS
  1
ACMANOOTATIONVIEWSTANDARDANSI
  2
AmdtAnViewStdANSI
  3
"Amdt_StdImp|Product Description: AutoCAD Mechanical|Company: Autodesk, Inc."
 90
     1024
280
     0
281
     0
  0
CLASS
  1
ACAMGLAYSTD
  2
AcAmgLayStd
  3
"AmgLay|Product Description: AutoCAD Mechanical|Company: Autodesk, Inc."
 90
     1024
280
     0
281
     0
  0
CLASS
  1
ACAMGDIMSTD
  2
AcAmgDimStd
  3
"AmgDim|Product Description: AutoCAD Mechanical|Company: Autodesk, Inc."
 90
     1024
280
     0
281
     0
  0
CLASS
  1
AMGOBJPROPCFG
  2
AmgObjPropCfg
  3
"AmgLay|Product Description: AutoCAD Mechanical|Company: Autodesk, Inc."
 90
     1025
280
     0
281
     0
  0
CLASS
  1
ACAMGHOLECHARTSTDANSI
  2
AcAmgHoleChartStdANSI
  3
AmgDim|Product Description: AutoCAD Mechanical|Company: Autodesk, Inc.
 90
     1024
280
     0
281
     0
  0
CLASS
  1
ACAMGTITLESTD
  2
AcAmgTitleStd
  3
"AmgTitle|Product Description: AutoCAD Mechanical|Company: Autodesk, Inc."
 90
     4095
280
     0
281
     0
  0
CLASS
  1
AMDTNOTETEMPLATEDB
  2
AmdtNoteTemplateDB
  3
AcmSymBB|Product Description: AutoCAD Mechanical|Company: Autodesk, Inc.
 90
     1024
280
     0
281
     0
  0
CLASS
  1
ACAMGFILTERDAT
  2
AcAmgFilterDat
  3
"AcadM|Product Description: AutoCAD Mechanical|Company: Autodesk, Inc."
 90
    33792
280
     0
281
     0
  0
ENDSEC
  0
SECTION
  2
TABLES
  0
TABLE
  2
VPORT
  5
2B
102
{ACAD_XDICTIONARY
360
2F
102
}
330
0
100
AcDbSymbolTable
 70
     1
  0
VPORT
  5
2C
330
2B
100
AcDbSymbolTableRecord
100
AcDbViewportTableRecord
  2
*Active
 70
     0
 10
0.0
 20
0.0
 11
1.0
 21
1.0
 12
145778.909895582
 22
-178742.8468552588
 13
0.0
 23
0.0
 14
0.5
 24
0.5
 15
0.5
 25
0.5
 16
0.0
 26
0.0
 36
1.0
 17
0.0
 27
0.0
 37
0.0
 40
3081.621219945648
 41
1.501213592233009
 42
50.0
 43
0.0
 44
0.0
 50
0.0
 51
0.0
 71
     0
 72
  1000
 73
     1
 74
     3
 75
     0
 76
     0
 77
     0
 78
     0
281
     0
 65
     1
110
0.0
120
0.0
130
0.0
111
1.0
121
0.0
131
0.0
112
0.0
122
1.0
132
0.0
 79
     0
146
0.0
  0
ENDTAB
  0
TABLE
  2
LTYPE
  5
26
330
0
100
AcDbSymbolTable
 70
    10
  0
LTYPE
  5
27
330
26
100
AcDbSymbolTableRecord
100
AcDbLinetypeTableRecord
  2
ByBlock
 70
     0
  3

 72
    65
 73
     0
 40
0.0
  0
LTYPE
  5
28
330
26
100
AcDbSymbolTableRecord
100
AcDbLinetypeTableRecord
  2
ByLayer
 70
     0
  3

 72
    65
 73
     0
 40
0.0
  0
LTYPE
  5
15
330
26
100
AcDbSymbolTableRecord
100
AcDbLinetypeTableRecord
  2
Continuous
 70
     0
  3
Solid line
 72
    65
 73
     0
 40
0.0
  0
LTYPE
  5
BA
330
26
100
AcDbSymbolTableRecord
100
AcDbLinetypeTableRecord
  2
CENTER2
 70
     0
  3
Center (.5x) ___ _ ___ _ ___ _ ___ _ ___ _ ___
 72
    65
 73
     4
 40
28.575
 49
19.05
 74
     0
 49
-3.174999999999999
 74
     0
 49
3.174999999999999
 74
     0
 49
-3.174999999999999
 74
     0
  0
LTYPE
  5
89
330
26
100
AcDbSymbolTableRecord
100
AcDbLinetypeTableRecord
  2
HIDDEN2
 70
     0
  3
Hidden (.5x) _ _ _ _ _ _ _ _ _ _ _ _ _ _ _ _ _
 72
    65
 73
     2
 40
4.762499999999999
 49
3.174999999999999
 74
     0
 49
-1.587499999999999
 74
     0
  0
LTYPE
  5
21C
330
26
100
AcDbSymbolTableRecord
100
AcDbLinetypeTableRecord
  2
PHANTOM2
 70
     0
  3
Phantom (.5x) ___ _ _ ___ _ _ ___ _ _ ___ _ _
 72
    65
 73
     6
 40
31.75
 49
15.875
 74
     0
 49
-3.174999999999999
 74
     0
 49
3.174999999999999
 74
     0
 49
-3.174999999999999
 74
     0
 49
3.174999999999999
 74
     0
 49
-3.174999999999999
 74
     0
  0
LTYPE
  5
21A
330
26
100
AcDbSymbolTableRecord
100
AcDbLinetypeTableRecord
  2
HIDDEN
 70
     0
  3
Hidden __ __ __ __ __ __ __ __ __ __ __ __ __ _
 72
    65
 73
     2
 40
0.375
 49
0.25
 74
     0
 49
-0.125
 74
     0
  0
LTYPE
  5
21B
330
26
100
AcDbSymbolTableRecord
100
AcDbLinetypeTableRecord
  2
CENTER
 70
     0
  3
Center ____ _ ____ _ ____ _ ____ _ ____ _ ____
 72
    65
 73
     4
 40
2.0
 49
1.25
 74
     0
 49
-0.25
 74
     0
 49
0.25
 74
     0
 49
-0.25
 74
     0
  0
LTYPE
  5
21D
330
26
100
AcDbSymbolTableRecord
100
AcDbLinetypeTableRecord
  2
Amconstr
 70
     0
  3
_______________________
 72
    65
 73
     2
 40
9999.0
 49
9999.0
 74
     0
 49
0.0
 74
     0
  0
LTYPE
  5
21E
330
26
100
AcDbSymbolTableRecord
100
AcDbLinetypeTableRecord
  2
Amzigzag2
 70
     0
  3
/\/-/\/-/\/-/\/-/\/-/\/
 72
    65
 73
     2
 40
0.4401
 49
0.0001
 74
     4
 75
   136
340
21F
 46
0.0016
 50
0.0
 44
0.0
 45
0.0
 49
-0.4400000000000001
 74
     0
  0
LTYPE
  5
22F
330
26
100
AcDbSymbolTableRecord
100
AcDbLinetypeTableRecord
  2
ACANSTGB
 70
     0
  3
__ . . __ . .
 72
    65
 73
     6
 40
0.35433070866
 49
0.15748031496
 74
     0
 49
-0.03937007874
 74
     0
 49
0.03937007874
 74
     0
 49
-0.03937007874
 74
     0
 49
0.03937007874
 74
     0
 49
-0.03937007874
 74
     0
  0
LTYPE
  5
230
330
26
100
AcDbSymbolTableRecord
100
AcDbLinetypeTableRecord
  2
ACANSTGL
 70
     0
  3
_ _ _ _ _
 72
    65
 73
     2
 40
0.11811023622
 49
0.07874015748
 74
     0
 49
-0.03937007874
 74
     0
  0
ENDTAB
  0
TABLE
  2
LAYER
  5
1E
102
{ACAD_XDICTIONARY
360
1F
102
}
330
0
100
AcDbSymbolTable
 70
     6
  0
LAYER
  5
6
102
{ACAD_XDICTIONARY
360
7
102
}
330
1E
100
AcDbSymbolTableRecord
100
AcDbLayerTableRecord
  2
0
 70
     0
 62
     7
  6
Continuous
370
    18
390
9
  0
LAYER
  5
91
102
{ACAD_XDICTIONARY
360
92
102
}
330
1E
100
AcDbSymbolTableRecord
100
AcDbLayerTableRecord
  2
标注线
 70
     0
 62
     3
  6
Continuous
370
     9
390
9
  0
LAYER
  5
B7
102
{ACAD_XDICTIONARY
360
B8
102
}
330
1E
100
AcDbSymbolTableRecord
100
AcDbLayerTableRecord
  2
中心线
 70
     0
 62
     1
  6
CENTER2
370
     9
390
9
  0
LAYER
  5
86
102
{ACAD_XDICTIONARY
360
87
102
}
330
1E
100
AcDbSymbolTableRecord
100
AcDbLayerTableRecord
  2
虚线
 70
     0
 62
     4
  6
HIDDEN2
370
     9
390
9
  0
LAYER
  5
9E
330
1E
100
AcDbSymbolTableRecord
100
AcDbLayerTableRecord
  2
Defpoints
 70
     0
 62
     7
  6
Continuous
290
     0
370
     9
390
9
  0
LAYER
  5
57
102
{ACAD_XDICTIONARY
360
58
102
}
330
1E
100
AcDbSymbolTableRecord
100
AcDbLayerTableRecord
  2
标注
 70
     0
 62
    80
  6
Continuous
370
     5
390
9
1001
AcAecLayerStandard
1000

1000

  0
ENDTAB
  0
TABLE
  2
STYLE
  5
22
330
0
100
AcDbSymbolTable
 70
     3
  0
STYLE
  5
23
330
22
100
AcDbSymbolTableRecord
100
AcDbTextStyleTableRecord
  2
Standard
 70
     0
 40
0.0
 41
1.0
 50
0.0
 71
     0
 42
0.2
  3
SimSun.ttf
  4

1001
ACAD
1000
SimSun
1071
    34306
  0
STYLE
  5
21F
330
22
100
AcDbSymbolTableRecord
100
AcDbTextStyleTableRecord
  2

 70
     1
 40
0.0
 41
1.0
 50
0.0
 71
     0
 42
0.2
  3
genltshp.shx
  4

  0
STYLE
  5
22B
330
22
100
AcDbSymbolTableRecord
100
AcDbTextStyleTableRecord
  2
ACANSGDT
 70
     0
 40
0.0
 41
1.0
 50
0.0
 71
     0
 42
0.2
  3
amgdt.shx
  4

  0
ENDTAB
  0
TABLE
  2
VIEW
  5
29
330
0
100
AcDbSymbolTable
 70
     0
  0
ENDTAB
  0
TABLE
  2
UCS
  5
2A
330
0
100
AcDbSymbolTable
 70
     0
  0
ENDTAB
  0
TABLE
  2
APPID
  5
30
330
0
100
AcDbSymbolTable
 70
    15
  0
APPID
  5
24
330
30
100
AcDbSymbolTableRecord
100
AcDbRegAppTableRecord
  2
ACAD
 70
     0
  0
APPID
  5
5A
330
30
100
AcDbSymbolTableRecord
100
AcDbRegAppTableRecord
  2
AcAecLayerStandard
 70
     0
  0
APPID
  5
19
330
30
100
AcDbSymbolTableRecord
100
AcDbRegAppTableRecord
  2
ACAD_PSEXT
 70
     0
  0
APPID
  5
35
330
30
100
AcDbSymbolTableRecord
100
AcDbRegAppTableRecord
  2
ACAD_DSTYLE_DIMJAG
 70
     0
  0
APPID
  5
34
330
30
100
AcDbSymbolTableRecord
100
AcDbRegAppTableRecord
  2
ACAD_DSTYLE_DIMBREAK
 70
     0
  0
APPID
  5
36
330
30
100
AcDbSymbolTableRecord
100
AcDbRegAppTableRecord
  2
ACAD_DSTYLE_DIMTALN
 70
     0
  0
APPID
  5
1C8
330
30
100
AcDbSymbolTableRecord
100
AcDbRegAppTableRecord
  2
ACAD_DSTYLE_DIMRADIAL_EXTENSION
 70
     0
  0
APPID
  5
A9
330
30
100
AcDbSymbolTableRecord
100
AcDbRegAppTableRecord
  2
GENIUS_GENODEF_13
 70
     0
  0
APPID
  5
A8
330
30
100
AcDbSymbolTableRecord
100
AcDbRegAppTableRecord
  2
GENIUS_GENFIL_13
 70
     0
  0
APPID
  5
AA
330
30
100
AcDbSymbolTableRecord
100
AcDbRegAppTableRecord
  2
GENIUS_GENOBJ-N-CHA_13
 70
     0
  0
APPID
  5
253
330
30
100
AcDbSymbolTableRecord
100
AcDbRegAppTableRecord
  2
ACATTRIBSERVICES
 70
     0
  0
APPID
  5
2A2
330
30
100
AcDbSymbolTableRecord
100
AcDbRegAppTableRecord
  2
ACAD_DSTYLE_DIMARC_LENGTH_SYMBOL
 70
     0
  0
APPID
  5
2A3
330
30
100
AcDbSymbolTableRecord
100
AcDbRegAppTableRecord
  2
ACAD_DSTYLE_DIM_LINETYPE
 70
     0
  0
APPID
  5
2A4
330
30
100
AcDbSymbolTableRecord
100
AcDbRegAppTableRecord
  2
ACAD_DSTYLE_DIM_EXT1_LINETYPE
 70
     0
  0
APPID
  5
2A5
330
30
100
AcDbSymbolTableRecord
100
AcDbRegAppTableRecord
  2
ACAD_DSTYLE_DIM_EXT2_LINETYPE
 70
     0
  0
ENDTAB
  0
TABLE
  2
DIMSTYLE
  5
31
330
0
100
AcDbSymbolTable
 70
    12
100
AcDbDimStyleTable
 71
     6
340
32
340
33
340
37
340
38
340
39
340
3A
  0
DIMSTYLE
105
39
330
31
100
AcDbSymbolTableRecord
100
AcDbDimStyleTableRecord
  2
XIAO
 70
     0
 41
3.5
 42
3.0
 43
1.0
 44
1.0
 73
     0
 74
     0
 78
     8
140
4.0
141
1.5
143
0.03937007874016
147
1.0
171
     3
172
     1
179
     1
271
     1
272
     1
274
     3
278
    44
283
     0
284
     8
340
23
  0
DIMSTYLE
105
32
330
31
100
AcDbSymbolTableRecord
100
AcDbDimStyleTableRecord
  2
副本Standard
 70
     0
  4
"
 41
16.0
 42
20.0
 44
7.0
 73
     0
 74
     0
 78
     8
 79
     2
140
20.0
143
0.03937
147
5.0
171
     3
172
     1
176
   256
177
   256
178
   256
179
     1
271
     1
272
     1
273
     7
274
     3
278
    44
340
23
  0
DIMSTYLE
105
3A
330
31
100
AcDbSymbolTableRecord
100
AcDbDimStyleTableRecord
  2
副本 (100818)Standard
 70
     0
  4
"
 41
16.0
 42
0.0
 44
7.0
 78
     8
 79
     2
140
20.0
143
0.03937
147
5.0
171
     3
172
     1
176
   256
177
   256
178
   256
179
     1
271
     1
272
     1
273
     7
274
     3
278
    44
340
23
341
3B
  0
DIMSTYLE
105
38
330
31
100
AcDbSymbolTableRecord
100
AcDbDimStyleTableRecord
  2
mm-inch
 70
     0
  3
mm
  4
"
 41
16.0
 42
20.0
 44
7.0
 73
     0
 74
     0
 78
     8
 79
     2
140
20.0
143
0.03937
147
5.0
170
     1
171
     3
172
     1
176
   256
177
   256
178
   256
179
     1
271
     0
272
     0
273
     7
274
     3
278
    44
340
23
1001
ACAD_DSTYLE_DIMBREAK
1070
   391
1040
0.125
1001
ACAD_DSTYLE_DIMJAG
1070
   388
1040
1.5
1001
ACAD_DSTYLE_DIMTALN
1070
   392
1070
     0
  0
DIMSTYLE
105
241
102
{ACAD_REACTORS
330
228
102
}
330
31
100
AcDbSymbolTableRecord
100
AcDbDimStyleTableRecord
  2
AM_ANSI
 70
     0
  4
mm
 41
0.12
 42
0.05
 43
0.5
 44
0.1
 47
0.1
 48
0.1
 78
     7
 79
     2
140
0.12
141
0.0
146
0.71
147
0.06
176
   256
177
   256
178
     2
274
     4
284
     7
340
23
371
    -1
372
    -1
1001
ACAD_DSTYLE_DIMJAG
1070
   388
1040
1.5
1001
ACAD_DSTYLE_DIMBREAK
1070
   391
1040
0.125
1001
ACAD_DSTYLE_DIMARC_LENGTH_SYMBOL
1070
   379
1070
     1
1001
ACAD_DSTYLE_DIM_LINETYPE
1070
   380
1005
27
1001
ACAD_DSTYLE_DIM_EXT1_LINETYPE
1070
   381
1005
27
1001
ACAD_DSTYLE_DIM_EXT2_LINETYPE
1070
   382
1005
27
  0
DIMSTYLE
105
242
330
31
100
AcDbSymbolTableRecord
100
AcDbDimStyleTableRecord
  2
AM_ANSI$3
 70
     0
  4
mm
 41
0.12
 42
0.05
 43
0.5
 44
0.1
 47
0.1
 48
0.1
 78
     7
 79
     2
140
0.12
141
0.0
146
0.71
147
0.06
176
   256
177
   256
178
     2
274
     4
284
     7
288
     1
289
     0
340
23
371
    -1
372
    -1
1001
ACAD_DSTYLE_DIMBREAK
1070
   391
1040
0.125
1001
ACAD_DSTYLE_DIMJAG
1070
   388
1040
1.5
1001
ACAD_DSTYLE_DIMARC_LENGTH_SYMBOL
1070
   379
1070
     1
1001
ACAD_DSTYLE_DIM_LINETYPE
1070
   380
1005
27
1001
ACAD_DSTYLE_DIM_EXT1_LINETYPE
1070
   381
1005
27
1001
ACAD_DSTYLE_DIM_EXT2_LINETYPE
1070
   382
1005
27
  0
DIMSTYLE
105
243
330
31
100
AcDbSymbolTableRecord
100
AcDbDimStyleTableRecord
  2
AM_ANSI$4
 70
     0
  4
mm
 41
0.12
 42
0.05
 43
0.5
 44
0.1
 47
0.1
 48
0.1
 78
     7
 79
     2
140
0.12
141
0.0
146
0.71
147
0.06
176
   256
177
   256
178
     2
274
     4
284
     7
288
     1
289
     0
340
23
371
    -1
372
    -1
1001
ACAD_DSTYLE_DIMBREAK
1070
   391
1040
0.125
1001
ACAD_DSTYLE_DIMJAG
1070
   388
1040
1.5
1001
ACAD_DSTYLE_DIMARC_LENGTH_SYMBOL
1070
   379
1070
     1
1001
ACAD_DSTYLE_DIM_LINETYPE
1070
   380
1005
27
1001
ACAD_DSTYLE_DIM_EXT1_LINETYPE
1070
   381
1005
27
1001
ACAD_DSTYLE_DIM_EXT2_LINETYPE
1070
   382
1005
27
  0
DIMSTYLE
105
244
330
31
100
AcDbSymbolTableRecord
100
AcDbDimStyleTableRecord
  2
AM_ANSI$7
 70
     0
  4
mm
 41
0.12
 42
0.05
 43
0.5
 44
0.1
 47
0.1
 48
0.1
 78
     7
 79
     2
140
0.12
141
0.0
146
0.71
147
0.06
176
   256
177
   256
178
     2
274
     4
284
     7
340
23
371
    -1
372
    -1
1001
ACAD_DSTYLE_DIMBREAK
1070
   391
1040
0.125
1001
ACAD_DSTYLE_DIMJAG
1070
   388
1040
1.5
1001
ACAD_DSTYLE_DIMARC_LENGTH_SYMBOL
1070
   379
1070
     1
1001
ACAD_DSTYLE_DIM_LINETYPE
1070
   380
1005
27
1001
ACAD_DSTYLE_DIM_EXT1_LINETYPE
1070
   381
1005
27
1001
ACAD_DSTYLE_DIM_EXT2_LINETYPE
1070
   382
1005
27
  0
DIMSTYLE
105
245
330
31
100
AcDbSymbolTableRecord
100
AcDbDimStyleTableRecord
  2
AM_ANSI$SF
 70
     0
  4
mm
 41
0.12
 42
0.05
 43
0.5
 44
0.1
 47
0.1
 48
0.1
 75
     1
 76
     1
 78
     7
 79
     2
140
0.12
141
0.0
146
0.71
147
0.06
176
   256
177
   256
178
     2
274
     4
284
     7
340
23
371
    -1
372
    -1
1001
ACAD_DSTYLE_DIMBREAK
1070
   391
1040
0.125
1001
ACAD_DSTYLE_DIMJAG
1070
   388
1040
1.5
1001
ACAD_DSTYLE_DIMARC_LENGTH_SYMBOL
1070
   379
1070
     1
1001
ACAD_DSTYLE_DIM_LINETYPE
1070
   380
1005
27
1001
ACAD_DSTYLE_DIM_EXT1_LINETYPE
1070
   381
1005
27
1001
ACAD_DSTYLE_DIM_EXT2_LINETYPE
1070
   382
1005
27
  0
DIMSTYLE
105
246
330
31
100
AcDbSymbolTableRecord
100
AcDbDimStyleTableRecord
  2
AM_ANSI$SH
 70
     0
  4
mm
 41
0.12
 42
0.05
 43
0.5
 44
0.1
 47
0.1
 48
0.1
 75
     1
 76
     1
 78
     7
 79
     2
140
0.12
141
0.0
146
0.71
147
0.06
173
     1
176
   256
177
   256
178
     2
274
     4
284
     7
340
23
343
247
371
    -1
372
    -1
1001
ACAD_DSTYLE_DIMBREAK
1070
   391
1040
0.125
1001
ACAD_DSTYLE_DIMJAG
1070
   388
1040
1.5
1001
ACAD_DSTYLE_DIMARC_LENGTH_SYMBOL
1070
   379
1070
     1
1001
ACAD_DSTYLE_DIM_LINETYPE
1070
   380
1005
27
1001
ACAD_DSTYLE_DIM_EXT1_LINETYPE
1070
   381
1005
27
1001
ACAD_DSTYLE_DIM_EXT2_LINETYPE
1070
   382
1005
27
  0
DIMSTYLE
105
37
330
31
100
AcDbSymbolTableRecord
100
AcDbDimStyleTableRecord
  2
中14+
 70
     0
  4
"
 41
14.0
 42
10.0
 43
1.0
 44
2.0
 73
     0
 74
     0
 78
     8
140
14.0
141
2.0
143
0.03937007874016
147
5.0
171
     3
172
     1
179
     1
271
     1
272
     1
273
     7
274
     3
278
    44
283
     0
284
     8
340
23
1001
ACAD_DSTYLE_DIMJAG
1070
   388
1040
1.5
1001
ACAD_DSTYLE_DIMBREAK
1070
   391
1040
0.2
1001
ACAD_DSTYLE_DIMTALN
1070
   392
1070
     0
  0
DIMSTYLE
105
33
102
{ACAD_REACTORS
330
1AF
330
1BD
330
1C9
330
1D4
330
1DF
330
1F0
330
1FB
330
209
330
90
330
BC
330
CB
330
D9
330
10D
330
11C
330
139
330
147
330
15F
330
170
330
17E
102
}
330
31
100
AcDbSymbolTableRecord
100
AcDbDimStyleTableRecord
  2
毫米英寸Standard
 70
     0
  3
mm
  4
"
 41
14.0
 42
20.0
 44
8.0
 73
     0
 74
     0
 78
     8
 79
     2
140
14.0
143
0.03937
147
8.0
170
     1
171
     3
172
     1
176
   256
177
   256
178
   256
179
     1
271
     1
272
     1
273
     7
274
     3
278
    44
340
23
1001
ACAD_DSTYLE_DIMBREAK
1070
   391
1040
0.125
1001
ACAD_DSTYLE_DIMJAG
1070
   388
1040
1.5
1001
ACAD_DSTYLE_DIMTALN
1070
   392
1070
     0
  0
ENDTAB
  0
TABLE
  2
BLOCK_RECORD
  5
1
330
0
100
AcDbSymbolTable
 70
    21
  0
BLOCK_RECORD
  5
2
102
{ACAD_XDICTIONARY
360
3
102
}
330
1
100
AcDbSymbolTableRecord
100
AcDbBlockTableRecord
  2
*Model_Space
340
17
  0
BLOCK_RECORD
  5
1A
330
1
100
AcDbSymbolTableRecord
100
AcDbBlockTableRecord
  2
*Paper_Space
340
1D
  0
BLOCK_RECORD
  5
3B
330
1
100
AcDbSymbolTableRecord
100
AcDbBlockTableRecord
  2
_Oblique
340
0
  0
BLOCK_RECORD
  5
247
330
1
100
AcDbSymbolTableRecord
100
AcDbBlockTableRecord
  2
GENAXEH
340
0
  0
BLOCK_RECORD
  5
1B0
330
1
100
AcDbSymbolTableRecord
100
AcDbBlockTableRecord
  2
*D2
340
0
  0
BLOCK_RECORD
  5
94
330
1
100
AcDbSymbolTableRecord
100
AcDbBlockTableRecord
  2
*D3
340
0
  0
BLOCK_RECORD
  5
BD
330
1
100
AcDbSymbolTableRecord
100
AcDbBlockTableRecord
  2
*D4
340
0
  0
BLOCK_RECORD
  5
CC
330
1
100
AcDbSymbolTableRecord
100
AcDbBlockTableRecord
  2
*D5
340
0
  0
BLOCK_RECORD
  5
DA
330
1
100
AcDbSymbolTableRecord
100
AcDbBlockTableRecord
  2
*D6
340
0
  0
BLOCK_RECORD
  5
10E
330
1
100
AcDbSymbolTableRecord
100
AcDbBlockTableRecord
  2
*D7
340
0
  0
BLOCK_RECORD
  5
11D
330
1
100
AcDbSymbolTableRecord
100
AcDbBlockTableRecord
  2
*D8
340
0
  0
BLOCK_RECORD
  5
13A
330
1
100
AcDbSymbolTableRecord
100
AcDbBlockTableRecord
  2
*D9
340
0
  0
BLOCK_RECORD
  5
148
330
1
100
AcDbSymbolTableRecord
100
AcDbBlockTableRecord
  2
*D10
340
0
  0
BLOCK_RECORD
  5
160
330
1
100
AcDbSymbolTableRecord
100
AcDbBlockTableRecord
  2
*D11
340
0
  0
BLOCK_RECORD
  5
171
330
1
100
AcDbSymbolTableRecord
100
AcDbBlockTableRecord
  2
*D12
340
0
  0
BLOCK_RECORD
  5
1C0
330
1
100
AcDbSymbolTableRecord
100
AcDbBlockTableRecord
  2
*D13
340
0
  0
BLOCK_RECORD
  5
1CC
330
1
100
AcDbSymbolTableRecord
100
AcDbBlockTableRecord
  2
*D14
340
0
  0
BLOCK_RECORD
  5
1D7
330
1
100
AcDbSymbolTableRecord
100
AcDbBlockTableRecord
  2
*D15
340
0
  0
BLOCK_RECORD
  5
1E2
330
1
100
AcDbSymbolTableRecord
100
AcDbBlockTableRecord
  2
*D16
340
0
  0
BLOCK_RECORD
  5
1F3
330
1
100
AcDbSymbolTableRecord
100
AcDbBlockTableRecord
  2
*D17
340
0
  0
BLOCK_RECORD
  5
1FE
330
1
100
AcDbSymbolTableRecord
100
AcDbBlockTableRecord
  2
*D18
340
0
  0
BLOCK_RECORD
  5
20C
330
1
100
AcDbSymbolTableRecord
100
AcDbBlockTableRecord
  2
*D19
340
0
  0
BLOCK_RECORD
  5
181
330
1
100
AcDbSymbolTableRecord
100
AcDbBlockTableRecord
  2
*D20
340
0
  0
ENDTAB
  0
ENDSEC
  0
SECTION
  2
BLOCKS
  0
BLOCK
  5
5
330
2
100
AcDbEntity
  8
0
100
AcDbBlockBegin
  2
*Model_Space
 70
     0
 10
0.0
 20
0.0
 30
0.0
  3
*Model_Space
  1

  0
ENDBLK
  5
16
330
2
100
AcDbEntity
  8
0
100
AcDbBlockEnd
  0
BLOCK
  5
1B
330
1A
100
AcDbEntity
 67
     1
  8
0
100
AcDbBlockBegin
  2
*Paper_Space
 70
     0
 10
0.0
 20
0.0
 30
0.0
  3
*Paper_Space
  1

  0
ENDBLK
  5
1C
330
1A
100
AcDbEntity
 67
     1
  8
0
100
AcDbBlockEnd
  0
BLOCK
  5
3C
330
3B
100
AcDbEntity
  8
0
 48
5.0
100
AcDbBlockBegin
  2
_Oblique
 70
     0
 10
0.0
 20
0.0
 30
0.0
  3
_Oblique
  1

  0
LINE
  5
3D
330
3B
100
AcDbEntity
  8
0
  6
ByBlock
 62
     0
370
    -2
100
AcDbLine
 10
-0.5
 20
-0.5
 30
0.0
 11
0.5
 21
0.5
 31
0.0
  0
ENDBLK
  5
3E
330
3B
100
AcDbEntity
  8
0
 48
5.0
100
AcDbBlockEnd
  0
BLOCK
  5
248
330
247
100
AcDbEntity
  8
0
 48
5.0
100
AcDbBlockBegin
  2
GENAXEH
 70
     0
 10
0.0
 20
0.0
 30
0.0
  3
GENAXEH
  1

  0
LINE
  5
249
330
247
100
AcDbEntity
  8
0
100
AcDbLine
 10
-1.0
 20
0.0
 30
0.0
 11
1.0
 21
0.0
 31
0.0
  0
ENDBLK
  5
24A
330
247
100
AcDbEntity
  8
0
 48
5.0
100
AcDbBlockEnd
  0
BLOCK
  5
1B1
330
1B0
100
AcDbEntity
  8
0
 48
5.0
100
AcDbBlockBegin
  2
*D2
 70
     1
 10
0.0
 20
0.0
 30
0.0
  3
*D2
  1

  0
LINE
  5
1B2
330
1B0
100
AcDbEntity
  8
标注线
 48
5.0
370
    -2
100
AcDbLine
 10
144976.9574304743
 20
-178253.5673944908
 30
0.0
 11
145011.4054489543
 21
-178253.5673944908
 31
0.0
  0
LINE
  5
1B3
330
1B0
100
AcDbEntity
  8
标注线
 48
5.0
370
    -2
100
AcDbLine
 10
145018.8804800697
 20
-178482.1253212464
 30
0.0
 11
145011.4054489543
 21
-178482.1253212464
 31
0.0
  0
LINE
  5
1B4
330
1B0
100
AcDbEntity
  8
标注线
 48
5.0
370
    -2
100
AcDbLine
 10
145003.4054489543
 20
-178267.5673944908
 30
0.0
 11
145003.4054489543
 21
-178321.1312033045
 31
0.0
  0
LINE
  5
1B5
330
1B0
100
AcDbEntity
  8
标注线
 48
5.0
370
    -2
100
AcDbLine
 10
145003.4054489543
 20
-178468.1253212464
 30
0.0
 11
145003.4054489543
 21
-178451.6200921934
 31
0.0
  0
SOLID
  5
1B6
330
1B0
100
AcDbEntity
  8
标注线
 48
5.0
100
AcDbTrace
 10
145001.0721156209
 20
-178267.5673944908
 30
0.0
 11
145005.7387822876
 21
-178267.5673944908
 31
0.0
 12
145003.4054489543
 22
-178253.5673944908
 32
0.0
 13
145003.4054489543
 23
-178253.5673944908
 33
0.0
  0
SOLID
  5
1B7
330
1B0
100
AcDbEntity
  8
标注线
 48
5.0
100
AcDbTrace
 10
145001.0721156209
 20
-178468.1253212464
 30
0.0
 11
145005.7387822876
 21
-178468.1253212464
 31
0.0
 12
145003.4054489543
 22
-178482.1253212464
 32
0.0
 13
145003.4054489543
 23
-178482.1253212464
 33
0.0
  0
MTEXT
  5
1B8
330
1B0
100
AcDbEntity
  8
标注线
 48
5.0
100
AcDbMText
 10
145003.4054489543
 20
-178386.3756477489
 30
0.0
 40
14.0
 41
0.0
 71
     5
 72
     1
  1
\A1;228,6mm [9"]
 11
0.0000000000000001
 21
1.0
 31
0.0
 73
     1
 44
1.0
1001
ACAD
1000
MTEXTBEGIN
1070
    73
1070
     1
1070
    44
1040
1.0
1070
    74
1070
     0
1000
MTEXTEND
  0
POINT
  5
1B9
330
1B0
100
AcDbEntity
  8
Defpoints
 62
     0
 48
5.0
100
AcDbPoint
 10
144956.9574304742
 20
-178253.5673944908
 30
0.0
  0
POINT
  5
1BA
330
1B0
100
AcDbEntity
  8
Defpoints
 62
     0
 48
5.0
100
AcDbPoint
 10
144998.8804800697
 20
-178482.1253212464
 30
0.0
  0
POINT
  5
1BB
330
1B0
100
AcDbEntity
  8
Defpoints
 62
     0
 48
5.0
100
AcDbPoint
 10
145003.4054489543
 20
-178482.1253212464
 30
0.0
  0
ENDBLK
  5
1BC
330
1B0
100
AcDbEntity
  8
0
 48
5.0
100
AcDbBlockEnd
  0
BLOCK
  5
95
330
94
100
AcDbEntity
  8
0
 48
5.0
100
AcDbBlockBegin
  2
*D3
 70
     1
 10
0.0
 20
0.0
 30
0.0
  3
*D3
  1

  0
LINE
  5
96
330
94
100
AcDbEntity
  8
标注线
 48
5.0
370
    -2
100
AcDbLine
 10
145683.1208091267
 20
-178253.5673944908
 30
0.0
 11
145648.6727906466
 21
-178253.5673944908
 31
0.0
  0
LINE
  5
97
330
94
100
AcDbEntity
  8
标注线
 48
5.0
370
    -2
100
AcDbLine
 10
145641.1977595312
 20
-178482.1253212464
 30
0.0
 11
145648.6727906466
 21
-178482.1253212464
 31
0.0
  0
LINE
  5
98
330
94
100
AcDbEntity
  8
标注线
 48
5.0
370
    -2
100
AcDbLine
 10
145656.6727906466
 20
-178267.5673944908
 30
0.0
 11
145656.6727906466
 21
-178321.1312033045
 31
0.0
  0
LINE
  5
99
330
94
100
AcDbEntity
  8
标注线
 48
5.0
370
    -2
100
AcDbLine
 10
145656.6727906466
 20
-178468.1253212464
 30
0.0
 11
145656.6727906466
 21
-178451.6200921934
 31
0.0
  0
SOLID
  5
9A
330
94
100
AcDbEntity
  8
标注线
 48
5.0
100
AcDbTrace
 10
145654.3394573132
 20
-178267.5673944908
 30
0.0
 11
145659.0061239799
 21
-178267.5673944908
 31
0.0
 12
145656.6727906466
 22
-178253.5673944908
 32
0.0
 13
145656.6727906466
 23
-178253.5673944908
 33
0.0
  0
SOLID
  5
9B
330
94
100
AcDbEntity
  8
标注线
 48
5.0
100
AcDbTrace
 10
145654.3394573132
 20
-178468.1253212464
 30
0.0
 11
145659.0061239799
 21
-178468.1253212464
 31
0.0
 12
145656.6727906466
 22
-178482.1253212464
 32
0.0
 13
145656.6727906466
 23
-178482.1253212464
 33
0.0
  0
MTEXT
  5
9C
330
94
100
AcDbEntity
  8
标注线
 48
5.0
100
AcDbMText
 10
145656.6727906466
 20
-178386.3756477489
 30
0.0
 40
14.0
 41
0.0
 71
     5
 72
     1
  1
\A1;228,6mm [9"]
 11
0.0000000000000001
 21
1.0
 31
0.0
 73
     1
 44
1.0
1001
ACAD
1000
MTEXTBEGIN
1070
    73
1070
     1
1070
    44
1040
1.0
1070
    74
1070
     0
1000
MTEXTEND
  0
POINT
  5
9D
330
94
100
AcDbEntity
  8
Defpoints
 62
     0
 48
5.0
100
AcDbPoint
 10
145703.1208091267
 20
-178253.5673944908
 30
0.0
  0
POINT
  5
9F
330
94
100
AcDbEntity
  8
Defpoints
 62
     0
 48
5.0
100
AcDbPoint
 10
145661.1977595312
 20
-178482.1253212464
 30
0.0
  0
POINT
  5
A0
330
94
100
AcDbEntity
  8
Defpoints
 62
     0
 48
5.0
100
AcDbPoint
 10
145656.6727906466
 20
-178482.1253212464
 30
0.0
  0
ENDBLK
  5
A1
330
94
100
AcDbEntity
  8
0
 48
5.0
100
AcDbBlockEnd
  0
BLOCK
  5
BE
330
BD
100
AcDbEntity
  8
0
 48
5.0
100
AcDbBlockBegin
  2
*D4
 70
     1
 10
0.0
 20
0.0
 30
0.0
  3
*D4
  1

  0
LINE
  5
BF
330
BD
100
AcDbEntity
  8
标注线
 48
5.0
370
    -2
100
AcDbLine
 10
144910.9391198004
 20
-179062.9605950739
 30
0.0
 11
144910.9391198004
 21
-179146.775616933
 31
0.0
  0
LINE
  5
C0
330
BD
100
AcDbEntity
  8
标注线
 48
5.0
370
    -2
100
AcDbLine
 10
145749.1391198004
 20
-179062.9605950739
 30
0.0
 11
145749.1391198004
 21
-179146.775616933
 31
0.0
  0
LINE
  5
C1
330
BD
100
AcDbEntity
  8
标注线
 48
5.0
370
    -2
100
AcDbLine
 10
144924.9391198004
 20
-179138.775616933
 30
0.0
 11
145250.2391198007
 21
-179138.775616933
 31
0.0
  0
LINE
  5
C2
330
BD
100
AcDbEntity
  8
标注线
 48
5.0
370
    -2
100
AcDbLine
 10
145735.1391198004
 20
-179138.775616933
 30
0.0
 11
145390.8391198006
 21
-179138.775616933
 31
0.0
  0
SOLID
  5
C3
330
BD
100
AcDbEntity
  8
标注线
 48
5.0
100
AcDbTrace
 10
144924.9391198004
 20
-179136.4422835997
 30
0.0
 11
144924.9391198004
 21
-179141.1089502664
 31
0.0
 12
144910.9391198004
 22
-179138.775616933
 32
0.0
 13
144910.9391198004
 23
-179138.775616933
 33
0.0
  0
SOLID
  5
C4
330
BD
100
AcDbEntity
  8
标注线
 48
5.0
100
AcDbTrace
 10
145735.1391198004
 20
-179136.4422835997
 30
0.0
 11
145735.1391198004
 21
-179141.1089502664
 31
0.0
 12
145749.1391198004
 22
-179138.775616933
 32
0.0
 13
145749.1391198004
 23
-179138.775616933
 33
0.0
  0
MTEXT
  5
C5
330
BD
100
AcDbEntity
  8
标注线
 48
5.0
100
AcDbMText
 10
145320.5391198007
 20
-179138.775616933
 30
0.0
 40
14.0
 41
0.0
 71
     5
 72
     1
  1
\A1;838,2mm [33"]
 73
     1
 44
1.0
1001
ACAD
1000
MTEXTBEGIN
1070
    73
1070
     1
1070
    44
1040
1.0
1070
    74
1070
     0
1000
MTEXTEND
  0
POINT
  5
C6
330
BD
100
AcDbEntity
  8
Defpoints
 62
     0
 48
5.0
100
AcDbPoint
 10
144910.9391198004
 20
-179042.9605950739
 30
0.0
  0
POINT
  5
C7
330
BD
100
AcDbEntity
  8
Defpoints
 62
     0
 48
5.0
100
AcDbPoint
 10
145749.1391198004
 20
-179042.9605950739
 30
0.0
  0
POINT
  5
C8
330
BD
100
AcDbEntity
  8
Defpoints
 62
     0
 48
5.0
100
AcDbPoint
 10
145749.1391198004
 20
-179138.775616933
 30
0.0
  0
ENDBLK
  5
C9
330
BD
100
AcDbEntity
  8
0
 48
5.0
100
AcDbBlockEnd
  0
BLOCK
  5
CD
330
CC
100
AcDbEntity
  8
0
 48
5.0
100
AcDbBlockBegin
  2
*D5
 70
     1
 10
0.0
 20
0.0
 30
0.0
  3
*D5
  1

  0
LINE
  5
CE
330
CC
100
AcDbEntity
  8
标注线
 48
5.0
370
    -2
100
AcDbLine
 10
145745.4391198005
 20
-178558.6605950738
 30
0.0
 11
145836.4411632219
 21
-178558.6605950738
 31
0.0
  0
LINE
  5
CF
330
CC
100
AcDbEntity
  8
标注线
 48
5.0
370
    -2
100
AcDbLine
 10
145745.4391198005
 20
-179066.6605950739
 30
0.0
 11
145836.4411632219
 21
-179066.6605950739
 31
0.0
  0
LINE
  5
D0
330
CC
100
AcDbEntity
  8
标注线
 48
5.0
370
    -2
100
AcDbLine
 10
145828.4411632219
 20
-178572.6605950739
 30
0.0
 11
145828.4411632219
 21
-178739.771706185
 31
0.0
  0
LINE
  5
D1
330
CC
100
AcDbEntity
  8
标注线
 48
5.0
370
    -2
100
AcDbLine
 10
145828.4411632219
 20
-179052.6605950739
 30
0.0
 11
145828.4411632219
 21
-178860.1494839628
 31
0.0
  0
SOLID
  5
D2
330
CC
100
AcDbEntity
  8
标注线
 48
5.0
100
AcDbTrace
 10
145826.1078298886
 20
-178572.6605950739
 30
0.0
 11
145830.7744965552
 21
-178572.6605950739
 31
0.0
 12
145828.4411632219
 22
-178558.6605950738
 32
0.0
 13
145828.4411632219
 23
-178558.6605950738
 33
0.0
  0
SOLID
  5
D3
330
CC
100
AcDbEntity
  8
标注线
 48
5.0
100
AcDbTrace
 10
145826.1078298886
 20
-179052.6605950739
 30
0.0
 11
145830.7744965552
 21
-179052.6605950739
 31
0.0
 12
145828.4411632219
 22
-179066.6605950739
 32
0.0
 13
145828.4411632219
 23
-179066.6605950739
 33
0.0
  0
MTEXT
  5
D4
330
CC
100
AcDbEntity
  8
标注线
 48
5.0
100
AcDbMText
 10
145828.4411632219
 20
-178799.9605950739
 30
0.0
 40
14.0
 41
0.0
 71
     5
 72
     1
  1
\A1;508mm [20"]
 11
0.0000000000000001
 21
1.0
 31
0.0
 73
     1
 44
1.0
1001
ACAD
1000
MTEXTBEGIN
1070
    73
1070
     1
1070
    44
1040
1.0
1070
    74
1070
     0
1000
MTEXTEND
  0
POINT
  5
D5
330
CC
100
AcDbEntity
  8
Defpoints
 62
     0
 48
5.0
100
AcDbPoint
 10
145725.4391198005
 20
-178558.6605950738
 30
0.0
  0
POINT
  5
D6
330
CC
100
AcDbEntity
  8
Defpoints
 62
     0
 48
5.0
100
AcDbPoint
 10
145725.4391198005
 20
-179066.6605950739
 30
0.0
  0
POINT
  5
D7
330
CC
100
AcDbEntity
  8
Defpoints
 62
     0
 48
5.0
100
AcDbPoint
 10
145828.4411632219
 20
-179066.6605950739
 30
0.0
  0
ENDBLK
  5
D8
330
CC
100
AcDbEntity
  8
0
 48
5.0
100
AcDbBlockEnd
  0
BLOCK
  5
DB
330
DA
100
AcDbEntity
  8
0
 48
5.0
100
AcDbBlockBegin
  2
*D6
 70
     1
 10
0.0
 20
0.0
 30
0.0
  3
*D6
  1

  0
LINE
  5
DC
330
DA
100
AcDbEntity
  8
标注线
 48
5.0
370
    -2
100
AcDbLine
 10
145728.7391198005
 20
-178584.0605950739
 30
0.0
 11
145811.0261159563
 21
-178584.0605950739
 31
0.0
  0
LINE
  5
DD
330
DA
100
AcDbEntity
  8
标注线
 48
5.0
370
    -2
100
AcDbLine
 10
145728.7391198005
 20
-179041.2605950739
 30
0.0
 11
145811.0261159563
 21
-179041.2605950739
 31
0.0
  0
LINE
  5
DE
330
DA
100
AcDbEntity
  8
标注线
 48
5.0
370
    -2
100
AcDbLine
 10
145803.0261159563
 20
-178598.0605950739
 30
0.0
 11
145803.0261159563
 21
-178731.2284743928
 31
0.0
  0
LINE
  5
DF
330
DA
100
AcDbEntity
  8
标注线
 48
5.0
370
    -2
100
AcDbLine
 10
145803.0261159563
 20
-179027.2605950739
 30
0.0
 11
145803.0261159563
 21
-178871.9840299484
 31
0.0
  0
SOLID
  5
E0
330
DA
100
AcDbEntity
  8
标注线
 48
5.0
100
AcDbTrace
 10
145800.692782623
 20
-178598.0605950739
 30
0.0
 11
145805.3594492896
 21
-178598.0605950739
 31
0.0
 12
145803.0261159563
 22
-178584.0605950739
 32
0.0
 13
145803.0261159563
 23
-178584.0605950739
 33
0.0
  0
SOLID
  5
E1
330
DA
100
AcDbEntity
  8
标注线
 48
5.0
100
AcDbTrace
 10
145800.692782623
 20
-179027.2605950739
 30
0.0
 11
145805.3594492896
 21
-179027.2605950739
 31
0.0
 12
145803.0261159563
 22
-179041.2605950739
 32
0.0
 13
145803.0261159563
 23
-179041.2605950739
 33
0.0
  0
MTEXT
  5
E2
330
DA
100
AcDbEntity
  8
标注线
 48
5.0
100
AcDbMText
 10
145803.0261159563
 20
-178801.6062521706
 30
0.0
 40
14.0
 41
0.0
 71
     5
 72
     1
  1
\A1;457,2mm [18"]
 11
0.0000000000000001
 21
1.0
 31
0.0
 73
     1
 44
1.0
1001
ACAD
1000
MTEXTBEGIN
1070
    73
1070
     1
1070
    44
1040
1.0
1070
    74
1070
     0
1000
MTEXTEND
  0
POINT
  5
E3
330
DA
100
AcDbEntity
  8
Defpoints
 62
     0
 48
5.0
100
AcDbPoint
 10
145708.7391198005
 20
-178584.0605950739
 30
0.0
  0
POINT
  5
E4
330
DA
100
AcDbEntity
  8
Defpoints
 62
     0
 48
5.0
100
AcDbPoint
 10
145708.7391198005
 20
-179041.2605950739
 30
0.0
  0
POINT
  5
E5
330
DA
100
AcDbEntity
  8
Defpoints
 62
     0
 48
5.0
100
AcDbPoint
 10
145803.0261159563
 20
-179041.2605950739
 30
0.0
  0
ENDBLK
  5
E6
330
DA
100
AcDbEntity
  8
0
 48
5.0
100
AcDbBlockEnd
  0
BLOCK
  5
10F
330
10E
100
AcDbEntity
  8
0
 48
5.0
100
AcDbBlockBegin
  2
*D7
 70
     1
 10
0.0
 20
0.0
 30
0.0
  3
*D7
  1

  0
LINE
  5
110
330
10E
100
AcDbEntity
  8
标注线
 48
5.0
370
    -2
100
AcDbLine
 10
145723.7391198004
 20
-179046.2605950739
 30
0.0
 11
145723.7391198004
 21
-179128.7697051674
 31
0.0
  0
LINE
  5
111
330
10E
100
AcDbEntity
  8
标注线
 48
5.0
370
    -2
100
AcDbLine
 10
145749.1391198004
 20
-179062.9605950739
 30
0.0
 11
145749.1391198004
 21
-179128.7697051674
 31
0.0
  0
LINE
  5
112
330
10E
100
AcDbEntity
  8
标注线
 48
5.0
370
    -2
100
AcDbLine
 10
145763.1391198004
 20
-179120.7697051674
 30
0.0
 11
145777.1391198004
 21
-179120.7697051674
 31
0.0
  0
LINE
  5
113
330
10E
100
AcDbEntity
  8
标注线
 48
5.0
370
    -2
100
AcDbLine
 10
145709.7391198005
 20
-179120.7697051674
 30
0.0
 11
145695.7391198005
 21
-179120.7697051674
 31
0.0
  0
LINE
  5
114
330
10E
100
AcDbEntity
  8
标注线
 48
5.0
370
    -2
100
AcDbLine
 10
145749.1391198004
 20
-179120.7697051674
 30
0.0
 11
145723.7391198004
 21
-179120.7697051674
 31
0.0
  0
SOLID
  5
115
330
10E
100
AcDbEntity
  8
标注线
 48
5.0
100
AcDbTrace
 10
145763.1391198004
 20
-179118.4363718341
 30
0.0
 11
145763.1391198004
 21
-179123.1030385008
 31
0.0
 12
145749.1391198004
 22
-179120.7697051674
 32
0.0
 13
145749.1391198004
 23
-179120.7697051674
 33
0.0
  0
SOLID
  5
116
330
10E
100
AcDbEntity
  8
标注线
 48
5.0
100
AcDbTrace
 10
145709.7391198005
 20
-179118.4363718341
 30
0.0
 11
145709.7391198005
 21
-179123.1030385008
 31
0.0
 12
145723.7391198004
 22
-179120.7697051674
 32
0.0
 13
145723.7391198004
 23
-179120.7697051674
 33
0.0
  0
MTEXT
  5
117
330
10E
100
AcDbEntity
  8
标注线
 48
5.0
100
AcDbMText
 10
145635.4724531338
 20
-179120.7697051674
 30
0.0
 40
14.0
 41
0.0
 71
     5
 72
     1
  1
\A1;25,4mm [1"]
 73
     1
 44
1.0
1001
ACAD
1000
MTEXTBEGIN
1070
    73
1070
     1
1070
    44
1040
1.0
1070
    74
1070
     0
1000
MTEXTEND
  0
POINT
  5
118
330
10E
100
AcDbEntity
  8
Defpoints
 62
     0
 48
5.0
100
AcDbPoint
 10
145723.7391198004
 20
-179026.2605950739
 30
0.0
  0
POINT
  5
119
330
10E
100
AcDbEntity
  8
Defpoints
 62
     0
 48
5.0
100
AcDbPoint
 10
145749.1391198004
 20
-179042.9605950739
 30
0.0
  0
POINT
  5
11A
330
10E
100
AcDbEntity
  8
Defpoints
 62
     0
 48
5.0
100
AcDbPoint
 10
145749.1391198004
 20
-179120.7697051674
 30
0.0
  0
ENDBLK
  5
11B
330
10E
100
AcDbEntity
  8
0
 48
5.0
100
AcDbBlockEnd
  0
BLOCK
  5
11E
330
11D
100
AcDbEntity
  8
0
 48
5.0
100
AcDbBlockBegin
  2
*D8
 70
     1
 10
0.0
 20
0.0
 30
0.0
  3
*D8
  1

  0
LINE
  5
11F
330
11D
100
AcDbEntity
  8
标注线
 48
5.0
370
    -2
100
AcDbLine
 10
145728.7391198005
 20
-178584.0605950739
 30
0.0
 11
145789.4928574369
 21
-178584.0605950739
 31
0.0
  0
LINE
  5
120
330
11D
100
AcDbEntity
  8
标注线
 48
5.0
370
    -2
100
AcDbLine
 10
145745.4391198005
 20
-178558.6605950738
 30
0.0
 11
145789.4928574369
 21
-178558.6605950738
 31
0.0
  0
LINE
  5
121
330
11D
100
AcDbEntity
  8
标注线
 48
5.0
370
    -2
100
AcDbLine
 10
145781.4928574369
 20
-178544.6605950738
 30
0.0
 11
145781.4928574369
 21
-178530.6605950738
 31
0.0
  0
LINE
  5
122
330
11D
100
AcDbEntity
  8
标注线
 48
5.0
370
    -2
100
AcDbLine
 10
145781.4928574369
 20
-178598.0605950739
 30
0.0
 11
145781.4928574369
 21
-178612.0605950739
 31
0.0
  0
LINE
  5
123
330
11D
100
AcDbEntity
  8
标注线
 48
5.0
370
    -2
100
AcDbLine
 10
145781.4928574369
 20
-178558.6605950738
 30
0.0
 11
145781.4928574369
 21
-178584.0605950739
 31
0.0
  0
SOLID
  5
124
330
11D
100
AcDbEntity
  8
标注线
 48
5.0
100
AcDbTrace
 10
145779.1595241035
 20
-178544.6605950738
 30
0.0
 11
145783.8261907702
 21
-178544.6605950738
 31
0.0
 12
145781.4928574369
 22
-178558.6605950738
 32
0.0
 13
145781.4928574369
 23
-178558.6605950738
 33
0.0
  0
SOLID
  5
125
330
11D
100
AcDbEntity
  8
标注线
 48
5.0
100
AcDbTrace
 10
145779.1595241035
 20
-178598.0605950739
 30
0.0
 11
145783.8261907702
 21
-178598.0605950739
 31
0.0
 12
145781.4928574369
 22
-178584.0605950739
 32
0.0
 13
145781.4928574369
 23
-178584.0605950739
 33
0.0
  0
MTEXT
  5
126
330
11D
100
AcDbEntity
  8
标注线
 48
5.0
100
AcDbMText
 10
145781.4928574369
 20
-178672.3272617406
 30
0.0
 40
14.0
 41
0.0
 71
     5
 72
     1
  1
\A1;25,4mm [1"]
 11
0.0000000000000001
 21
1.0
 31
0.0
 73
     1
 44
1.0
1001
ACAD
1000
MTEXTBEGIN
1070
    73
1070
     1
1070
    44
1040
1.0
1070
    74
1070
     0
1000
MTEXTEND
  0
POINT
  5
127
330
11D
100
AcDbEntity
  8
Defpoints
 62
     0
 48
5.0
100
AcDbPoint
 10
145708.7391198005
 20
-178584.0605950739
 30
0.0
  0
POINT
  5
128
330
11D
100
AcDbEntity
  8
Defpoints
 62
     0
 48
5.0
100
AcDbPoint
 10
145725.4391198005
 20
-178558.6605950738
 30
0.0
  0
POINT
  5
129
330
11D
100
AcDbEntity
  8
Defpoints
 62
     0
 48
5.0
100
AcDbPoint
 10
145781.4928574369
 20
-178558.6605950738
 30
0.0
  0
ENDBLK
  5
12A
330
11D
100
AcDbEntity
  8
0
 48
5.0
100
AcDbBlockEnd
  0
BLOCK
  5
13B
330
13A
100
AcDbEntity
  8
0
 48
5.0
100
AcDbBlockBegin
  2
*D9
 70
     1
 10
0.0
 20
0.0
 30
0.0
  3
*D9
  1

  0
LINE
  5
13C
330
13A
100
AcDbEntity
  8
标注线
 48
5.0
370
    -2
100
AcDbLine
 10
144936.3391198004
 20
-179046.2605950739
 30
0.0
 11
144936.3391198004
 21
-179099.1828004289
 31
0.0
  0
LINE
  5
13D
330
13A
100
AcDbEntity
  8
标注线
 48
5.0
370
    -2
100
AcDbLine
 10
145368.1391198005
 20
-179046.2605950739
 30
0.0
 11
145368.1391198005
 21
-179099.1828004289
 31
0.0
  0
LINE
  5
13E
330
13A
100
AcDbEntity
  8
标注线
 48
5.0
370
    -2
100
AcDbLine
 10
144950.3391198004
 20
-179091.1828004289
 30
0.0
 11
145081.8613420226
 21
-179091.1828004289
 31
0.0
  0
LINE
  5
13F
330
13A
100
AcDbEntity
  8
标注线
 48
5.0
370
    -2
100
AcDbLine
 10
145354.1391198005
 20
-179091.1828004289
 30
0.0
 11
145222.6168975782
 21
-179091.1828004289
 31
0.0
  0
SOLID
  5
140
330
13A
100
AcDbEntity
  8
标注线
 48
5.0
100
AcDbTrace
 10
144950.3391198004
 20
-179088.8494670956
 30
0.0
 11
144950.3391198004
 21
-179093.5161337623
 31
0.0
 12
144936.3391198004
 22
-179091.1828004289
 32
0.0
 13
144936.3391198004
 23
-179091.1828004289
 33
0.0
  0
SOLID
  5
141
330
13A
100
AcDbEntity
  8
标注线
 48
5.0
100
AcDbTrace
 10
145354.1391198005
 20
-179088.8494670956
 30
0.0
 11
145354.1391198005
 21
-179093.5161337623
 31
0.0
 12
145368.1391198005
 22
-179091.1828004289
 32
0.0
 13
145368.1391198005
 23
-179091.1828004289
 33
0.0
  0
MTEXT
  5
142
330
13A
100
AcDbEntity
  8
标注线
 48
5.0
100
AcDbMText
 10
145152.2391198004
 20
-179091.1828004289
 30
0.0
 40
14.0
 41
0.0
 71
     5
 72
     1
  1
\A1;431,8mm [17"]
 73
     1
 44
1.0
1001
ACAD
1000
MTEXTBEGIN
1070
    73
1070
     1
1070
    44
1040
1.0
1070
    74
1070
     0
1000
MTEXTEND
  0
POINT
  5
143
330
13A
100
AcDbEntity
  8
Defpoints
 62
     0
 48
5.0
100
AcDbPoint
 10
144936.3391198004
 20
-179026.2605950739
 30
0.0
  0
POINT
  5
144
330
13A
100
AcDbEntity
  8
Defpoints
 62
     0
 48
5.0
100
AcDbPoint
 10
145368.1391198005
 20
-179026.2605950739
 30
0.0
  0
POINT
  5
145
330
13A
100
AcDbEntity
  8
Defpoints
 62
     0
 48
5.0
100
AcDbPoint
 10
145368.1391198005
 20
-179091.1828004289
 30
0.0
  0
ENDBLK
  5
146
330
13A
100
AcDbEntity
  8
0
 48
5.0
100
AcDbBlockEnd
  0
BLOCK
  5
149
330
148
100
AcDbEntity
  8
0
 48
5.0
100
AcDbBlockBegin
  2
*D10
 70
     1
 10
0.0
 20
0.0
 30
0.0
  3
*D10
  1

  0
LINE
  5
14A
330
148
100
AcDbEntity
  8
标注线
 48
5.0
370
    -2
100
AcDbLine
 10
145393.5391198004
 20
-179046.2605950739
 30
0.0
 11
145393.5391198004
 21
-179099.546762006
 31
0.0
  0
LINE
  5
14B
330
148
100
AcDbEntity
  8
标注线
 48
5.0
370
    -2
100
AcDbLine
 10
145723.7391198004
 20
-179046.2605950739
 30
0.0
 11
145723.7391198004
 21
-179099.546762006
 31
0.0
  0
LINE
  5
14C
330
148
100
AcDbEntity
  8
标注线
 48
5.0
370
    -2
100
AcDbLine
 10
145407.5391198004
 20
-179091.546762006
 30
0.0
 11
145488.494675356
 21
-179091.546762006
 31
0.0
  0
LINE
  5
14D
330
148
100
AcDbEntity
  8
标注线
 48
5.0
370
    -2
100
AcDbLine
 10
145709.7391198005
 20
-179091.546762006
 30
0.0
 11
145628.7835642449
 21
-179091.546762006
 31
0.0
  0
SOLID
  5
14E
330
148
100
AcDbEntity
  8
标注线
 48
5.0
100
AcDbTrace
 10
145407.5391198004
 20
-179089.2134286727
 30
0.0
 11
145407.5391198004
 21
-179093.8800953394
 31
0.0
 12
145393.5391198004
 22
-179091.546762006
 32
0.0
 13
145393.5391198004
 23
-179091.546762006
 33
0.0
  0
SOLID
  5
14F
330
148
100
AcDbEntity
  8
标注线
 48
5.0
100
AcDbTrace
 10
145709.7391198005
 20
-179089.2134286727
 30
0.0
 11
145709.7391198005
 21
-179093.8800953394
 31
0.0
 12
145723.7391198004
 22
-179091.546762006
 32
0.0
 13
145723.7391198004
 23
-179091.546762006
 33
0.0
  0
MTEXT
  5
150
330
148
100
AcDbEntity
  8
标注线
 48
5.0
100
AcDbMText
 10
145558.6391198005
 20
-179091.546762006
 30
0.0
 40
14.0
 41
0.0
 71
     5
 72
     1
  1
\A1;330,2mm [13"]
 73
     1
 44
1.0
1001
ACAD
1000
MTEXTBEGIN
1070
    73
1070
     1
1070
    44
1040
1.0
1070
    74
1070
     0
1000
MTEXTEND
  0
POINT
  5
151
330
148
100
AcDbEntity
  8
Defpoints
 62
     0
 48
5.0
100
AcDbPoint
 10
145393.5391198004
 20
-179026.2605950739
 30
0.0
  0
POINT
  5
152
330
148
100
AcDbEntity
  8
Defpoints
 62
     0
 48
5.0
100
AcDbPoint
 10
145723.7391198004
 20
-179026.2605950739
 30
0.0
  0
POINT
  5
153
330
148
100
AcDbEntity
  8
Defpoints
 62
     0
 48
5.0
100
AcDbPoint
 10
145723.7391198004
 20
-179091.546762006
 30
0.0
  0
ENDBLK
  5
154
330
148
100
AcDbEntity
  8
0
 48
5.0
100
AcDbBlockEnd
  0
BLOCK
  5
161
330
160
100
AcDbEntity
  8
0
 48
5.0
100
AcDbBlockBegin
  2
*D11
 70
     1
 10
0.0
 20
0.0
 30
0.0
  3
*D11
  1

  0
LINE
  5
162
330
160
100
AcDbEntity
  8
标注线
 48
5.0
370
    -2
100
AcDbLine
 10
145647.0190582312
 20
-178699.0605950739
 30
0.0
 11
145693.3195552123
 21
-178699.0605950739
 31
0.0
  0
LINE
  5
163
330
160
100
AcDbEntity
  8
标注线
 48
5.0
370
    -2
100
AcDbLine
 10
145616.4615014263
 20
-178584.0605950739
 30
0.0
 11
145693.3195552123
 21
-178584.0605950739
 31
0.0
  0
LINE
  5
164
330
160
100
AcDbEntity
  8
标注线
 48
5.0
370
    -2
100
AcDbLine
 10
145685.3195552123
 20
-178598.0605950739
 30
0.0
 11
145685.3195552123
 21
-178685.0605950739
 31
0.0
  0
LINE
  5
165
330
160
100
AcDbEntity
  8
标注线
 48
5.0
370
    -2
100
AcDbLine
 10
145685.3195552123
 20
-178699.0605950739
 30
0.0
 11
145685.3195552123
 21
-178713.0605950739
 31
0.0
  0
SOLID
  5
166
330
160
100
AcDbEntity
  8
标注线
 48
5.0
100
AcDbTrace
 10
145682.986221879
 20
-178598.0605950739
 30
0.0
 11
145687.6528885457
 21
-178598.0605950739
 31
0.0
 12
145685.3195552123
 22
-178584.0605950739
 32
0.0
 13
145685.3195552123
 23
-178584.0605950739
 33
0.0
  0
SOLID
  5
167
330
160
100
AcDbEntity
  8
标注线
 48
5.0
100
AcDbTrace
 10
145682.986221879
 20
-178685.0605950739
 30
0.0
 11
145687.6528885457
 21
-178685.0605950739
 31
0.0
 12
145685.3195552123
 22
-178699.0605950739
 32
0.0
 13
145685.3195552123
 23
-178699.0605950739
 33
0.0
  0
MTEXT
  5
168
330
160
100
AcDbEntity
  8
标注线
 48
5.0
100
AcDbMText
 10
145685.3195552124
 20
-178787.6383728517
 30
0.0
 40
14.0
 41
0.0
 71
     5
 72
     1
  1
\A1;115mm [4 1/2"]
 11
0.0000000000000001
 21
1.0
 31
0.0
 73
     1
 44
1.0
1001
ACAD
1000
MTEXTBEGIN
1070
    73
1070
     1
1070
    44
1040
1.0
1070
    74
1070
     0
1000
MTEXTEND
  0
POINT
  5
169
330
160
100
AcDbEntity
  8
Defpoints
 62
     0
 48
5.0
100
AcDbPoint
 10
145627.0190582312
 20
-178699.0605950739
 30
0.0
  0
POINT
  5
16A
330
160
100
AcDbEntity
  8
Defpoints
 62
     0
 48
5.0
100
AcDbPoint
 10
145596.4615014263
 20
-178584.0605950739
 30
0.0
  0
POINT
  5
16B
330
160
100
AcDbEntity
  8
Defpoints
 62
     0
 48
5.0
100
AcDbPoint
 10
145685.3195552123
 20
-178584.0605950739
 30
0.0
  0
ENDBLK
  5
16C
330
160
100
AcDbEntity
  8
0
 48
5.0
100
AcDbBlockEnd
  0
BLOCK
  5
172
330
171
100
AcDbEntity
  8
0
 48
5.0
100
AcDbBlockBegin
  2
*D12
 70
     1
 10
0.0
 20
0.0
 30
0.0
  3
*D12
  1

  0
LINE
  5
173
330
171
100
AcDbEntity
  8
标注线
 48
5.0
370
    -2
100
AcDbLine
 10
145494.6498771374
 20
-178756.4932683177
 30
0.0
 11
145505.0703741147
 21
-178747.1437633711
 31
0.0
  0
LINE
  5
174
330
171
100
AcDbEntity
  8
标注线
 48
5.0
370
    -2
100
AcDbLine
 10
145612.252628738
 20
-178650.9774267772
 30
0.0
 11
145622.6731257152
 21
-178641.6279218306
 31
0.0
  0
MTEXT
  5
175
102
{ACAD_XDICTIONARY
360
29A
102
}
330
171
100
AcDbEntity
  8
标注线
 48
5.0
100
AcDbMText
 10
145430.8701013879
 20
-178813.7179218219
 30
0.0
 40
14.0
 41
0.0
 71
     5
 72
     1
  1
\A1;\U+2205116mm [\U+22054 5/8"]
 11
0.7443212126613711
 21
0.6678217819016583
 31
0.0
 73
     1
 44
1.0
1001
ACAD
1000
MTEXTBEGIN
1070
    73
1070
     1
1070
    44
1040
1.0
1070
    74
1070
     0
1000
MTEXTEND
  0
LINE
  5
176
330
171
100
AcDbEntity
  8
标注线
 48
5.0
370
    -2
100
AcDbLine
 10
145601.8321317607
 20
-178660.3269317238
 30
0.0
 11
145515.4908710919
 21
-178737.7942584245
 31
0.0
  0
SOLID
  5
177
330
171
100
AcDbEntity
  8
标注线
 48
5.0
100
AcDbTrace
 10
145610.6943779135
 20
-178649.240677281
 30
0.0
 11
145613.8108795624
 21
-178652.7141762734
 31
0.0
 12
145601.8321317607
 22
-178660.3269317238
 32
0.0
 13
145601.8321317607
 23
-178660.3269317238
 33
0.0
  0
SOLID
  5
178
330
171
100
AcDbEntity
  8
标注线
 48
5.0
100
AcDbTrace
 10
145503.5121232902
 20
-178745.4070138749
 30
0.0
 11
145506.6286249391
 21
-178748.8805128673
 31
0.0
 12
145515.4908710919
 22
-178737.7942584245
 32
0.0
 13
145515.4908710919
 23
-178737.7942584245
 33
0.0
  0
POINT
  5
179
330
171
100
AcDbEntity
  8
Defpoints
 62
     0
 48
5.0
100
AcDbPoint
 10
145515.4908710919
 20
-178737.7942584245
 30
0.0
  0
POINT
  5
17A
330
171
100
AcDbEntity
  8
Defpoints
 62
     0
 48
5.0
100
AcDbPoint
 10
145601.8321317607
 20
-178660.3269317238
 30
0.0
  0
ENDBLK
  5
17B
330
171
100
AcDbEntity
  8
0
 48
5.0
100
AcDbBlockEnd
  0
BLOCK
  5
1C1
330
1C0
100
AcDbEntity
  8
0
 48
5.0
100
AcDbBlockBegin
  2
*D13
 70
     1
 10
0.0
 20
0.0
 30
0.0
  3
*D13
  1

  0
LINE
  5
1C2
330
1C0
100
AcDbEntity
  8
标注线
 48
5.0
370
    -2
100
AcDbLine
 10
145415.4867351907
 20
-179017.7975164332
 30
0.0
 11
145406.1941454427
 21
-179028.2687998204
 31
0.0
  0
MTEXT
  5
1C3
330
1C0
100
AcDbEntity
  8
标注线
 48
5.0
100
AcDbMText
 10
145468.8085001735
 20
-178957.7122950924
 30
0.0
 40
14.0
 41
0.0
 71
     5
 72
     1
  1
\A1;4-R10mm [R3/8"]
 11
0.6637564105731042
 21
0.7479488133710146
 31
0.0
 73
     1
 44
1.0
1001
ACAD
1000
MTEXTBEGIN
1070
    73
1070
     1
1070
    44
1040
1.0
1070
    74
1070
     0
1000
MTEXTEND
  0
SOLID
  5
1C4
330
1C0
100
AcDbEntity
  8
标注线
 48
5.0
100
AcDbTrace
 10
145404.4489315448
 20
-179026.7200348624
 30
0.0
 11
145407.9393593406
 21
-179029.8175647784
 31
0.0
 12
145396.9015556947
 22
-179038.7400832076
 32
0.0
 13
145396.9015556947
 23
-179038.7400832076
 33
0.0
  0
POINT
  5
1C5
330
1C0
100
AcDbEntity
  8
Defpoints
 62
     0
 48
5.0
100
AcDbPoint
 10
145396.9015556947
 20
-179038.7400832076
 30
0.0
  0
POINT
  5
1C6
330
1C0
100
AcDbEntity
  8
Defpoints
 62
     0
 48
5.0
100
AcDbPoint
 10
145403.5391198004
 20
-179031.2605950739
 30
0.0
  0
ENDBLK
  5
1C7
330
1C0
100
AcDbEntity
  8
0
 48
5.0
100
AcDbBlockEnd
  0
BLOCK
  5
1CD
330
1CC
100
AcDbEntity
  8
0
 48
5.0
100
AcDbBlockBegin
  2
*D14
 70
     1
 10
0.0
 20
0.0
 30
0.0
  3
*D14
  1

  0
LINE
  5
1CE
330
1CC
100
AcDbEntity
  8
标注线
 48
5.0
370
    -2
100
AcDbLine
 10
145417.2924799523
 20
-178459.494952243
 30
0.0
 11
145406.1635712521
 21
-178467.9889142834
 31
0.0
  0
MTEXT
  5
1CF
330
1CC
100
AcDbEntity
  8
标注线
 48
5.0
100
AcDbMText
 10
145473.2682409738
 20
-178416.7723455517
 30
0.0
 40
14.0
 41
0.0
 71
     5
 72
     1
  1
\A1;R10mm [R3/8"]
 11
0.7949220500100795
 21
0.6067115743149892
 31
0.0
 73
     1
 44
1.0
1001
ACAD
1000
MTEXTBEGIN
1070
    73
1070
     1
1070
    44
1040
1.0
1070
    74
1070
     0
1000
MTEXTEND
  0
SOLID
  5
1D0
330
1CC
100
AcDbEntity
  8
标注线
 48
5.0
100
AcDbTrace
 10
145404.747910912
 20
-178466.1340961667
 30
0.0
 11
145407.5792315922
 21
-178469.8437324001
 31
0.0
 12
145395.034662552
 22
-178476.4828763238
 32
0.0
 13
145395.034662552
 23
-178476.4828763238
 33
0.0
  0
POINT
  5
1D1
330
1CC
100
AcDbEntity
  8
Defpoints
 62
     0
 48
5.0
100
AcDbPoint
 10
145395.034662552
 20
-178476.4828763238
 30
0.0
  0
POINT
  5
1D2
330
1CC
100
AcDbEntity
  8
Defpoints
 62
     0
 48
5.0
100
AcDbPoint
 10
145402.9838830521
 20
-178470.4157605807
 30
0.0
  0
ENDBLK
  5
1D3
330
1CC
100
AcDbEntity
  8
0
 48
5.0
100
AcDbBlockEnd
  0
BLOCK
  5
1D8
330
1D7
100
AcDbEntity
  8
0
 48
5.0
100
AcDbBlockBegin
  2
*D15
 70
     1
 10
0.0
 20
0.0
 30
0.0
  3
*D15
  1

  0
LINE
  5
1D9
330
1D7
100
AcDbEntity
  8
标注线
 48
5.0
370
    -2
100
AcDbLine
 10
144959.9143667225
 20
-179019.4405836102
 30
0.0
 11
144949.3558413387
 21
-179028.6339258597
 31
0.0
  0
MTEXT
  5
1DA
330
1D7
100
AcDbEntity
  8
标注线
 48
5.0
100
AcDbMText
 10
145020.5001909493
 20
-178966.6883102258
 30
0.0
 40
14.0
 41
0.0
 71
     5
 72
     1
  1
\A1;4-R10mm [R3/8"]
 11
0.7541803845647923
 21
0.6566673035393968
 31
0.0
 73
     1
 44
1.0
1001
ACAD
1000
MTEXTBEGIN
1070
    73
1070
     1
1070
    44
1040
1.0
1070
    74
1070
     0
1000
MTEXTEND
  0
SOLID
  5
1DB
330
1D7
100
AcDbEntity
  8
标注线
 48
5.0
100
AcDbTrace
 10
144947.8236176304
 20
-179026.8741716291
 30
0.0
 11
144950.8880650469
 21
-179030.3936800904
 31
0.0
 12
144938.7973159548
 22
-179037.8272681093
 32
0.0
 13
144938.7973159548
 23
-179037.8272681093
 33
0.0
  0
POINT
  5
1DC
330
1D7
100
AcDbEntity
  8
Defpoints
 62
     0
 48
5.0
100
AcDbPoint
 10
144938.7973159548
 20
-179037.8272681093
 30
0.0
  0
POINT
  5
1DD
330
1D7
100
AcDbEntity
  8
Defpoints
 62
     0
 48
5.0
100
AcDbPoint
 10
144946.3391198004
 20
-179031.2605950738
 30
0.0
  0
ENDBLK
  5
1DE
330
1D7
100
AcDbEntity
  8
0
 48
5.0
100
AcDbBlockEnd
  0
BLOCK
  5
1E3
330
1E2
100
AcDbEntity
  8
0
 48
5.0
100
AcDbBlockBegin
  2
*D16
 70
     1
 10
0.0
 20
0.0
 30
0.0
  3
*D16
  1

  0
LINE
  5
1E4
330
1E2
100
AcDbEntity
  8
标注线
 48
5.0
370
    -2
100
AcDbLine
 10
145393.5391198005
 20
-178752.3515172359
 30
0.0
 11
145393.5391198005
 21
-178764.3515172359
 31
0.0
  0
LINE
  5
1E5
330
1E2
100
AcDbEntity
  8
标注线
 48
5.0
370
    -2
100
AcDbLine
 10
145368.1391198005
 20
-178752.3515172359
 30
0.0
 11
145368.1391198005
 21
-178764.3515172359
 31
0.0
  0
LINE
  5
1E6
330
1E2
100
AcDbEntity
  8
标注线
 48
5.0
370
    -2
100
AcDbLine
 10
145407.5391198005
 20
-178772.3515172359
 30
0.0
 11
145421.5391198005
 21
-178772.3515172359
 31
0.0
  0
LINE
  5
1E7
330
1E2
100
AcDbEntity
  8
标注线
 48
5.0
370
    -2
100
AcDbLine
 10
145354.1391198005
 20
-178772.3515172359
 30
0.0
 11
145340.1391198005
 21
-178772.3515172359
 31
0.0
  0
LINE
  5
1E8
330
1E2
100
AcDbEntity
  8
标注线
 48
5.0
370
    -2
100
AcDbLine
 10
145393.5391198005
 20
-178772.3515172359
 30
0.0
 11
145368.1391198005
 21
-178772.3515172359
 31
0.0
  0
SOLID
  5
1E9
330
1E2
100
AcDbEntity
  8
标注线
 48
5.0
100
AcDbTrace
 10
145407.5391198005
 20
-178770.0181839026
 30
0.0
 11
145407.5391198005
 21
-178774.6848505692
 31
0.0
 12
145393.5391198005
 22
-178772.3515172359
 32
0.0
 13
145393.5391198005
 23
-178772.3515172359
 33
0.0
  0
SOLID
  5
1EA
330
1E2
100
AcDbEntity
  8
标注线
 48
5.0
100
AcDbTrace
 10
145354.1391198005
 20
-178770.0181839026
 30
0.0
 11
145354.1391198005
 21
-178774.6848505692
 31
0.0
 12
145368.1391198005
 22
-178772.3515172359
 32
0.0
 13
145368.1391198005
 23
-178772.3515172359
 33
0.0
  0
MTEXT
  5
1EB
330
1E2
100
AcDbEntity
  8
标注线
 48
5.0
100
AcDbMText
 10
145279.8724531338
 20
-178772.3515172359
 30
0.0
 40
14.0
 41
0.0
 71
     5
 72
     1
  1
\A1;25,4mm [1"]
 73
     1
 44
1.0
1001
ACAD
1000
MTEXTBEGIN
1070
    73
1070
     1
1070
    44
1040
1.0
1070
    74
1070
     0
1000
MTEXTEND
  0
POINT
  5
1EC
330
1E2
100
AcDbEntity
  8
Defpoints
 62
     0
 48
5.0
100
AcDbPoint
 10
145393.5391198005
 20
-178772.3515172359
 30
0.0
  0
POINT
  5
1ED
330
1E2
100
AcDbEntity
  8
Defpoints
 62
     0
 48
5.0
100
AcDbPoint
 10
145368.1391198005
 20
-178772.3515172359
 30
0.0
  0
POINT
  5
1EE
330
1E2
100
AcDbEntity
  8
Defpoints
 62
     0
 48
5.0
100
AcDbPoint
 10
145368.1391198005
 20
-178772.3515172359
 30
0.0
  0
ENDBLK
  5
1EF
330
1E2
100
AcDbEntity
  8
0
 48
5.0
100
AcDbBlockEnd
  0
BLOCK
  5
1F4
330
1F3
100
AcDbEntity
  8
0
 48
5.0
100
AcDbBlockBegin
  2
*D17
 70
     1
 10
0.0
 20
0.0
 30
0.0
  3
*D17
  1

  0
LINE
  5
1F5
330
1F3
100
AcDbEntity
  8
标注线
 48
5.0
370
    -2
100
AcDbLine
 10
145345.136764071
 20
-178458.0295381086
 30
0.0
 11
145355.2497074163
 21
-178467.7108797974
 31
0.0
  0
MTEXT
  5
1F6
330
1F3
100
AcDbEntity
  8
标注线
 48
5.0
100
AcDbMText
 10
145294.2710668878
 20
-178409.3346944955
 30
0.0
 40
14.0
 41
0.0
 71
     5
 72
     1
  1
\A1;R10mm [R3/8"]
 11
0.7223530960924818
 21
-0.691524406341241
 31
0.0
 73
     1
 44
1.0
1001
ACAD
1000
MTEXTBEGIN
1070
    73
1070
     1
1070
    44
1040
1.0
1070
    74
1070
     0
1000
MTEXTEND
  0
SOLID
  5
1F7
330
1F3
100
AcDbEntity
  8
标注线
 48
5.0
100
AcDbTrace
 10
145356.8632643644
 20
-178466.0253892399
 30
0.0
 11
145353.6361504681
 21
-178469.396370355
 31
0.0
 12
145365.3626507616
 22
-178477.3922214862
 32
0.0
 13
145365.3626507616
 23
-178477.3922214862
 33
0.0
  0
POINT
  5
1F8
330
1F3
100
AcDbEntity
  8
Defpoints
 62
     0
 48
5.0
100
AcDbPoint
 10
145365.3626507616
 20
-178477.3922214862
 30
0.0
  0
POINT
  5
1F9
330
1F3
100
AcDbEntity
  8
Defpoints
 62
     0
 48
5.0
100
AcDbPoint
 10
145358.1391198005
 20
-178470.4769774226
 30
0.0
  0
ENDBLK
  5
1FA
330
1F3
100
AcDbEntity
  8
0
 48
5.0
100
AcDbBlockEnd
  0
BLOCK
  5
1FF
330
1FE
100
AcDbEntity
  8
0
 48
5.0
100
AcDbBlockBegin
  2
*D18
 70
     1
 10
0.0
 20
0.0
 30
0.0
  3
*D18
  1

  0
LINE
  5
200
330
1FE
100
AcDbEntity
  8
标注线
 48
5.0
370
    -2
100
AcDbLine
 10
145081.1241438776
 20
-178717.6323531894
 30
0.0
 11
145094.6698535772
 21
-178714.0948754531
 31
0.0
  0
LINE
  5
201
330
1FE
100
AcDbEntity
  8
标注线
 48
5.0
370
    -2
100
AcDbLine
 10
145209.8083860237
 20
-178684.0263146948
 30
0.0
 11
145223.3540957233
 21
-178680.4888369585
 31
0.0
  0
MTEXT
  5
202
102
{ACAD_XDICTIONARY
360
29E
102
}
330
1FE
100
AcDbEntity
  8
标注线
 48
5.0
100
AcDbMText
 10
145003.0324188997
 20
-178738.0260973802
 30
0.0
 40
14.0
 41
0.0
 71
     5
 72
     1
  1
\A1;\U+220591mm [\U+22053 5/8"]
 11
0.9675506928272985
 21
0.25267698116254
 31
0.0
 73
     1
 44
1.0
1001
ACAD
1000
MTEXTBEGIN
1070
    73
1070
     1
1070
    44
1040
1.0
1070
    74
1070
     0
1000
MTEXTEND
  0
LINE
  5
203
330
1FE
100
AcDbEntity
  8
标注线
 48
5.0
370
    -2
100
AcDbLine
 10
145196.2626763241
 20
-178687.563792431
 30
0.0
 11
145108.2155632768
 21
-178710.5573977168
 31
0.0
  0
SOLID
  5
204
330
1FE
100
AcDbEntity
  8
标注线
 48
5.0
100
AcDbTrace
 10
145209.218806401
 20
-178681.7686964115
 30
0.0
 11
145210.3979656464
 21
-178686.2839329781
 31
0.0
 12
145196.2626763241
 22
-178687.563792431
 32
0.0
 13
145196.2626763241
 23
-178687.563792431
 33
0.0
  0
SOLID
  5
205
330
1FE
100
AcDbEntity
  8
标注线
 48
5.0
100
AcDbTrace
 10
145094.0802739545
 20
-178711.8372571698
 30
0.0
 11
145095.2594331999
 21
-178716.3524937364
 31
0.0
 12
145108.2155632768
 22
-178710.5573977168
 32
0.0
 13
145108.2155632768
 23
-178710.5573977168
 33
0.0
  0
POINT
  5
206
330
1FE
100
AcDbEntity
  8
Defpoints
 62
     0
 48
5.0
100
AcDbPoint
 10
145108.2155632768
 20
-178710.5573977168
 30
0.0
  0
POINT
  5
207
330
1FE
100
AcDbEntity
  8
Defpoints
 62
     0
 48
5.0
100
AcDbPoint
 10
145196.2626763241
 20
-178687.563792431
 30
0.0
  0
ENDBLK
  5
208
330
1FE
100
AcDbEntity
  8
0
 48
5.0
100
AcDbBlockEnd
  0
BLOCK
  5
20D
330
20C
100
AcDbEntity
  8
0
 48
5.0
100
AcDbBlockBegin
  2
*D19
 70
     1
 10
0.0
 20
0.0
 30
0.0
  3
*D19
  1

  0
LINE
  5
20E
330
20C
100
AcDbEntity
  8
标注线
 48
5.0
370
    -2
100
AcDbLine
 10
145090.5102917399
 20
-178758.9400722449
 30
0.0
 11
145100.5591707265
 21
-178749.1922503799
 31
0.0
  0
LINE
  5
20F
330
20C
100
AcDbEntity
  8
标注线
 48
5.0
370
    -2
100
AcDbLine
 10
145203.9190688743
 20
-178648.9289397678
 30
0.0
 11
145213.9679478608
 21
-178639.1811179028
 31
0.0
  0
MTEXT
  5
210
102
{ACAD_XDICTIONARY
360
2A0
102
}
330
20C
100
AcDbEntity
  8
标注线
 48
5.0
100
AcDbMText
 10
145029.0050439866
 20
-178818.6026674126
 30
0.0
 40
14.0
 41
0.0
 71
     5
 72
     1
  1
\A1;\U+2205116mm [\U+22054 5/8"]
 11
0.7177770704704173
 21
0.6962729903614714
 31
0.0
 73
     1
 44
1.0
1001
ACAD
1000
MTEXTBEGIN
1070
    73
1070
     1
1070
    44
1040
1.0
1070
    74
1070
     0
1000
MTEXTEND
  0
LINE
  5
211
330
20C
100
AcDbEntity
  8
标注线
 48
5.0
370
    -2
100
AcDbLine
 10
145193.8701898877
 20
-178658.6767616328
 30
0.0
 11
145110.6080497131
 21
-178739.4444285148
 31
0.0
  0
SOLID
  5
212
330
20C
100
AcDbEntity
  8
标注线
 48
5.0
100
AcDbTrace
 10
145202.2944318968
 20
-178647.2541266034
 30
0.0
 11
145205.5437058518
 21
-178650.6037529323
 31
0.0
 12
145193.8701898877
 22
-178658.6767616328
 32
0.0
 13
145193.8701898877
 23
-178658.6767616328
 33
0.0
  0
SOLID
  5
213
330
20C
100
AcDbEntity
  8
标注线
 48
5.0
100
AcDbTrace
 10
145098.934533749
 20
-178747.5174372154
 30
0.0
 11
145102.183807704
 21
-178750.8670635443
 31
0.0
 12
145110.6080497131
 22
-178739.4444285148
 32
0.0
 13
145110.6080497131
 23
-178739.4444285148
 33
0.0
  0
POINT
  5
214
330
20C
100
AcDbEntity
  8
Defpoints
 62
     0
 48
5.0
100
AcDbPoint
 10
145110.6080497131
 20
-178739.4444285148
 30
0.0
  0
POINT
  5
215
330
20C
100
AcDbEntity
  8
Defpoints
 62
     0
 48
5.0
100
AcDbPoint
 10
145193.8701898877
 20
-178658.6767616328
 30
0.0
  0
ENDBLK
  5
216
330
20C
100
AcDbEntity
  8
0
 48
5.0
100
AcDbBlockEnd
  0
BLOCK
  5
182
330
181
100
AcDbEntity
  8
0
 48
5.0
100
AcDbBlockBegin
  2
*D20
 70
     1
 10
0.0
 20
0.0
 30
0.0
  3
*D20
  1

  0
LINE
  5
183
330
181
100
AcDbEntity
  8
标注线
 48
5.0
370
    -2
100
AcDbLine
 10
145487.0890222654
 20
-178715.7827428659
 30
0.0
 11
145500.721875439
 21
-178712.5975718579
 31
0.0
  0
LINE
  5
184
330
181
100
AcDbEntity
  8
标注线
 48
5.0
370
    -2
100
AcDbLine
 10
145616.6011274137
 20
-178685.5236182899
 30
0.0
 11
145630.2339805871
 21
-178682.3384472819
 31
0.0
  0
MTEXT
  5
185
102
{ACAD_XDICTIONARY
360
29C
102
}
330
181
100
AcDbEntity
  8
标注线
 48
5.0
100
AcDbMText
 10
145408.4949106021
 20
-178734.1454203394
 30
0.0
 40
14.0
 41
0.0
 71
     5
 72
     1
  1
\A1;\U+220591mm [\U+22053 5/8"]
 11
0.9737752266776414
 21
0.2275122148564949
 31
0.0
 73
     1
 44
1.0
1001
ACAD
1000
MTEXTBEGIN
1070
    73
1070
     1
1070
    44
1040
1.0
1070
    74
1070
     0
1000
MTEXTEND
  0
LINE
  5
186
330
181
100
AcDbEntity
  8
标注线
 48
5.0
370
    -2
100
AcDbLine
 10
145602.9682742402
 20
-178688.7087892979
 30
0.0
 11
145514.3547286124
 21
-178709.4124008499
 31
0.0
  0
SOLID
  5
187
330
181
100
AcDbEntity
  8
标注线
 48
5.0
100
AcDbTrace
 10
145616.070265579
 20
-178683.2514760943
 30
0.0
 11
145617.1319892483
 21
-178687.7957604855
 31
0.0
 12
145602.9682742402
 22
-178688.7087892979
 32
0.0
 13
145602.9682742402
 23
-178688.7087892979
 33
0.0
  0
SOLID
  5
188
330
181
100
AcDbEntity
  8
标注线
 48
5.0
100
AcDbTrace
 10
145500.1910136043
 20
-178710.3254296623
 30
0.0
 11
145501.2527372736
 21
-178714.8697140535
 31
0.0
 12
145514.3547286124
 22
-178709.4124008499
 32
0.0
 13
145514.3547286124
 23
-178709.4124008499
 33
0.0
  0
POINT
  5
189
330
181
100
AcDbEntity
  8
Defpoints
 62
     0
 48
5.0
100
AcDbPoint
 10
145514.3547286124
 20
-178709.4124008499
 30
0.0
  0
POINT
  5
18A
330
181
100
AcDbEntity
  8
Defpoints
 62
     0
 48
5.0
100
AcDbPoint
 10
145602.9682742402
 20
-178688.7087892979
 30
0.0
  0
ENDBLK
  5
18B
330
181
100
AcDbEntity
  8
0
 48
5.0
100
AcDbBlockEnd
  0
ENDSEC
  0
SECTION
  2
ENTITIES
  0
MTEXT
  5
81
330
2
100
AcDbEntity
  8
0
  6
ByBlock
100
AcDbMText
 10
145239.6084881355
 20
-179162.4875908673
 30
0.0
 40
20.0
 41
977.6396435271163
 71
     1
 72
     5
  1
{\fArial|b0|i0|c0|p32;HA\fSimSun|b0|i0|c134|p32;122L-332009-R10\P    (H4307L)}
 73
     1
 44
1.0
1001
ACAD
1000
MTEXTBEGIN
1070
    73
1070
     1
1070
    44
1040
1.0
1070
    74
1070
     0
1000
MTEXTEND
  0
LINE
  5
82
330
2
100
AcDbEntity
  8
0
100
AcDbLine
 10
144951.3391198004
 20
-179026.2605950739
 30
0.0
 11
145121.8912110586
 21
-178748.4873533633
 31
0.0
  0
LINE
  5
83
330
2
100
AcDbEntity
  8
0
100
AcDbLine
 10
144951.3391198004
 20
-178599.0605950739
 30
0.0
 11
145099.9994221365
 21
-178673.8611111905
 31
0.0
  0
LINE
  5
84
330
2
100
AcDbEntity
  8
0
100
AcDbLine
 10
144910.9391198004
 20
-178253.5673944907
 30
0.0
 11
144933.3391198004
 21
-178253.5673944908
 31
0.0
  0
LINE
  5
85
330
2
100
AcDbEntity
  8
虚线
 48
5.0
100
AcDbLine
 10
144936.3391198004
 20
-178256.5673944908
 30
0.0
 11
144936.3391198003
 21
-178470.4769774126
 31
0.0
  0
LINE
  5
8A
330
2
100
AcDbEntity
  8
虚线
 48
5.0
100
AcDbLine
 10
144946.1208818632
 20
-178480.4745957391
 30
0.0
 11
145092.3850178348
 21
-178483.6673944907
 31
0.0
  0
ARC
  5
8B
330
2
100
AcDbEntity
  8
虚线
 48
5.0
100
AcDbCircle
 10
144946.3391198003
 20
-178470.4769774126
 30
0.0
 40
10.0
100
AcDbArc
 50
180.0
 51
268.7494894487064
  0
LINE
  5
8C
330
2
100
AcDbEntity
  8
虚线
 48
5.0
100
AcDbLine
 10
145723.7391198004
 20
-178470.4157606059
 30
0.0
 11
145723.7391198004
 21
-178256.5673944908
 31
0.0
  0
ARC
  5
8D
330
2
100
AcDbEntity
  8
虚线
 48
5.0
100
AcDbCircle
 10
145713.7391198005
 20
-178470.4157606059
 30
0.0
 40
10.0
100
AcDbArc
 50
271.946145547302
 51
0.0
  0
LINE
  5
8E
330
2
100
AcDbEntity
  8
0
100
AcDbLine
 10
145726.7391198005
 20
-178253.5673944908
 30
0.0
 11
145749.1391198004
 21
-178253.5673944908
 31
0.0
  0
LINE
  5
8F
330
2
100
AcDbEntity
  8
虚线
 48
5.0
100
AcDbLine
 10
145212.0932085094
 20
-178483.6673944908
 30
0.0
 11
145358.3573577172
 21
-178480.4745957497
 31
0.0
  0
DIMENSION
  5
90
330
2
100
AcDbEntity
  8
标注线
 48
5.0
100
AcDbDimension
  2
*D3
 10
145656.6727906466
 20
-178482.1253212464
 30
0.0
 11
145656.6727906466
 21
-178386.3756477489
 31
0.0
 70
   128
 71
     5
 42
228.5579267556605
  3
毫米英寸Standard
100
AcDbAlignedDimension
 13
145703.1208091267
 23
-178253.5673944908
 33
0.0
 14
145661.1977595312
 24
-178482.1253212464
 34
0.0
 50
90.0
100
AcDbRotatedDimension
  0
LINE
  5
A2
330
2
100
AcDbEntity
  8
0
100
AcDbLine
 10
144933.3391198004
 20
-178253.5673944908
 30
0.0
 11
145371.1391198005
 21
-178253.5673944908
 31
0.0
  0
LINE
  5
A3
330
2
100
AcDbEntity
  8
0
100
AcDbLine
 10
145182.5870285423
 20
-178748.4873533632
 30
0.0
 11
145353.1391198005
 21
-179026.2605950739
 31
0.0
  0
LINE
  5
A4
330
2
100
AcDbEntity
  8
0
100
AcDbLine
 10
145204.4788174643
 20
-178673.8611111906
 30
0.0
 11
145353.1391198005
 21
-178599.0605950739
 31
0.0
  0
LINE
  5
A5
330
2
100
AcDbEntity
  8
0
100
AcDbLine
 10
144910.9391198004
 20
-179045.9605950739
 30
0.0
 11
144910.9391198005
 21
-178579.3605950739
 31
0.0
  0
LINE
  5
A6
330
2
100
AcDbEntity
  8
0
100
AcDbLine
 10
144931.6391198004
 20
-179066.6605950739
 30
0.0
 11
145728.4391198004
 21
-179066.6605950739
 31
0.0
  0
LINE
  5
A7
330
2
100
AcDbEntity
  8
0
100
AcDbLine
 10
144910.9391198004
 20
-179045.9605950739
 30
0.0
 11
144931.6391198004
 21
-179066.6605950739
 31
0.0
1001
GENIUS_GENFIL_13
1070
     0
1040
20.7
1040
20.7
1040
0.0
1040
0.0
1002
{
1002
}
1001
GENIUS_GENODEF_13
1002
{
1000
HIER
1070
     0
1002
}
1002
{
1000
MANEDIT
1070
     0
1002
}
1002
{
1000
NOSEL
1070
     0
1002
}
1002
{
1000
BEHIND
1070
     0
1002
}
1002
{
1000
OTHER
1070
     0
1002
}
1002
{
1000
REACTOR
1002
}
1001
GENIUS_GENOBJ-N-CHA_13
1002
{
1000
OWNER
1000
GEN
1002
}
  0
LINE
  5
AB
330
2
100
AcDbEntity
  8
0
100
AcDbLine
 10
144931.6391198005
 20
-178558.6605950739
 30
0.0
 11
145728.4391198004
 21
-178558.6605950738
 31
0.0
  0
LINE
  5
AC
330
2
100
AcDbEntity
  8
0
100
AcDbLine
 10
144910.9391198005
 20
-178579.3605950739
 30
0.0
 11
144931.6391198005
 21
-178558.6605950739
 31
0.0
1001
GENIUS_GENFIL_13
1070
     0
1040
20.7
1040
20.7
1040
0.0
1040
0.0
1002
{
1002
}
1001
GENIUS_GENODEF_13
1002
{
1000
HIER
1070
     0
1002
}
1002
{
1000
MANEDIT
1070
     0
1002
}
1002
{
1000
NOSEL
1070
     0
1002
}
1002
{
1000
BEHIND
1070
     0
1002
}
1002
{
1000
OTHER
1070
     0
1002
}
1002
{
1000
REACTOR
1002
}
1001
GENIUS_GENOBJ-N-CHA_13
1002
{
1000
OWNER
1000
GEN
1002
}
  0
LINE
  5
AD
330
2
100
AcDbEntity
  8
0
100
AcDbLine
 10
145749.1391198004
 20
-178579.3605950739
 30
0.0
 11
145749.1391198004
 21
-179045.9605950739
 31
0.0
  0
LINE
  5
AE
330
2
100
AcDbEntity
  8
0
100
AcDbLine
 10
145728.4391198004
 20
-179066.6605950739
 30
0.0
 11
145749.1391198004
 21
-179045.9605950739
 31
0.0
1001
GENIUS_GENFIL_13
1070
     0
1040
20.7
1040
20.7
1040
0.0
1040
0.0
1002
{
1002
}
1001
GENIUS_GENOBJ-N-CHA_13
1002
{
1000
OWNER
1000
GEN
1002
}
1001
GENIUS_GENODEF_13
1002
{
1000
HIER
1070
     0
1002
}
1002
{
1000
MANEDIT
1070
     0
1002
}
1002
{
1000
NOSEL
1070
     0
1002
}
1002
{
1000
BEHIND
1070
     0
1002
}
1002
{
1000
OTHER
1070
     0
1002
}
1002
{
1000
REACTOR
1002
}
  0
LINE
  5
AF
330
2
100
AcDbEntity
  8
0
100
AcDbLine
 10
145728.4391198004
 20
-178558.6605950738
 30
0.0
 11
145749.1391198004
 21
-178579.3605950739
 31
0.0
1001
GENIUS_GENFIL_13
1070
     0
1040
20.7
1040
20.7
1040
0.0
1040
0.0
1002
{
1002
}
1001
GENIUS_GENODEF_13
1002
{
1000
HIER
1070
     0
1002
}
1002
{
1000
MANEDIT
1070
     0
1002
}
1002
{
1000
NOSEL
1070
     0
1002
}
1002
{
1000
BEHIND
1070
     0
1002
}
1002
{
1000
OTHER
1070
     0
1002
}
1002
{
1000
REACTOR
1002
}
1001
GENIUS_GENOBJ-N-CHA_13
1002
{
1000
OWNER
1000
GEN
1002
}
  0
LINE
  5
B0
330
2
100
AcDbEntity
  8
0
100
AcDbLine
 10
144946.3391198004
 20
-179041.2605950739
 30
0.0
 11
145358.1391198005
 21
-179041.2605950739
 31
0.0
  0
LINE
  5
B1
330
2
100
AcDbEntity
  8
0
100
AcDbLine
 10
144936.3391198004
 20
-179031.2605950739
 30
0.0
 11
144936.3391198004
 21
-178594.0605950739
 31
0.0
  0
ARC
  5
B2
102
{ACAD_REACTORS
330
1D6
102
}
330
2
100
AcDbEntity
  8
0
100
AcDbCircle
 10
144946.3391198004
 20
-179031.2605950739
 30
0.0
 40
10.0
100
AcDbArc
 50
180.0
 51
270.0
  0
LINE
  5
B3
330
2
100
AcDbEntity
  8
0
100
AcDbLine
 10
144946.3391198004
 20
-178584.0605950738
 30
0.0
 11
145358.1391198005
 21
-178584.0605950739
 31
0.0
  0
ARC
  5
B4
330
2
100
AcDbEntity
  8
0
100
AcDbCircle
 10
144946.3391198004
 20
-178594.0605950739
 30
0.0
 40
10.0
100
AcDbArc
 50
90.0
 51
180.0
  0
ARC
  5
B5
330
2
100
AcDbEntity
  8
0
100
AcDbCircle
 10
145358.1391198005
 20
-178594.0605950739
 30
0.0
 40
10.0
100
AcDbArc
 50
0.0
 51
90.0
  0
LINE
  5
B6
330
2
100
AcDbEntity
  8
中心线
 48
2.0
100
AcDbLine
 10
145152.2391198004
 20
-178569.9023576499
 30
0.0
 11
145152.2391198004
 21
-179051.687059331
 31
0.0
  0
LINE
  5
BB
330
2
100
AcDbEntity
  8
中心线
 48
2.0
100
AcDbLine
 10
145083.5815629955
 20
-178699.0605950739
 30
0.0
 11
145220.8966766054
 21
-178699.0605950739
 31
0.0
  0
DIMENSION
  5
BC
330
2
100
AcDbEntity
  8
标注线
 48
5.0
100
AcDbDimension
  2
*D4
 10
145749.1391198004
 20
-179138.775616933
 30
0.0
 11
145320.5391198007
 21
-179138.775616933
 31
0.0
 70
   128
 71
     5
 42
838.2000000000697
  3
毫米英寸Standard
100
AcDbAlignedDimension
 13
144910.9391198004
 23
-179042.9605950739
 33
0.0
 14
145749.1391198004
 24
-179042.9605950739
 34
0.0
100
AcDbRotatedDimension
  0
CIRCLE
  5
CA
330
2
100
AcDbEntity
  8
0
100
AcDbCircle
 10
145152.2391198004
 20
-178699.0605950739
 30
0.0
 40
55.00000000001331
  0
DIMENSION
  5
CB
330
2
100
AcDbEntity
  8
标注线
 48
5.0
100
AcDbDimension
  2
*D5
 10
145828.4411632219
 20
-179066.6605950739
 30
0.0
 11
145828.4411632219
 21
-178799.9605950739
 31
0.0
 70
   128
 71
     5
 42
508.0000000000873
  3
毫米英寸Standard
100
AcDbAlignedDimension
 13
145725.4391198005
 23
-178558.6605950738
 33
0.0
 14
145725.4391198005
 24
-179066.6605950739
 34
0.0
 50
90.0
100
AcDbRotatedDimension
  0
DIMENSION
  5
D9
330
2
100
AcDbEntity
  8
标注线
 48
5.0
100
AcDbDimension
  2
*D6
 10
145803.0261159563
 20
-179041.2605950739
 30
0.0
 11
145803.0261159563
 21
-178801.6062521706
 31
0.0
 70
   128
 71
     5
 42
457.1999999999825
  3
毫米英寸Standard
100
AcDbAlignedDimension
 13
145708.7391198005
 23
-178584.0605950739
 33
0.0
 14
145708.7391198005
 24
-179041.2605950739
 34
0.0
 50
90.0
100
AcDbRotatedDimension
  0
CIRCLE
  5
E7
102
{ACAD_REACTORS
330
1FD
102
}
330
2
100
AcDbEntity
  8
0
100
AcDbCircle
 10
145152.2391198004
 20
-178699.0605950739
 30
0.0
 40
45.5000000000077
  0
CIRCLE
  5
E8
102
{ACAD_REACTORS
330
20B
102
}
330
2
100
AcDbEntity
  8
0
100
AcDbCircle
 10
145152.2391198004
 20
-178699.0605950739
 30
0.0
 40
58.0
  0
LINE
  5
E9
330
2
100
AcDbEntity
  8
虚线
 48
5.0
100
AcDbLine
 10
145212.0932085094
 20
-178483.6673944908
 30
0.0
 11
145092.3850178348
 21
-178483.6673944907
 31
0.0
  0
LINE
  5
EA
330
2
100
AcDbEntity
  8
中心线
 48
2.0
100
AcDbLine
 10
145152.2391198004
 20
-178523.0664391106
 30
0.0
 11
145152.2391198004
 21
-178438.1503467798
 31
0.0
  0
ARC
  5
EB
330
2
100
AcDbEntity
  8
虚线
 48
5.0
100
AcDbCircle
 10
145092.3850178344
 20
-178486.6673944907
 30
0.0
 40
3.0
100
AcDbArc
 50
26.5650510652296
 51
89.99999999166236
  0
ARC
  5
EC
330
2
100
AcDbEntity
  8
虚线
 48
5.0
100
AcDbCircle
 10
145212.0932217664
 20
-178486.6673944907
 30
0.0
 40
3.0
100
AcDbArc
 50
90.00000000500255
 51
153.4349486752701
  0
ARC
  5
ED
330
2
100
AcDbEntity
  8
虚线
 48
5.0
100
AcDbCircle
 10
145098.1661707834
 20
-178488.1673944907
 30
0.0
 40
1.5
100
AcDbArc
 50
206.5650516469073
 51
269.9999999483067
  0
ARC
  5
EE
330
2
100
AcDbEntity
  8
虚线
 48
5.0
100
AcDbCircle
 10
145206.3120688174
 20
-178488.1673944907
 30
0.0
 40
1.5
100
AcDbArc
 50
270.0000000500258
 51
333.4349477729241
  0
LINE
  5
EF
330
2
100
AcDbEntity
  8
虚线
 48
5.0
100
AcDbLine
 10
145207.6537096036
 20
-178488.8382148835
 30
0.0
 11
145209.4099401934
 21
-178485.3257537039
 31
0.0
  0
LINE
  5
F0
330
2
100
AcDbEntity
  8
虚线
 48
5.0
100
AcDbLine
 10
145098.1661707834
 20
-178489.6673944907
 30
0.0
 11
145107.2391198004
 21
-178489.6673944907
 31
0.0
  0
LINE
  5
F1
330
2
100
AcDbEntity
  8
虚线
 48
5.0
100
AcDbLine
 10
145197.2391198004
 20
-178491.1673944907
 30
0.0
 11
145197.2391198004
 21
-178489.6673944907
 31
0.0
  0
LINE
  5
F2
330
2
100
AcDbEntity
  8
虚线
 48
5.0
100
AcDbLine
 10
145096.8245299972
 20
-178488.8382148835
 30
0.0
 11
145095.0682994074
 21
-178485.3257537039
 31
0.0
  0
LINE
  5
F3
330
2
100
AcDbEntity
  8
虚线
 48
5.0
100
AcDbLine
 10
145107.2391198004
 20
-178491.1673944907
 30
0.0
 11
145107.2391198004
 21
-178489.6673944907
 31
0.0
  0
LINE
  5
F4
330
2
100
AcDbEntity
  8
虚线
 48
5.0
100
AcDbLine
 10
145197.2391198004
 20
-178489.6673944907
 30
0.0
 11
145206.3120688174
 21
-178489.6673944907
 31
0.0
  0
LINE
  5
F5
330
2
100
AcDbEntity
  8
虚线
 48
5.0
100
AcDbLine
 10
145107.2391198004
 20
-178489.6673944907
 30
0.0
 11
145197.2391198004
 21
-178489.6673944907
 31
0.0
  0
LINE
  5
F6
330
2
100
AcDbEntity
  8
0
100
AcDbLine
 10
145095.4828892107
 20
-178489.5090352767
 30
0.0
 11
145093.7266586209
 21
-178485.9965740971
 31
0.0
  0
ARC
  5
F7
330
2
100
AcDbEntity
  8
0
100
AcDbCircle
 10
145092.3850178344
 20
-178486.6673944907
 30
0.0
 40
1.5
100
AcDbArc
 50
26.5650510652296
 51
89.99999999166236
  0
LINE
  5
F8
330
2
100
AcDbEntity
  8
0
100
AcDbLine
 10
144946.0881574781
 20
-178481.9740253225
 30
0.0
 11
145092.3850178348
 21
-178485.1673944907
 31
0.0
  0
ARC
  5
F9
330
2
100
AcDbEntity
  8
0
100
AcDbCircle
 10
144946.3391198004
 20
-178470.4767640002
 30
0.0
 40
11.5
100
AcDbArc
 50
180.0
 51
268.7495457882555
  0
ARC
  5
FA
330
2
100
AcDbEntity
  8
0
100
AcDbCircle
 10
145098.1661707834
 20
-178488.1673944907
 30
0.0
 40
3.0
100
AcDbArc
 50
206.5650516469073
 51
269.9999999483067
  0
LINE
  5
FB
330
2
100
AcDbEntity
  8
0
100
AcDbLine
 10
145098.1661707834
 20
-178491.1673944907
 30
0.0
 11
145107.2391198004
 21
-178491.1673944907
 31
0.0
  0
LINE
  5
FC
330
2
100
AcDbEntity
  8
0
100
AcDbLine
 10
145107.2391198004
 20
-178491.1673944907
 30
0.0
 11
145197.2391198004
 21
-178491.1673944907
 31
0.0
  0
LINE
  5
FD
330
2
100
AcDbEntity
  8
0
100
AcDbLine
 10
145197.2391198004
 20
-178491.1673944907
 30
0.0
 11
145206.3120688174
 21
-178491.1673944907
 31
0.0
  0
ARC
  5
FE
330
2
100
AcDbEntity
  8
0
100
AcDbCircle
 10
145206.3120688174
 20
-178488.1673944907
 30
0.0
 40
3.0
100
AcDbArc
 50
270.0000000500258
 51
333.4349477729241
  0
LINE
  5
FF
330
2
100
AcDbEntity
  8
0
100
AcDbLine
 10
145208.9953503901
 20
-178489.5090352767
 30
0.0
 11
145210.7515809799
 21
-178485.9965740971
 31
0.0
  0
ARC
  5
100
330
2
100
AcDbEntity
  8
0
100
AcDbCircle
 10
145212.0932217664
 20
-178486.6673944907
 30
0.0
 40
1.5
100
AcDbArc
 50
90.00000000500255
 51
153.4349486752701
  0
LINE
  5
101
330
2
100
AcDbEntity
  8
0
100
AcDbLine
 10
145212.0932085094
 20
-178485.1673944908
 30
0.0
 11
145358.3900820993
 21
-178481.9740253333
 31
0.0
  0
LINE
  5
102
330
2
100
AcDbEntity
  8
0
100
AcDbLine
 10
145725.2391198005
 20
-178470.4153508769
 30
0.0
 11
145725.2391198005
 21
-178256.5673944908
 31
0.0
  0
ARC
  5
103
330
2
100
AcDbEntity
  8
0
100
AcDbCircle
 10
145713.7391198005
 20
-178470.4153508769
 30
0.0
 40
11.5
100
AcDbArc
 50
271.9458734703325
 51
0.0
  0
LINE
  5
104
330
2
100
AcDbEntity
  8
0
100
AcDbLine
 10
145726.7391198005
 20
-178255.0673944908
 30
0.0
 11
145749.1391198004
 21
-178255.0673944908
 31
0.0
  0
LINE
  5
105
330
2
100
AcDbEntity
  8
0
100
AcDbLine
 10
144910.9391198004
 20
-178255.0673944907
 30
0.0
 11
144933.3391198004
 21
-178255.0673944908
 31
0.0
  0
LINE
  5
106
330
2
100
AcDbEntity
  8
0
100
AcDbLine
 10
144934.8391198004
 20
-178256.5673944908
 30
0.0
 11
144934.8391198004
 21
-178470.4767640002
 31
0.0
  0
LINE
  5
107
330
2
100
AcDbEntity
  8
0
100
AcDbLine
 10
144910.9391198004
 20
-178253.5673944907
 30
0.0
 11
144910.9391198004
 21
-178255.0673944907
 31
0.0
  0
LINE
  5
108
330
2
100
AcDbEntity
  8
0
100
AcDbLine
 10
145749.1391198004
 20
-178253.5673944908
 30
0.0
 11
145749.1391198004
 21
-178255.0673944908
 31
0.0
  0
ARC
  5
109
330
2
100
AcDbEntity
  8
虚线
 48
5.0
100
AcDbCircle
 10
144933.3391198004
 20
-178256.5673944908
 30
0.0
 40
3.0
100
AcDbArc
 50
0.0
 51
90.0
  0
ARC
  5
10A
330
2
100
AcDbEntity
  8
虚线
 48
5.0
100
AcDbCircle
 10
145726.7391198005
 20
-178256.5673944908
 30
0.0
 40
3.0
100
AcDbArc
 50
90.0
 51
180.0
  0
ARC
  5
10B
330
2
100
AcDbEntity
  8
0
100
AcDbCircle
 10
145726.7391198005
 20
-178256.5673944908
 30
0.0
 40
1.5
100
AcDbArc
 50
90.0
 51
180.0
  0
ARC
  5
10C
330
2
100
AcDbEntity
  8
0
100
AcDbCircle
 10
144933.3391198004
 20
-178256.5673944908
 30
0.0
 40
1.5
100
AcDbArc
 50
0.0
 51
90.0
  0
DIMENSION
  5
10D
330
2
100
AcDbEntity
  8
标注线
 48
5.0
100
AcDbDimension
  2
*D7
 10
145749.1391198004
 20
-179120.7697051674
 30
0.0
 11
145635.4724531338
 21
-179120.7697051674
 31
0.0
 70
   128
 71
     5
 42
25.39999999999418
  3
毫米英寸Standard
100
AcDbAlignedDimension
 13
145723.7391198004
 23
-179026.2605950739
 33
0.0
 14
145749.1391198004
 24
-179042.9605950739
 34
0.0
100
AcDbRotatedDimension
  0
DIMENSION
  5
11C
330
2
100
AcDbEntity
  8
标注线
 48
5.0
100
AcDbDimension
  2
*D8
 10
145781.4928574369
 20
-178558.6605950738
 30
0.0
 11
145781.4928574369
 21
-178672.3272617406
 31
0.0
 70
   128
 71
     5
 42
25.40000000008149
  3
毫米英寸Standard
100
AcDbAlignedDimension
 13
145708.7391198005
 23
-178584.0605950739
 33
0.0
 14
145725.4391198005
 24
-178558.6605950738
 34
0.0
 50
90.0
100
AcDbRotatedDimension
  0
LINE
  5
12B
330
2
100
AcDbEntity
  8
0
100
AcDbLine
 10
145389.983883052
 20
-178253.5673944907
 30
0.0
 11
145371.1391198005
 21
-178253.5673944908
 31
0.0
  0
LINE
  5
12C
330
2
100
AcDbEntity
  8
虚线
 48
5.0
100
AcDbLine
 10
145368.1391198005
 20
-178256.5673944908
 30
0.0
 11
145368.1391198005
 21
-178470.4769774227
 31
0.0
  0
ARC
  5
12D
102
{ACAD_REACTORS
330
1F2
102
}
330
2
100
AcDbEntity
  8
虚线
 48
5.0
100
AcDbCircle
 10
145358.1391198005
 20
-178470.4769774227
 30
0.0
 40
10.0
100
AcDbArc
 50
271.2505104340451
 51
0.0
  0
LINE
  5
12E
102
{ACAD_REACTORS
330
1E1
102
}
330
2
100
AcDbEntity
  8
0
100
AcDbLine
 10
145368.1391198005
 20
-179031.2605950739
 30
0.0
 11
145368.1391198005
 21
-178594.0605950739
 31
0.0
  0
ARC
  5
12F
330
2
100
AcDbEntity
  8
0
100
AcDbCircle
 10
145358.1391198005
 20
-179031.2605950739
 30
0.0
 40
10.0
100
AcDbArc
 50
270.0
 51
0.0
  0
LINE
  5
130
330
2
100
AcDbEntity
  8
0
100
AcDbLine
 10
145389.983883052
 20
-178255.0673944907
 30
0.0
 11
145371.1391198005
 21
-178255.0673944908
 31
0.0
  0
LINE
  5
131
330
2
100
AcDbEntity
  8
0
100
AcDbLine
 10
145369.6391198004
 20
-178256.5673944908
 30
0.0
 11
145369.6391198004
 21
-178470.4767640105
 31
0.0
  0
ARC
  5
132
330
2
100
AcDbEntity
  8
0
100
AcDbCircle
 10
145358.1391198005
 20
-178470.4767640105
 30
0.0
 40
11.5
100
AcDbArc
 50
271.2504540944935
 51
0.0
  0
ARC
  5
133
330
2
100
AcDbEntity
  8
虚线
 48
5.0
100
AcDbCircle
 10
145371.1391198005
 20
-178256.5673944908
 30
0.0
 40
3.0
100
AcDbArc
 50
90.0
 51
180.0
  0
ARC
  5
134
330
2
100
AcDbEntity
  8
0
100
AcDbCircle
 10
145371.1391198005
 20
-178256.5673944908
 30
0.0
 40
1.5
100
AcDbArc
 50
90.0
 51
180.0
  0
LINE
  5
135
102
{ACAD_REACTORS
330
1E1
102
}
330
2
100
AcDbEntity
  8
0
100
AcDbLine
 10
145393.5391198004
 20
-179031.2605950739
 30
0.0
 11
145393.5391198005
 21
-178594.0605950739
 31
0.0
  0
LINE
  5
136
330
2
100
AcDbEntity
  8
0
100
AcDbLine
 10
145723.7391198004
 20
-179031.2605950739
 30
0.0
 11
145723.7391198004
 21
-178594.0605950739
 31
0.0
  0
ARC
  5
137
330
2
100
AcDbEntity
  8
0
100
AcDbCircle
 10
145713.7391198005
 20
-178594.0605950739
 30
0.0
 40
10.0
100
AcDbArc
 50
0.0
 51
90.0
  0
ARC
  5
138
330
2
100
AcDbEntity
  8
0
100
AcDbCircle
 10
145713.7391198005
 20
-179031.2605950739
 30
0.0
 40
10.0
100
AcDbArc
 50
270.0
 51
0.0
  0
DIMENSION
  5
139
330
2
100
AcDbEntity
  8
标注线
 48
5.0
100
AcDbDimension
  2
*D9
 10
145368.1391198005
 20
-179091.1828004289
 30
0.0
 11
145152.2391198004
 21
-179091.1828004289
 31
0.0
 71
     5
 42
431.8000000000465
  3
毫米英寸Standard
100
AcDbAlignedDimension
 13
144936.3391198004
 23
-179026.2605950739
 33
0.0
 14
145368.1391198005
 24
-179026.2605950739
 34
0.0
100
AcDbRotatedDimension
  0
DIMENSION
  5
147
330
2
100
AcDbEntity
  8
标注线
 48
5.0
100
AcDbDimension
  2
*D10
 10
145723.7391198004
 20
-179091.546762006
 30
0.0
 11
145558.6391198005
 21
-179091.546762006
 31
0.0
 71
     5
 42
330.2000000000408
  3
毫米英寸Standard
100
AcDbAlignedDimension
 13
145393.5391198004
 23
-179026.2605950739
 33
0.0
 14
145723.7391198004
 24
-179026.2605950739
 34
0.0
100
AcDbRotatedDimension
  0
LINE
  5
155
330
2
100
AcDbEntity
  8
0
100
AcDbLine
 10
145403.5391198005
 20
-178584.0605950739
 30
0.0
 11
145713.7391198005
 21
-178584.0605950739
 31
0.0
  0
ARC
  5
156
330
2
100
AcDbEntity
  8
0
100
AcDbCircle
 10
145403.5391198005
 20
-178594.0605950739
 30
0.0
 40
10.0
100
AcDbArc
 50
90.0
 51
180.0
  0
LINE
  5
157
330
2
100
AcDbEntity
  8
0
100
AcDbLine
 10
145403.5391198004
 20
-179041.2605950739
 30
0.0
 11
145713.7391198005
 21
-179041.2605950739
 31
0.0
  0
ARC
  5
158
102
{ACAD_REACTORS
330
1BF
102
}
330
2
100
AcDbEntity
  8
0
100
AcDbCircle
 10
145403.5391198004
 20
-179031.2605950739
 30
0.0
 40
10.0
100
AcDbArc
 50
180.0
 51
270.0
  0
LINE
  5
159
330
2
100
AcDbEntity
  8
0
100
AcDbLine
 10
145408.5391198004
 20
-179026.2605950739
 30
0.0
 11
145534.4747976046
 21
-178751.7768483384
 31
0.0
  0
LINE
  5
15A
330
2
100
AcDbEntity
  8
0
100
AcDbLine
 10
145408.5391198004
 20
-178599.0605950739
 30
0.0
 11
145509.9945031064
 21
-178667.508681114
 31
0.0
  0
LINE
  5
15B
330
2
100
AcDbEntity
  8
虚线
 48
5.0
100
AcDbLine
 10
145402.6442818376
 20
-178480.4099924678
 30
0.0
 11
145498.5073994607
 21
-178483.6673944907
 31
0.0
  0
LINE
  5
15C
330
2
100
AcDbEntity
  8
虚线
 48
5.0
100
AcDbLine
 10
145618.2155901353
 20
-178483.6673944908
 30
0.0
 11
145714.0787209654
 21
-178480.4099924948
 31
0.0
  0
LINE
  5
15D
330
2
100
AcDbEntity
  8
0
100
AcDbLine
 10
145582.8422469842
 20
-178751.7795816372
 30
0.0
 11
145708.7391198005
 21
-179026.2605950739
 31
0.0
  0
LINE
  5
15E
330
2
100
AcDbEntity
  8
0
100
AcDbLine
 10
145607.1991640065
 20
-178667.3100783656
 30
0.0
 11
145708.7391198005
 21
-178599.0605950739
 31
0.0
  0
DIMENSION
  5
15F
330
2
100
AcDbEntity
  8
标注线
 48
5.0
100
AcDbDimension
  2
*D11
 10
145685.3195552123
 20
-178584.0605950739
 30
0.0
 11
145685.3195552124
 21
-178787.6383728517
 31
0.0
 70
   128
 71
     5
 42
115.0
  3
毫米英寸Standard
100
AcDbAlignedDimension
 13
145627.0190582312
 23
-178699.0605950739
 33
0.0
 14
145596.4615014263
 24
-178584.0605950739
 34
0.0
 50
90.0
100
AcDbRotatedDimension
  0
LINE
  5
16D
330
2
100
AcDbEntity
  8
中心线
 48
2.0
100
AcDbLine
 10
145558.6615014263
 20
-178569.9023576499
 30
0.0
 11
145558.6615014263
 21
-179051.687059331
 31
0.0
  0
LINE
  5
16E
330
2
100
AcDbEntity
  8
中心线
 48
2.0
100
AcDbLine
 10
145489.7039446213
 20
-178699.0605950739
 30
0.0
 11
145627.0190582312
 21
-178699.0605950739
 31
0.0
  0
CIRCLE
  5
16F
330
2
100
AcDbEntity
  8
0
100
AcDbCircle
 10
145558.6615014263
 20
-178699.0605950739
 30
0.0
 40
55.00000000001331
  0
DIMENSION
  5
170
330
2
100
AcDbEntity
  8
标注线
 48
5.0
100
AcDbDimension
  2
*D12
 10
145601.8321317607
 20
-178660.3269317238
 30
0.0
 11
145430.8701013879
 21
-178813.7179218219
 31
0.0
 70
     3
 71
     5
 42
116.0000000000873
  3
毫米英寸Standard
100
AcDbDiametricDimension
 15
145515.4908710919
 25
-178737.7942584245
 35
0.0
 40
0.0
  0
CIRCLE
  5
17C
102
{ACAD_REACTORS
330
180
102
}
330
2
100
AcDbEntity
  8
0
100
AcDbCircle
 10
145558.6615014263
 20
-178699.0605950739
 30
0.0
 40
45.5000000000077
  0
CIRCLE
  5
17D
330
2
100
AcDbEntity
  8
0
100
AcDbCircle
 10
145558.6615014263
 20
-178699.0605950739
 30
0.0
 40
58.0
  0
DIMENSION
  5
17E
102
{ACAD_XDICTIONARY
360
17F
102
}
102
{ACAD_REACTORS
330
180
102
}
330
2
100
AcDbEntity
  8
标注线
 48
5.0
100
AcDbDimension
  2
*D20
 10
145602.9682742402
 20
-178688.7087892979
 30
0.0
 11
145408.4949106021
 21
-178734.1454203394
 31
0.0
 70
     3
 71
     5
 42
91.00000000008732
  3
毫米英寸Standard
100
AcDbDiametricDimension
 15
145514.3547286124
 25
-178709.4124008499
 35
0.0
 40
0.0
  0
LINE
  5
18C
330
2
100
AcDbEntity
  8
虚线
 48
5.0
100
AcDbLine
 10
145618.2155901353
 20
-178483.6673944908
 30
0.0
 11
145498.5073994607
 21
-178483.6673944907
 31
0.0
  0
LINE
  5
18D
330
2
100
AcDbEntity
  8
中心线
 48
2.0
100
AcDbLine
 10
145558.3615014262
 20
-178523.0664391106
 30
0.0
 11
145558.3615014263
 21
-178438.1503467798
 31
0.0
  0
ARC
  5
18E
330
2
100
AcDbEntity
  8
虚线
 48
5.0
100
AcDbCircle
 10
145498.5073994603
 20
-178486.6673944907
 30
0.0
 40
3.0
100
AcDbArc
 50
26.5650510652296
 51
89.99999999166236
  0
ARC
  5
18F
330
2
100
AcDbEntity
  8
虚线
 48
5.0
100
AcDbCircle
 10
145618.2156033922
 20
-178486.6673944907
 30
0.0
 40
3.0
100
AcDbArc
 50
90.00000000500255
 51
153.4349486752701
  0
ARC
  5
190
330
2
100
AcDbEntity
  8
虚线
 48
5.0
100
AcDbCircle
 10
145504.2885524093
 20
-178488.1673944907
 30
0.0
 40
1.5
100
AcDbArc
 50
206.5650516469073
 51
269.9999999483067
  0
ARC
  5
191
330
2
100
AcDbEntity
  8
虚线
 48
5.0
100
AcDbCircle
 10
145612.4344504433
 20
-178488.1673944907
 30
0.0
 40
1.5
100
AcDbArc
 50
270.0000000500258
 51
333.4349477729241
  0
LINE
  5
192
330
2
100
AcDbEntity
  8
虚线
 48
5.0
100
AcDbLine
 10
145613.7760912295
 20
-178488.8382148835
 30
0.0
 11
145615.5323218192
 21
-178485.3257537039
 31
0.0
  0
LINE
  5
193
330
2
100
AcDbEntity
  8
虚线
 48
5.0
100
AcDbLine
 10
145504.2885524093
 20
-178489.6673944907
 30
0.0
 11
145513.3615014263
 21
-178489.6673944907
 31
0.0
  0
LINE
  5
194
330
2
100
AcDbEntity
  8
虚线
 48
5.0
100
AcDbLine
 10
145603.3615014263
 20
-178491.1673944907
 30
0.0
 11
145603.3615014263
 21
-178489.6673944907
 31
0.0
  0
LINE
  5
195
330
2
100
AcDbEntity
  8
虚线
 48
5.0
100
AcDbLine
 10
145502.9469116231
 20
-178488.8382148835
 30
0.0
 11
145501.1906810333
 21
-178485.3257537039
 31
0.0
  0
LINE
  5
196
330
2
100
AcDbEntity
  8
虚线
 48
5.0
100
AcDbLine
 10
145513.3615014262
 20
-178491.1673944907
 30
0.0
 11
145513.3615014262
 21
-178489.6673944907
 31
0.0
  0
LINE
  5
197
330
2
100
AcDbEntity
  8
虚线
 48
5.0
100
AcDbLine
 10
145603.3615014262
 20
-178489.6673944907
 30
0.0
 11
145612.4344504433
 21
-178489.6673944907
 31
0.0
  0
LINE
  5
198
330
2
100
AcDbEntity
  8
虚线
 48
5.0
100
AcDbLine
 10
145513.3615014262
 20
-178489.6673944907
 30
0.0
 11
145603.3615014262
 21
-178489.6673944907
 31
0.0
  0
LINE
  5
199
330
2
100
AcDbEntity
  8
0
100
AcDbLine
 10
145501.6052708366
 20
-178489.5090352767
 30
0.0
 11
145499.8490402467
 21
-178485.9965740971
 31
0.0
  0
ARC
  5
19A
330
2
100
AcDbEntity
  8
0
100
AcDbCircle
 10
145498.5073994603
 20
-178486.6673944907
 30
0.0
 40
1.5
100
AcDbArc
 50
26.5650510652296
 51
89.99999999166236
  0
LINE
  5
19B
330
2
100
AcDbEntity
  8
0
100
AcDbLine
 10
145402.5933962332
 20
-178481.9087193761
 30
0.0
 11
145498.5073994607
 21
-178485.1673944907
 31
0.0
  0
ARC
  5
19C
330
2
100
AcDbEntity
  8
0
100
AcDbCircle
 10
145402.983883052
 20
-178470.4153508515
 30
0.0
 40
11.5
100
AcDbArc
 50
180.0
 51
268.0541262457881
  0
ARC
  5
19D
330
2
100
AcDbEntity
  8
0
100
AcDbCircle
 10
145504.2885524093
 20
-178488.1673944907
 30
0.0
 40
3.0
100
AcDbArc
 50
206.5650516469073
 51
269.9999999483067
  0
LINE
  5
19E
330
2
100
AcDbEntity
  8
0
100
AcDbLine
 10
145504.2885524093
 20
-178491.1673944907
 30
0.0
 11
145513.3615014263
 21
-178491.1673944907
 31
0.0
  0
LINE
  5
19F
330
2
100
AcDbEntity
  8
0
100
AcDbLine
 10
145513.3615014262
 20
-178491.1673944907
 30
0.0
 11
145603.3615014262
 21
-178491.1673944907
 31
0.0
  0
LINE
  5
1A0
330
2
100
AcDbEntity
  8
0
100
AcDbLine
 10
145603.3615014263
 20
-178491.1673944907
 30
0.0
 11
145612.4344504433
 21
-178491.1673944907
 31
0.0
  0
ARC
  5
1A1
330
2
100
AcDbEntity
  8
0
100
AcDbCircle
 10
145612.4344504433
 20
-178488.1673944907
 30
0.0
 40
3.0
100
AcDbArc
 50
270.0000000500258
 51
333.4349477729241
  0
LINE
  5
1A2
330
2
100
AcDbEntity
  8
0
100
AcDbLine
 10
145615.117732016
 20
-178489.5090352767
 30
0.0
 11
145616.8739626057
 21
-178485.9965740971
 31
0.0
  0
ARC
  5
1A3
330
2
100
AcDbEntity
  8
0
100
AcDbCircle
 10
145618.2156033922
 20
-178486.6673944907
 30
0.0
 40
1.5
100
AcDbArc
 50
90.00000000500255
 51
153.4349486752701
  0
LINE
  5
1A4
330
2
100
AcDbEntity
  8
0
100
AcDbLine
 10
145618.2155901353
 20
-178485.1673944908
 30
0.0
 11
145714.1296065623
 21
-178481.9087194035
 31
0.0
  0
LINE
  5
1A5
330
2
100
AcDbEntity
  8
虚线
 48
5.0
100
AcDbLine
 10
145392.983883052
 20
-178470.4157605806
 30
0.0
 11
145392.983883052
 21
-178256.5673944908
 31
0.0
  0
ARC
  5
1A6
102
{ACAD_REACTORS
330
1CB
102
}
330
2
100
AcDbEntity
  8
虚线
 48
5.0
100
AcDbCircle
 10
145402.983883052
 20
-178470.4157605806
 30
0.0
 40
10.0
100
AcDbArc
 50
180.0
 51
268.0538541686882
  0
LINE
  5
1A7
330
2
100
AcDbEntity
  8
0
100
AcDbLine
 10
145391.483883052
 20
-178470.4153508515
 30
0.0
 11
145391.483883052
 21
-178256.5673944908
 31
0.0
  0
LINE
  5
1A8
330
2
100
AcDbEntity
  8
0
100
AcDbLine
 10
145389.983883052
 20
-178253.5673944907
 30
0.0
 11
145726.7391198005
 21
-178253.5673944908
 31
0.0
  0
ARC
  5
1A9
330
2
100
AcDbEntity
  8
虚线
 48
5.0
100
AcDbCircle
 10
145389.983883052
 20
-178256.5673944908
 30
0.0
 40
3.0
100
AcDbArc
 50
0.0
 51
90.0
  0
ARC
  5
1AA
330
2
100
AcDbEntity
  8
0
100
AcDbCircle
 10
145389.983883052
 20
-178256.5673944908
 30
0.0
 40
1.5
100
AcDbArc
 50
0.0
 51
90.0
  0
LINE
  5
1AB
330
2
100
AcDbEntity
  8
0
100
AcDbLine
 10
145389.983883052
 20
-178255.0673944907
 30
0.0
 11
145726.7391198005
 21
-178255.0673944908
 31
0.0
  0
LINE
  5
1AC
330
2
100
AcDbEntity
  8
0
100
AcDbLine
 10
145498.5073994605
 20
-178485.1673944907
 30
0.0
 11
145618.2156033922
 21
-178485.1673944907
 31
0.0
  0
LINE
  5
1AD
330
2
100
AcDbEntity
  8
0
100
AcDbLine
 10
145092.3850178346
 20
-178485.1673944907
 30
0.0
 11
145212.0932217664
 21
-178485.1673944907
 31
0.0
  0
LINE
  5
1AE
330
2
100
AcDbEntity
  8
0
100
AcDbLine
 10
144933.3391198004
 20
-178255.0673944908
 30
0.0
 11
145371.1391198005
 21
-178255.0673944908
 31
0.0
  0
DIMENSION
  5
1AF
330
2
100
AcDbEntity
  8
标注线
 48
5.0
100
AcDbDimension
  2
*D2
 10
145003.4054489543
 20
-178482.1253212464
 30
0.0
 11
145003.4054489543
 21
-178386.3756477489
 31
0.0
 70
   128
 71
     5
 42
228.5579267556605
  3
毫米英寸Standard
100
AcDbAlignedDimension
 13
144956.9574304742
 23
-178253.5673944908
 33
0.0
 14
144998.8804800697
 24
-178482.1253212464
 34
0.0
 50
90.0
100
AcDbRotatedDimension
  0
DIMENSION
  5
1BD
102
{ACAD_XDICTIONARY
360
1BE
102
}
102
{ACAD_REACTORS
330
1BF
102
}
330
2
100
AcDbEntity
  8
标注线
 48
5.0
100
AcDbDimension
  2
*D13
 10
145403.5391198004
 20
-179031.2605950739
 30
0.0
 11
145468.8085001735
 21
-178957.7122950924
 31
0.0
 70
   132
  1
4-<>
 71
     5
 42
9.999999999941792
  3
毫米英寸Standard
100
AcDbRadialDimension
 15
145396.9015556947
 25
-179038.7400832076
 35
0.0
 40
0.0
1001
ACAD_DSTYLE_DIMRADIAL_EXTENSION
1070
   387
1070
     1
1070
   388
1040
3.141592653589722
1070
   390
1040
4.712388980384689
  0
DIMENSION
  5
1C9
102
{ACAD_XDICTIONARY
360
1CA
102
}
102
{ACAD_REACTORS
330
1CB
102
}
330
2
100
AcDbEntity
  8
标注线
 48
5.0
100
AcDbDimension
  2
*D14
 10
145402.9838830521
 20
-178470.4157605807
 30
0.0
 11
145473.2682409738
 21
-178416.7723455517
 31
0.0
 70
   132
 71
     5
 42
9.999999999985448
  3
毫米英寸Standard
100
AcDbRadialDimension
 15
145395.034662552
 25
-178476.4828763238
 35
0.0
 40
0.0
1001
ACAD_DSTYLE_DIMRADIAL_EXTENSION
1070
   387
1070
     1
1070
   388
1040
3.141592653589793
1070
   390
1040
4.678422327904357
  0
DIMENSION
  5
1D4
102
{ACAD_XDICTIONARY
360
1D5
102
}
102
{ACAD_REACTORS
330
1D6
102
}
330
2
100
AcDbEntity
  8
标注线
 48
5.0
100
AcDbDimension
  2
*D15
 10
144946.3391198004
 20
-179031.2605950738
 30
0.0
 11
145020.5001909493
 21
-178966.6883102258
 31
0.0
 70
   132
  1
4-<>
 71
     5
 42
10.0000000000291
  3
毫米英寸Standard
100
AcDbRadialDimension
 15
144938.7973159548
 25
-179037.8272681093
 35
0.0
 40
0.0
1001
ACAD_DSTYLE_DIMRADIAL_EXTENSION
1070
   387
1070
     1
1070
   388
1040
3.141592653589793
1070
   390
1040
4.712388980384689
  0
DIMENSION
  5
1DF
102
{ACAD_XDICTIONARY
360
1E0
102
}
102
{ACAD_REACTORS
330
1E1
102
}
330
2
100
AcDbEntity
  8
标注线
 48
5.0
100
AcDbDimension
  2
*D16
 10
145368.1391198005
 20
-178772.3515172359
 30
0.0
 11
145279.8724531338
 21
-178772.3515172359
 31
0.0
 71
     5
 42
25.39999999999418
  3
毫米英寸Standard
100
AcDbAlignedDimension
 13
145393.5391198005
 23
-178772.3515172359
 33
0.0
 14
145368.1391198005
 24
-178772.3515172359
 34
0.0
100
AcDbRotatedDimension
  0
DIMENSION
  5
1F0
102
{ACAD_XDICTIONARY
360
1F1
102
}
102
{ACAD_REACTORS
330
1F2
102
}
330
2
100
AcDbEntity
  8
标注线
 48
5.0
100
AcDbDimension
  2
*D17
 10
145358.1391198005
 20
-178470.4769774226
 30
0.0
 11
145294.2710668878
 21
-178409.3346944955
 31
0.0
 70
   132
 71
     5
 42
10.00000000017462
  3
毫米英寸Standard
100
AcDbRadialDimension
 15
145365.3626507616
 25
-178477.3922214862
 35
0.0
 40
0.0
1001
ACAD_DSTYLE_DIMRADIAL_EXTENSION
1070
   387
1070
     1
1070
   388
1040
4.734214504789305
1070
   390
1040
0.0000000000002416
  0
DIMENSION
  5
1FB
102
{ACAD_XDICTIONARY
360
1FC
102
}
102
{ACAD_REACTORS
330
1FD
102
}
330
2
100
AcDbEntity
  8
标注线
 48
5.0
100
AcDbDimension
  2
*D18
 10
145196.2626763241
 20
-178687.563792431
 30
0.0
 11
145003.0324188997
 21
-178738.0260973802
 31
0.0
 70
     3
 71
     5
 42
91.00000000004365
  3
毫米英寸Standard
100
AcDbDiametricDimension
 15
145108.2155632768
 25
-178710.5573977168
 35
0.0
 40
0.0
1001
ACAD_DSTYLE_DIMRADIAL_EXTENSION
1070
   387
1070
     1
1070
   388
1040
0.0
1070
   390
1040
0.0
  0
DIMENSION
  5
209
102
{ACAD_XDICTIONARY
360
20A
102
}
102
{ACAD_REACTORS
330
20B
102
}
330
2
100
AcDbEntity
  8
标注线
 48
5.0
100
AcDbDimension
  2
*D19
 10
145193.8701898877
 20
-178658.6767616328
 30
0.0
 11
145029.0050439866
 21
-178818.6026674126
 31
0.0
 70
     3
 71
     5
 42
116.0
  3
毫米英寸Standard
100
AcDbDiametricDimension
 15
145110.6080497131
 25
-178739.4444285148
 35
0.0
 40
0.0
1001
ACAD_DSTYLE_DIMRADIAL_EXTENSION
1070
   387
1070
     1
1070
   388
1040
0.0
1070
   390
1040
0.0
  0
ENDSEC
  0
SECTION
  2
OBJECTS
  0
DICTIONARY
  5
B
330
0
100
AcDbDictionary
281
     1
  3
ACAD_2007HEADERVARS_RT
350
286
  3
ACAD_COLOR
350
53
  3
ACAD_GROUP
350
40
  3
ACAD_LAYOUT
350
18
  3
ACAD_MATERIAL
350
D
  3
ACAD_MLEADERSTYLE
350
56
  3
ACAD_MLINESTYLE
350
41
  3
ACAD_PLOTSETTINGS
350
42
  3
ACAD_PLOTSTYLENAME
350
A
  3
ACAD_SCALELIST
350
54
  3
ACAD_TABLESTYLE
350
55
  3
ACAD_VISUALSTYLE
350
2E
  3
ACDB_RECOMPOSE_DATA
350
285
  3
AcDbVariableDictionary
350
27B
  3
AcmDictionary
350
226
  3
AcmSystemVariableManager
350
2A6
  3
AMG
350
219
  0
DICTIONARY
  5
2F
330
2B
100
AcDbDictionary
280
     1
281
     1
  0
DICTIONARY
  5
1F
330
1E
100
AcDbDictionary
280
     1
281
     1
  3
ACAD_LAYERFILTERS
360
20
  3
ACAD_LAYERSTATES
360
21
  0
DICTIONARY
  5
7
330
6
100
AcDbDictionary
280
     1
281
     1
  3
ADSK_XREC_LAYER_RECONCILED
360
8
  0
DICTIONARY
  5
92
330
91
100
AcDbDictionary
280
     1
281
     1
  3
ADSK_XREC_LAYER_RECONCILED
360
93
  0
DICTIONARY
  5
B8
330
B7
100
AcDbDictionary
280
     1
281
     1
  3
ADSK_XREC_LAYER_RECONCILED
360
B9
  0
DICTIONARY
  5
87
330
86
100
AcDbDictionary
280
     1
281
     1
  3
ADSK_XREC_LAYER_RECONCILED
360
88
  0
DICTIONARY
  5
58
330
57
100
AcDbDictionary
280
     1
281
     1
  3
ADSK_XREC_LAYER_RECONCILED
360
59
  0
DICTIONARY
  5
3
330
2
100
AcDbDictionary
280
     1
281
     1
  3
ACAD_SORTENTS
360
217
  0
DICTIONARY
  5
29A
330
175
100
AcDbDictionary
280
     1
281
     1
  3
ACAD_MTEXT_RT
360
29B
  0
DICTIONARY
  5
29E
330
202
100
AcDbDictionary
280
     1
281
     1
  3
ACAD_MTEXT_RT
360
29F
  0
DICTIONARY
  5
2A0
330
210
100
AcDbDictionary
280
     1
281
     1
  3
ACAD_MTEXT_RT
360
2A1
  0
DICTIONARY
  5
29C
330
185
100
AcDbDictionary
280
     1
281
     1
  3
ACAD_MTEXT_RT
360
29D
  0
DICTIONARY
  5
17F
330
17E
100
AcDbDictionary
280
     1
281
     1
  3
ACAD_DIMASSOC
360
180
  0
DICTIONARY
  5
1BE
330
1BD
100
AcDbDictionary
280
     1
281
     1
  3
ACAD_DIMASSOC
360
1BF
  0
DICTIONARY
  5
1CA
330
1C9
100
AcDbDictionary
280
     1
281
     1
  3
ACAD_DIMASSOC
360
1CB
  0
DICTIONARY
  5
1D5
330
1D4
100
AcDbDictionary
280
     1
281
     1
  3
ACAD_DIMASSOC
360
1D6
  0
DICTIONARY
  5
1E0
330
1DF
100
AcDbDictionary
280
     1
281
     1
  3
ACAD_DIMASSOC
360
1E1
  0
DICTIONARY
  5
1F1
330
1F0
100
AcDbDictionary
280
     1
281
     1
  3
ACAD_DIMASSOC
360
1F2
  0
DICTIONARY
  5
1FC
330
1FB
100
AcDbDictionary
280
     1
281
     1
  3
ACAD_DIMASSOC
360
1FD
  0
DICTIONARY
  5
20A
330
209
100
AcDbDictionary
280
     1
281
     1
  3
ACAD_DIMASSOC
360
20B
  0
DICTIONARY
  5
286
102
{ACAD_REACTORS
330
B
102
}
330
B
100
AcDbDictionary
281
     1
  3
DIMARCSYM
350
288
  3
DIMFXL
350
287
  3
DIMLTEX1
350
28A
  3
DIMLTEX2
350
28B
  3
DIMLTYPE
350
289
  0
DICTIONARY
  5
53
102
{ACAD_REACTORS
330
B
102
}
330
B
100
AcDbDictionary
281
     1
  0
DICTIONARY
  5
40
102
{ACAD_REACTORS
330
B
102
}
330
B
100
AcDbDictionary
281
     1
  0
DICTIONARY
  5
18
102
{ACAD_REACTORS
330
B
102
}
330
B
100
AcDbDictionary
281
     1
  3
Model
350
17
  3
布局1
350
1D
  0
DICTIONARY
  5
D
102
{ACAD_REACTORS
330
B
102
}
330
B
100
AcDbDictionary
281
     1
  3
ByBlock
350
4B
  3
ByLayer
350
43
  3
Global
350
C
  0
DICTIONARY
  5
56
102
{ACAD_REACTORS
330
B
102
}
330
B
100
AcDbDictionary
281
     1
  0
DICTIONARY
  5
41
102
{ACAD_REACTORS
330
B
102
}
330
B
100
AcDbDictionary
281
     1
  3
Standard
350
5B
  0
DICTIONARY
  5
42
102
{ACAD_REACTORS
330
B
102
}
330
B
100
AcDbDictionary
281
     1
  0
ACDBDICTIONARYWDFLT
  5
A
102
{ACAD_REACTORS
330
B
102
}
330
B
100
AcDbDictionary
281
     1
  3
Normal
350
9
100
AcDbDictionaryWithDefault
340
9
  0
DICTIONARY
  5
54
102
{ACAD_REACTORS
330
B
102
}
330
B
100
AcDbDictionary
281
     1
  3
A0
350
60
  3
A1
350
61
  3
A2
350
62
  3
A3
350
63
  3
A4
350
64
  3
A5
350
65
  3
A6
350
66
  3
A7
350
67
  3
A8
350
68
  3
A9
350
69
  3
B0
350
6A
  3
B1
350
6B
  3
B2
350
6C
  3
B3
350
6D
  3
B4
350
6E
  3
B5
350
6F
  3
B6
350
70
  3
B7
350
71
  3
B8
350
72
  3
B9
350
73
  3
C0
350
74
  3
C1
350
75
  3
C2
350
76
  3
C3
350
77
  3
C4
350
78
  3
C5
350
79
  3
C6
350
7A
  3
C7
350
7B
  3
C8
350
7C
  3
C9
350
7D
  3
D0
350
7E
  3
D1
350
7F
  3
D2
350
80
  0
DICTIONARY
  5
55
102
{ACAD_REACTORS
330
B
102
}
330
B
100
AcDbDictionary
281
     1
  3
Standard
350
5C
  0
DICTIONARY
  5
2E
102
{ACAD_REACTORS
330
B
102
}
330
B
100
AcDbDictionary
281
     1
  3
2dWireframe
350
2D
  3
3dWireframe
350
5F
  3
Realistic
350
5E
  0
XRECORD
  5
285
102
{ACAD_REACTORS
330
B
102
}
330
B
100
AcDbXrecord
280
     1
 90
        1
330
5C
  0
DICTIONARY
  5
27B
102
{ACAD_REACTORS
330
B
102
}
330
B
100
AcDbDictionary
281
     1
  3
CANNOSCALE
350
27E
  3
CMLEADERSTYLE
350
27D
  3
CTABLESTYLE
350
27C
  3
DIMASSOC
350
282
  3
HIDETEXT
350
281
  3
INDEXCTL
350
280
  3
SORTENTS
350
27F
  3
XCLIPFRAME
350
283
  0
DICTIONARY
  5
226
102
{ACAD_REACTORS
330
B
102
}
330
B
100
AcDbDictionary
281
     1
  3
AcmStdDictionary
350
227
  0
DICTIONARY
  5
219
102
{ACAD_REACTORS
330
B
102
}
330
B
100
AcDbDictionary
281
     1
  3
AcMgSettings
350
221
  0
DICTIONARY
  5
20
102
{ACAD_REACTORS
330
1F
102
}
330
1F
100
AcDbDictionary
281
     1
  0
DICTIONARY
  5
21
102
{ACAD_REACTORS
330
1F
102
}
330
1F
100
AcDbDictionary
281
     1
  0
XRECORD
  5
8
102
{ACAD_REACTORS
330
7
102
}
330
7
100
AcDbXrecord
280
     1
290
     1
  0
XRECORD
  5
93
102
{ACAD_REACTORS
330
92
102
}
330
92
100
AcDbXrecord
280
     1
290
     1
  0
XRECORD
  5
B9
102
{ACAD_REACTORS
330
B8
102
}
330
B8
100
AcDbXrecord
280
     1
290
     1
  0
XRECORD
  5
88
102
{ACAD_REACTORS
330
87
102
}
330
87
100
AcDbXrecord
280
     1
290
     1
  0
XRECORD
  5
59
102
{ACAD_REACTORS
330
58
102
}
330
58
100
AcDbXrecord
280
     1
290
     1
  0
SORTENTSTABLE
  5
217
102
{ACAD_REACTORS
330
3
102
}
330
3
100
AcDbSortentsTable
330
2
  0
XRECORD
  5
29B
102
{ACAD_REACTORS
330
29A
102
}
330
29A
100
AcDbXrecord
280
     1
 40
31182.0
  1
\A1;\U+2205116mm [\U+22054 5/8"]
  0
XRECORD
  5
29F
102
{ACAD_REACTORS
330
29E
102
}
330
29E
100
AcDbXrecord
280
     1
 40
29368.0
  1
\A1;\U+220591mm [\U+22053 5/8"]
  0
XRECORD
  5
2A1
102
{ACAD_REACTORS
330
2A0
102
}
330
2A0
100
AcDbXrecord
280
     1
 40
31182.0
  1
\A1;\U+2205116mm [\U+22054 5/8"]
  0
XRECORD
  5
29D
102
{ACAD_REACTORS
330
29C
102
}
330
29C
100
AcDbXrecord
280
     1
 40
29368.0
  1
\A1;\U+220591mm [\U+22053 5/8"]
  0
DIMASSOC
  5
180
102
{ACAD_REACTORS
330
17F
102
}
330
17F
100
AcDbDimAssoc
330
17E
 90
        2
 70
     0
 71
     0
  1
AcDbOsnapPointRef
 72
     3
331
17C
 73
     2
 91
        0
 40
0.0
 10
0.0
 20
0.0
 30
0.0
 75
     0
  0
DIMASSOC
  5
1BF
102
{ACAD_REACTORS
330
1BE
102
}
330
1BE
100
AcDbDimAssoc
330
1BD
 90
        2
 70
     0
 71
     0
  1
AcDbOsnapPointRef
 72
     3
331
158
 73
     2
 91
        0
 40
0.0
 10
0.0
 20
0.0
 30
0.0
 75
     0
  0
DIMASSOC
  5
1CB
102
{ACAD_REACTORS
330
1CA
102
}
330
1CA
100
AcDbDimAssoc
330
1C9
 90
        2
 70
     0
 71
     0
  1
AcDbOsnapPointRef
 72
     3
331
1A6
 73
     2
 91
        0
 40
0.0
 10
0.0
 20
0.0
 30
0.0
 75
     0
  0
DIMASSOC
  5
1D6
102
{ACAD_REACTORS
330
1D5
102
}
330
1D5
100
AcDbDimAssoc
330
1D4
 90
        2
 70
     0
 71
     0
  1
AcDbOsnapPointRef
 72
     3
331
B2
 73
     2
 91
        0
 40
0.0
 10
0.0
 20
0.0
 30
0.0
 75
     0
  0
DIMASSOC
  5
1E1
102
{ACAD_REACTORS
330
1E0
102
}
330
1E0
100
AcDbDimAssoc
330
1DF
 90
        3
 70
     0
 71
     0
  1
AcDbOsnapPointRef
 72
    10
331
135
 73
     2
 91
        0
 40
0.5921982567200324
 10
0.0
 20
0.0
 30
0.0
 75
     0
  1
AcDbOsnapPointRef
 72
     8
331
12E
 73
     2
 91
        0
 40
0.5921982567200324
 10
0.0
 20
0.0
 30
0.0
 75
     1
  1
AcDbOsnapPointRef
 72
    10
331
135
 73
     2
 91
        0
 40
0.5921982567200324
 10
0.0
 20
0.0
 30
0.0
 75
     0
  0
DIMASSOC
  5
1F2
102
{ACAD_REACTORS
330
1F1
102
}
330
1F1
100
AcDbDimAssoc
330
1F0
 90
        2
 70
     0
 71
     0
  1
AcDbOsnapPointRef
 72
     3
331
12D
 73
     2
 91
        0
 40
0.0
 10
0.0
 20
0.0
 30
0.0
 75
     0
  0
DIMASSOC
  5
1FD
102
{ACAD_REACTORS
330
1FC
102
}
330
1FC
100
AcDbDimAssoc
330
1FB
 90
        2
 70
     0
 71
     0
  1
AcDbOsnapPointRef
 72
     3
331
E7
 73
     2
 91
        0
 40
0.0
 10
0.0
 20
0.0
 30
0.0
 75
     0
  0
DIMASSOC
  5
20B
102
{ACAD_REACTORS
330
20A
102
}
330
20A
100
AcDbDimAssoc
330
209
 90
        2
 70
     0
 71
     0
  1
AcDbOsnapPointRef
 72
     3
331
E8
 73
     2
 91
        0
 40
0.0
 10
0.0
 20
0.0
 30
0.0
 75
     0
  0
XRECORD
  5
288
102
{ACAD_REACTORS
330
286
102
}
330
286
100
AcDbXrecord
280
     1
 70
     1
  0
XRECORD
  5
287
102
{ACAD_REACTORS
330
286
102
}
330
286
100
AcDbXrecord
280
     1
 40
8.0
  0
XRECORD
  5
28A
102
{ACAD_REACTORS
330
286
102
}
330
286
100
AcDbXrecord
280
     1
340
27
  0
XRECORD
  5
28B
102
{ACAD_REACTORS
330
286
102
}
330
286
100
AcDbXrecord
280
     1
340
27
  0
XRECORD
  5
289
102
{ACAD_REACTORS
330
286
102
}
330
286
100
AcDbXrecord
280
     1
340
27
  0
LAYOUT
  5
17
102
{ACAD_XDICTIONARY
360
28D
102
}
102
{ACAD_REACTORS
330
18
102
}
330
18
100
AcDbPlotSettings
  1

  2
none_device
  4
none_user_media
  6

 40
5.873749732971191
 41
6.805061340332031
 42
5.873748779296875
 43
4.857757568359375
 44
209.9733276367187
 45
296.9259948730469
 46
-5.887085437774658
 47
-5.868412017822265
 48
124402.0633073751
 49
-170527.2282564291
140
127372.0633073751
141
-168427.2282564291
142
1.0
143
10.0
 70
 11940
 72
     1
 73
     1
 74
     4
  7
monochrome.ctb
 75
     0
147
0.1
148
-124402.0633073751
149
170527.2282564291
100
AcDbLayout
  1
Model
 70
     1
 71
     0
 10
0.0
 20
0.0
 11
12.0
 21
9.0
 12
0.0
 22
0.0
 32
0.0
 14
0.0
 24
0.0
 34
0.0
 15
0.0
 25
0.0
 35
0.0
146
0.0
 13
0.0
 23
0.0
 33
0.0
 16
1.0
 26
0.0
 36
0.0
 17
0.0
 27
1.0
 37
0.0
 76
     0
330
2
331
2C
1001
ACAD_PSEXT
1000
无
1000
无
1000
不可用
1000
在选择新的绘图仪配置名称之前，不能打印该布局。
1070
     0
  0
LAYOUT
  5
1D
102
{ACAD_XDICTIONARY
360
28F
102
}
102
{ACAD_REACTORS
330
18
102
}
330
18
100
AcDbPlotSettings
  1

  2
none_device
  4
Letter_(8.50_x_11.00_Inches)
  6

 40
6.349999904632568
 41
6.349999904632568
 42
6.350006103515625
 43
6.350006103515625
 44
215.8999938964844
 45
279.3999938964844
 46
0.0
 47
0.0
 48
0.0
 49
0.0
140
0.0
141
0.0
142
1.0
143
1.0
 70
   688
 72
     0
 73
     1
 74
     5
  7
monochrome.ctb
 75
    16
147
1.0
148
0.0
149
0.0
100
AcDbLayout
  1
布局1
 70
     1
 71
     1
 10
-0.2500002402958907
 20
-0.2499999962453767
 11
10.74999951940821
 21
8.249999763458731
 12
0.0
 22
0.0
 32
0.0
 14
1.049999952316284
 24
0.7999999523162842
 34
0.0
 15
9.449999570846555
 25
7.199999570846556
 35
0.0
146
0.0
 13
0.0
 23
0.0
 33
0.0
 16
1.0
 26
0.0
 36
0.0
 17
0.0
 27
1.0
 37
0.0
 76
     0
330
1A
  0
MATERIAL
  5
4B
102
{ACAD_XDICTIONARY
360
4C
102
}
102
{ACAD_REACTORS
330
D
102
}
330
D
100
AcDbMaterial
  1
ByBlock
 72
     0
 43
0.0208333333333333
 43
0.0
 43
0.0
 43
0.0
 43
0.0
 43
0.0208333333333333
 43
0.0
 43
0.0
 43
0.0
 43
0.0
 43
1.0
 43
0.0
 43
0.0
 43
0.0
 43
0.0
 43
1.0
 77
     0
 47
0.0208333333333333
 47
0.0
 47
0.0
 47
0.0
 47
0.0
 47
0.0208333333333333
 47
0.0
 47
0.0
 47
0.0
 47
0.0
 47
1.0
 47
0.0
 47
0.0
 47
0.0
 47
0.0
 47
1.0
171
     0
 49
0.0208333333333333
 49
0.0
 49
0.0
 49
0.0
 49
0.0
 49
0.0208333333333333
 49
0.0
 49
0.0
 49
0.0
 49
0.0
 49
1.0
 49
0.0
 49
0.0
 49
0.0
 49
0.0
 49
1.0
175
     0
142
0.0208333333333333
142
0.0
142
0.0
142
0.0
142
0.0
142
0.0208333333333333
142
0.0
142
0.0
142
0.0
142
0.0
142
1.0
142
0.0
142
0.0
142
0.0
142
0.0
142
1.0
179
     0
144
0.0208333333333333
144
0.0
144
0.0
144
0.0
144
0.0
144
0.0208333333333333
144
0.0
144
0.0
144
0.0
144
0.0
144
1.0
144
0.0
144
0.0
144
0.0
144
0.0
144
1.0
147
0.0208333333333333
147
0.0
147
0.0
147
0.0
147
0.0
147
0.0208333333333333
147
0.0
147
0.0
147
0.0
147
0.0
147
1.0
147
0.0
147
0.0
147
0.0
147
0.0
147
1.0
  0
MATERIAL
  5
43
102
{ACAD_XDICTIONARY
360
44
102
}
102
{ACAD_REACTORS
330
D
102
}
330
D
100
AcDbMaterial
  1
ByLayer
 72
     0
 43
0.0208333333333333
 43
0.0
 43
0.0
 43
0.0
 43
0.0
 43
0.0208333333333333
 43
0.0
 43
0.0
 43
0.0
 43
0.0
 43
1.0
 43
0.0
 43
0.0
 43
0.0
 43
0.0
 43
1.0
 77
     0
 47
0.0208333333333333
 47
0.0
 47
0.0
 47
0.0
 47
0.0
 47
0.0208333333333333
 47
0.0
 47
0.0
 47
0.0
 47
0.0
 47
1.0
 47
0.0
 47
0.0
 47
0.0
 47
0.0
 47
1.0
171
     0
 49
0.0208333333333333
 49
0.0
 49
0.0
 49
0.0
 49
0.0
 49
0.0208333333333333
 49
0.0
 49
0.0
 49
0.0
 49
0.0
 49
1.0
 49
0.0
 49
0.0
 49
0.0
 49
0.0
 49
1.0
175
     0
142
0.0208333333333333
142
0.0
142
0.0
142
0.0
142
0.0
142
0.0208333333333333
142
0.0
142
0.0
142
0.0
142
0.0
142
1.0
142
0.0
142
0.0
142
0.0
142
0.0
142
1.0
179
     0
144
0.0208333333333333
144
0.0
144
0.0
144
0.0
144
0.0
144
0.0208333333333333
144
0.0
144
0.0
144
0.0
144
0.0
144
1.0
144
0.0
144
0.0
144
0.0
144
0.0
144
1.0
147
0.0208333333333333
147
0.0
147
0.0
147
0.0
147
0.0
147
0.0208333333333333
147
0.0
147
0.0
147
0.0
147
0.0
147
1.0
147
0.0
147
0.0
147
0.0
147
0.0
147
1.0
  0
MATERIAL
  5
C
102
{ACAD_XDICTIONARY
360
E
102
}
102
{ACAD_REACTORS
330
D
102
}
330
D
100
AcDbMaterial
  1
Global
 72
     0
 43
0.0208333333333333
 43
0.0
 43
0.0
 43
0.0
 43
0.0
 43
0.0208333333333333
 43
0.0
 43
0.0
 43
0.0
 43
0.0
 43
1.0
 43
0.0
 43
0.0
 43
0.0
 43
0.0
 43
1.0
 77
     0
 47
0.0208333333333333
 47
0.0
 47
0.0
 47
0.0
 47
0.0
 47
0.0208333333333333
 47
0.0
 47
0.0
 47
0.0
 47
0.0
 47
1.0
 47
0.0
 47
0.0
 47
0.0
 47
0.0
 47
1.0
171
     0
 49
0.0208333333333333
 49
0.0
 49
0.0
 49
0.0
 49
0.0
 49
0.0208333333333333
 49
0.0
 49
0.0
 49
0.0
 49
0.0
 49
1.0
 49
0.0
 49
0.0
 49
0.0
 49
0.0
 49
1.0
175
     0
142
0.0208333333333333
142
0.0
142
0.0
142
0.0
142
0.0
142
0.0208333333333333
142
0.0
142
0.0
142
0.0
142
0.0
142
1.0
142
0.0
142
0.0
142
0.0
142
0.0
142
1.0
179
     0
144
0.0208333333333333
144
0.0
144
0.0
144
0.0
144
0.0
144
0.0208333333333333
144
0.0
144
0.0
144
0.0
144
0.0
144
1.0
144
0.0
144
0.0
144
0.0
144
0.0
144
1.0
147
0.0208333333333333
147
0.0
147
0.0
147
0.0
147
0.0
147
0.0208333333333333
147
0.0
147
0.0
147
0.0
147
0.0
147
1.0
147
0.0
147
0.0
147
0.0
147
0.0
147
1.0
  0
MLINESTYLE
  5
5B
102
{ACAD_REACTORS
330
41
102
}
330
41
100
AcDbMlineStyle
  2
STANDARD
 70
     0
  3

 62
   256
 51
90.0
 52
90.0
 71
     2
 49
0.5
 62
   256
  6
BYLAYER
 49
-0.5
 62
   256
  6
BYLAYER
  0
ACDBPLACEHOLDER
  5
9
102
{ACAD_REACTORS
330
A
102
}
330
A
  0
SCALE
  5
60
102
{ACAD_REACTORS
330
54
102
}
330
54
100
AcDbScale
 70
     0
300
1:1
140
1.0
141
1.0
290
     1
  0
SCALE
  5
61
102
{ACAD_REACTORS
330
54
102
}
330
54
100
AcDbScale
 70
     0
300
1:2
140
1.0
141
2.0
290
     0
  0
SCALE
  5
62
102
{ACAD_REACTORS
330
54
102
}
330
54
100
AcDbScale
 70
     0
300
1:4
140
1.0
141
4.0
290
     0
  0
SCALE
  5
63
102
{ACAD_REACTORS
330
54
102
}
330
54
100
AcDbScale
 70
     0
300
1:5
140
1.0
141
5.0
290
     0
  0
SCALE
  5
64
102
{ACAD_REACTORS
330
54
102
}
330
54
100
AcDbScale
 70
     0
300
1:8
140
1.0
141
8.0
290
     0
  0
SCALE
  5
65
102
{ACAD_REACTORS
330
54
102
}
330
54
100
AcDbScale
 70
     0
300
1:10
140
1.0
141
10.0
290
     0
  0
SCALE
  5
66
102
{ACAD_REACTORS
330
54
102
}
330
54
100
AcDbScale
 70
     0
300
1:16
140
1.0
141
16.0
290
     0
  0
SCALE
  5
67
102
{ACAD_REACTORS
330
54
102
}
330
54
100
AcDbScale
 70
     0
300
1:20
140
1.0
141
20.0
290
     0
  0
SCALE
  5
68
102
{ACAD_REACTORS
330
54
102
}
330
54
100
AcDbScale
 70
     0
300
1:30
140
1.0
141
30.0
290
     0
  0
SCALE
  5
69
102
{ACAD_REACTORS
330
54
102
}
330
54
100
AcDbScale
 70
     0
300
1:40
140
1.0
141
40.0
290
     0
  0
SCALE
  5
6A
102
{ACAD_REACTORS
330
54
102
}
330
54
100
AcDbScale
 70
     0
300
1:50
140
1.0
141
50.0
290
     0
  0
SCALE
  5
6B
102
{ACAD_REACTORS
330
54
102
}
330
54
100
AcDbScale
 70
     0
300
1:100
140
1.0
141
100.0
290
     0
  0
SCALE
  5
6C
102
{ACAD_REACTORS
330
54
102
}
330
54
100
AcDbScale
 70
     0
300
2:1
140
2.0
141
1.0
290
     0
  0
SCALE
  5
6D
102
{ACAD_REACTORS
330
54
102
}
330
54
100
AcDbScale
 70
     0
300
4:1
140
4.0
141
1.0
290
     0
  0
SCALE
  5
6E
102
{ACAD_REACTORS
330
54
102
}
330
54
100
AcDbScale
 70
     0
300
8:1
140
8.0
141
1.0
290
     0
  0
SCALE
  5
6F
102
{ACAD_REACTORS
330
54
102
}
330
54
100
AcDbScale
 70
     0
300
10:1
140
10.0
141
1.0
290
     0
  0
SCALE
  5
70
102
{ACAD_REACTORS
330
54
102
}
330
54
100
AcDbScale
 70
     0
300
100:1
140
100.0
141
1.0
290
     0
  0
SCALE
  5
71
102
{ACAD_REACTORS
330
54
102
}
330
54
100
AcDbScale
 70
     0
300
1/128" = 1'-0"
140
0.0078125
141
12.0
290
     0
  0
SCALE
  5
72
102
{ACAD_REACTORS
330
54
102
}
330
54
100
AcDbScale
 70
     0
300
1/64" = 1'-0"
140
0.015625
141
12.0
290
     0
  0
SCALE
  5
73
102
{ACAD_REACTORS
330
54
102
}
330
54
100
AcDbScale
 70
     0
300
1/32" = 1'-0"
140
0.03125
141
12.0
290
     0
  0
SCALE
  5
74
102
{ACAD_REACTORS
330
54
102
}
330
54
100
AcDbScale
 70
     0
300
1/16" = 1'-0"
140
0.0625
141
12.0
290
     0
  0
SCALE
  5
75
102
{ACAD_REACTORS
330
54
102
}
330
54
100
AcDbScale
 70
     0
300
3/32" = 1'-0"
140
0.09375
141
12.0
290
     0
  0
SCALE
  5
76
102
{ACAD_REACTORS
330
54
102
}
330
54
100
AcDbScale
 70
     0
300
1/8" = 1'-0"
140
0.125
141
12.0
290
     0
  0
SCALE
  5
77
102
{ACAD_REACTORS
330
54
102
}
330
54
100
AcDbScale
 70
     0
300
3/16" = 1'-0"
140
0.1875
141
12.0
290
     0
  0
SCALE
  5
78
102
{ACAD_REACTORS
330
54
102
}
330
54
100
AcDbScale
 70
     0
300
1/4" = 1'-0"
140
0.25
141
12.0
290
     0
  0
SCALE
  5
79
102
{ACAD_REACTORS
330
54
102
}
330
54
100
AcDbScale
 70
     0
300
3/8" = 1'-0"
140
0.375
141
12.0
290
     0
  0
SCALE
  5
7A
102
{ACAD_REACTORS
330
54
102
}
330
54
100
AcDbScale
 70
     0
300
1/2" = 1'-0"
140
0.5
141
12.0
290
     0
  0
SCALE
  5
7B
102
{ACAD_REACTORS
330
54
102
}
330
54
100
AcDbScale
 70
     0
300
3/4" = 1'-0"
140
0.75
141
12.0
290
     0
  0
SCALE
  5
7C
102
{ACAD_REACTORS
330
54
102
}
330
54
100
AcDbScale
 70
     0
300
1" = 1'-0"
140
1.0
141
12.0
290
     0
  0
SCALE
  5
7D
102
{ACAD_REACTORS
330
54
102
}
330
54
100
AcDbScale
 70
     0
300
1-1/2" = 1'-0"
140
1.5
141
12.0
290
     0
  0
SCALE
  5
7E
102
{ACAD_REACTORS
330
54
102
}
330
54
100
AcDbScale
 70
     0
300
3" = 1'-0"
140
3.0
141
12.0
290
     0
  0
SCALE
  5
7F
102
{ACAD_REACTORS
330
54
102
}
330
54
100
AcDbScale
 70
     0
300
6" = 1'-0"
140
6.0
141
12.0
290
     0
  0
SCALE
  5
80
102
{ACAD_REACTORS
330
54
102
}
330
54
100
AcDbScale
 70
     0
300
1'-0" = 1'-0"
140
12.0
141
12.0
290
     0
  0
TABLESTYLE
  5
5C
102
{ACAD_XDICTIONARY
360
5D
102
}
102
{ACAD_REACTORS
330
55
102
}
330
55
100
AcDbTableStyle
  3
Standard
 70
     0
 71
     0
 40
0.06
 41
0.06
280
     0
281
     0
  7
Standard
140
0.18
170
     2
 62
     0
 63
     7
283
     0
274
    -2
284
     1
 64
     0
275
    -2
285
     1
 65
     0
276
    -2
286
     1
 66
     0
277
    -2
287
     1
 67
     0
278
    -2
288
     1
 68
     0
279
    -2
289
     1
 69
     0
  7
Standard
140
0.25
170
     5
 62
     0
 63
     7
283
     0
274
    -2
284
     1
 64
     0
275
    -2
285
     1
 65
     0
276
    -2
286
     1
 66
     0
277
    -2
287
     1
 67
     0
278
    -2
288
     1
 68
     0
279
    -2
289
     1
 69
     0
  7
Standard
140
0.18
170
     5
 62
     0
 63
     7
283
     0
274
    -2
284
     1
 64
     0
275
    -2
285
     1
 65
     0
276
    -2
286
     1
 66
     0
277
    -2
287
     1
 67
     0
278
    -2
288
     1
 68
     0
279
    -2
289
     1
 69
     0
  0
VISUALSTYLE
  5
2D
102
{ACAD_XDICTIONARY
360
291
102
}
102
{ACAD_REACTORS
330
2E
102
}
330
2E
100
AcDbVisualStyle
  2
2dWireframe
 70
     4
 71
     0
 72
     2
 73
     0
 90
        0
 40
-0.6
 41
-30.0
 62
     5
 63
     7
 74
     1
 91
        4
 64
     7
 65
   257
 75
     1
175
     1
 42
1.0
 92
        0
 66
   257
 43
1.0
 76
     1
 77
     6
 78
     2
 67
     7
 79
     5
170
     0
171
     0
290
     0
174
     0
 93
        1
 44
0.0
173
     0
291
     0
 45
0.0
1001
ACAD
1000
AcDbSavedByObjectVersion
1070
     0
  0
VISUALSTYLE
  5
5F
102
{ACAD_XDICTIONARY
360
298
102
}
102
{ACAD_REACTORS
330
2E
102
}
330
2E
100
AcDbVisualStyle
  2
3dWireframe
 70
     5
 71
     0
 72
     2
 73
     0
 90
        0
 40
-0.6
 41
-30.0
 62
     5
 63
     7
 74
     1
 91
        4
 64
     7
 65
   257
 75
     1
175
     1
 42
1.0
 92
        0
 66
   257
 43
1.0
 76
     1
 77
     6
 78
     2
 67
     7
 79
     5
170
     0
171
     0
290
     0
174
     0
 93
        1
 44
0.0
173
     0
291
     0
 45
0.0
1001
ACAD
1000
AcDbSavedByObjectVersion
1070
     0
  0
VISUALSTYLE
  5
5E
102
{ACAD_XDICTIONARY
360
296
102
}
102
{ACAD_REACTORS
330
2E
102
}
330
2E
100
AcDbVisualStyle
  2
Realistic
 70
     8
 71
     2
 72
     2
 73
     0
 90
        0
 40
-0.6
 41
-30.0
 62
     5
 63
     7
 74
     1
 91
        0
 64
     7
 65
   257
 75
     1
175
     1
 42
1.0
 92
        8
 66
     8
 43
1.0
 76
     1
 77
     6
 78
     2
 67
     7
 79
     5
170
     0
171
     0
290
     0
174
     0
 93
       13
 44
0.0
173
     0
291
     0
 45
0.0
1001
ACAD
1000
AcDbSavedByObjectVersion
1070
     0
  0
DICTIONARYVAR
  5
27E
102
{ACAD_REACTORS
330
27B
102
}
330
27B
100
DictionaryVariables
280
     0
  1
1:1
  0
DICTIONARYVAR
  5
27D
102
{ACAD_REACTORS
330
27B
102
}
330
27B
100
DictionaryVariables
280
     0
  1
STANDARD
  0
DICTIONARYVAR
  5
27C
102
{ACAD_REACTORS
330
27B
102
}
330
27B
100
DictionaryVariables
280
     0
  1
STANDARD
  0
DICTIONARYVAR
  5
282
102
{ACAD_REACTORS
330
27B
102
}
330
27B
100
DictionaryVariables
280
     0
  1
2
  0
DICTIONARYVAR
  5
281
102
{ACAD_REACTORS
330
27B
102
}
330
27B
100
DictionaryVariables
280
     0
  1
1
  0
DICTIONARYVAR
  5
280
102
{ACAD_REACTORS
330
27B
102
}
330
27B
100
DictionaryVariables
280
     0
  1
0
  0
DICTIONARYVAR
  5
27F
102
{ACAD_REACTORS
330
27B
102
}
330
27B
100
DictionaryVariables
280
     0
  1
127
  0
DICTIONARYVAR
  5
283
102
{ACAD_REACTORS
330
27B
102
}
330
27B
100
DictionaryVariables
280
     0
  1
2
  0
DICTIONARY
  5
227
102
{ACAD_REACTORS
330
226
102
}
330
226
100
AcDbDictionary
281
     1
  0
DICTIONARY
  5
221
102
{ACAD_REACTORS
330
219
102
}
330
219
100
AcDbDictionary
281
     1
  3
DWGSETTINGS
350
220
  3
TRANSSETTINGS
350
222
  0
DICTIONARY
  5
28D
330
17
100
AcDbDictionary
280
     1
281
     1
  3
ACAD_XREC_ROUNDTRIP
360
28E
  0
DICTIONARY
  5
28F
330
1D
100
AcDbDictionary
280
     1
281
     1
  3
ACAD_XREC_ROUNDTRIP
360
290
  0
DICTIONARY
  5
4C
330
4B
100
AcDbDictionary
280
     1
281
     1
  3
ACAD_XREC_ROUNDTRIP
360
294
  3
BUMPTILE
360
4D
  3
DIFFUSETILE
360
4E
  3
OPACITYTILE
360
4F
  3
REFLECTIONTILE
360
50
  3
REFRACTIONTILE
360
51
  3
SPECULARTILE
360
52
  0
DICTIONARY
  5
44
330
43
100
AcDbDictionary
280
     1
281
     1
  3
ACAD_XREC_ROUNDTRIP
360
293
  3
BUMPTILE
360
45
  3
DIFFUSETILE
360
46
  3
OPACITYTILE
360
47
  3
REFLECTIONTILE
360
48
  3
REFRACTIONTILE
360
49
  3
SPECULARTILE
360
4A
  0
DICTIONARY
  5
E
330
C
100
AcDbDictionary
280
     1
281
     1
  3
ACAD_XREC_ROUNDTRIP
360
28C
  3
BUMPTILE
360
F
  3
DIFFUSETILE
360
10
  3
OPACITYTILE
360
11
  3
REFLECTIONTILE
360
12
  3
REFRACTIONTILE
360
13
  3
SPECULARTILE
360
14
  0
DICTIONARY
  5
5D
330
5C
100
AcDbDictionary
280
     1
281
     1
  3
ACAD_ROUNDTRIP_2008_TABLESTYLE_CELLSTYLEMAP
360
284
  3
ACAD_XREC_ROUNDTRIP
360
295
  0
DICTIONARY
  5
291
330
2D
100
AcDbDictionary
280
     1
281
     1
  3
ACAD_XREC_ROUNDTRIP
360
292
  0
DICTIONARY
  5
298
330
5F
100
AcDbDictionary
280
     1
281
     1
  3
ACAD_XREC_ROUNDTRIP
360
299
  0
DICTIONARY
  5
296
330
5E
100
AcDbDictionary
280
     1
281
     1
  3
ACAD_XREC_ROUNDTRIP
360
297
  0
XRECORD
  5
28E
102
{ACAD_REACTORS
330
28D
102
}
330
28D
100
AcDbXrecord
280
     1
102
SHADEPLOT
 70
     0
102
SHADEPLOTRESLEVEL
 70
     2
102
SHADEPLOTCUSTOMDPI
 70
   300
  0
XRECORD
  5
290
102
{ACAD_REACTORS
330
28F
102
}
330
28F
100
AcDbXrecord
280
     1
102
SHADEPLOT
 70
     0
102
SHADEPLOTRESLEVEL
 70
     2
102
SHADEPLOTCUSTOMDPI
 70
   300
  0
XRECORD
  5
294
102
{ACAD_REACTORS
330
4C
102
}
330
4C
100
AcDbXrecord
280
     1
102
MATERIAL
148
0.0
149
0.0
149
0.0
 93
        0
 94
      127
282
     0
 72
     0
 77
     0
171
     0
175
     0
179
     0
273
     0
  0
XRECORD
  5
4D
102
{ACAD_REACTORS
330
4C
102
}
330
4C
100
AcDbXrecord
280
     1
270
     1
271
     1
  0
XRECORD
  5
4E
102
{ACAD_REACTORS
330
4C
102
}
330
4C
100
AcDbXrecord
280
     1
270
     1
271
     1
  0
XRECORD
  5
4F
102
{ACAD_REACTORS
330
4C
102
}
330
4C
100
AcDbXrecord
280
     1
270
     1
271
     1
  0
XRECORD
  5
50
102
{ACAD_REACTORS
330
4C
102
}
330
4C
100
AcDbXrecord
280
     1
270
     1
271
     1
  0
XRECORD
  5
51
102
{ACAD_REACTORS
330
4C
102
}
330
4C
100
AcDbXrecord
280
     1
270
     1
271
     1
  0
XRECORD
  5
52
102
{ACAD_REACTORS
330
4C
102
}
330
4C
100
AcDbXrecord
280
     1
270
     1
271
     1
  0
XRECORD
  5
293
102
{ACAD_REACTORS
330
44
102
}
330
44
100
AcDbXrecord
280
     1
102
MATERIAL
148
0.0
149
0.0
149
0.0
 93
        0
 94
      127
282
     0
 72
     0
 77
     0
171
     0
175
     0
179
     0
273
     0
  0
XRECORD
  5
45
102
{ACAD_REACTORS
330
44
102
}
330
44
100
AcDbXrecord
280
     1
270
     1
271
     1
  0
XRECORD
  5
46
102
{ACAD_REACTORS
330
44
102
}
330
44
100
AcDbXrecord
280
     1
270
     1
271
     1
  0
XRECORD
  5
47
102
{ACAD_REACTORS
330
44
102
}
330
44
100
AcDbXrecord
280
     1
270
     1
271
     1
  0
XRECORD
  5
48
102
{ACAD_REACTORS
330
44
102
}
330
44
100
AcDbXrecord
280
     1
270
     1
271
     1
  0
XRECORD
  5
49
102
{ACAD_REACTORS
330
44
102
}
330
44
100
AcDbXrecord
280
     1
270
     1
271
     1
  0
XRECORD
  5
4A
102
{ACAD_REACTORS
330
44
102
}
330
44
100
AcDbXrecord
280
     1
270
     1
271
     1
  0
XRECORD
  5
28C
102
{ACAD_REACTORS
330
E
102
}
330
E
100
AcDbXrecord
280
     1
102
MATERIAL
148
0.0
149
0.0
149
0.0
 93
        0
 94
      127
282
     0
 72
     0
 77
     0
171
     0
175
     0
179
     0
273
     0
  0
XRECORD
  5
F
102
{ACAD_REACTORS
330
E
102
}
330
E
100
AcDbXrecord
280
     1
270
     1
271
     1
  0
XRECORD
  5
10
102
{ACAD_REACTORS
330
E
102
}
330
E
100
AcDbXrecord
280
     1
270
     1
271
     1
  0
XRECORD
  5
11
102
{ACAD_REACTORS
330
E
102
}
330
E
100
AcDbXrecord
280
     1
270
     1
271
     1
  0
XRECORD
  5
12
102
{ACAD_REACTORS
330
E
102
}
330
E
100
AcDbXrecord
280
     1
270
     1
271
     1
  0
XRECORD
  5
13
102
{ACAD_REACTORS
330
E
102
}
330
E
100
AcDbXrecord
280
     1
270
     1
271
     1
  0
XRECORD
  5
14
102
{ACAD_REACTORS
330
E
102
}
330
E
100
AcDbXrecord
280
     1
270
     1
271
     1
  0
CELLSTYLEMAP
  5
284
102
{ACAD_REACTORS
330
5D
102
}
330
5D
100
AcDbCellStyleMap
 90
        3
300
CELLSTYLE
  1
TABLEFORMAT_BEGIN
 90
        5
170
     1
 91
        0
 92
    32768
 62
   257
 93
        1
300
CONTENTFORMAT
  1
CONTENTFORMAT_BEGIN
 90
        0
 91
        0
 92
        4
 93
        0
300

 40
0.0
140
1.0
 94
        5
 62
     0
340
23
144
0.25
309
CONTENTFORMAT_END
171
     1
301
MARGIN
  1
CELLMARGIN_BEGIN
 40
0.06
 40
0.06
 40
0.06
 40
0.06
 40
0.18
 40
0.18
309
CELLMARGIN_END
 94
        6
 95
        1
302
GRIDFORMAT
  1
GRIDFORMAT_BEGIN
 90
        0
 91
        1
 62
     0
 92
       -2
340
0
 93
        0
 40
0.045
309
GRIDFORMAT_END
 95
        2
302
GRIDFORMAT
  1
GRIDFORMAT_BEGIN
 90
        0
 91
        1
 62
     0
 92
       -2
340
0
 93
        0
 40
0.045
309
GRIDFORMAT_END
 95
        4
302
GRIDFORMAT
  1
GRIDFORMAT_BEGIN
 90
        0
 91
        1
 62
     0
 92
       -2
340
0
 93
        0
 40
0.045
309
GRIDFORMAT_END
 95
        8
302
GRIDFORMAT
  1
GRIDFORMAT_BEGIN
 90
        0
 91
        1
 62
     0
 92
       -2
340
0
 93
        0
 40
0.045
309
GRIDFORMAT_END
 95
       16
302
GRIDFORMAT
  1
GRIDFORMAT_BEGIN
 90
        0
 91
        1
 62
     0
 92
       -2
340
0
 93
        0
 40
0.045
309
GRIDFORMAT_END
 95
       32
302
GRIDFORMAT
  1
GRIDFORMAT_BEGIN
 90
        0
 91
        1
 62
     0
 92
       -2
340
0
 93
        0
 40
0.045
309
GRIDFORMAT_END
309
TABLEFORMAT_END
  1
CELLSTYLE_BEGIN
 90
        1
 91
        1
300
_TITLE
309
CELLSTYLE_END
300
CELLSTYLE
  1
TABLEFORMAT_BEGIN
 90
        5
170
     1
 91
        0
 92
        0
 62
   257
 93
        1
300
CONTENTFORMAT
  1
CONTENTFORMAT_BEGIN
 90
        0
 91
        0
 92
        4
 93
        0
300

 40
0.0
140
1.0
 94
        5
 62
     0
340
23
144
0.18
309
CONTENTFORMAT_END
171
     1
301
MARGIN
  1
CELLMARGIN_BEGIN
 40
0.06
 40
0.06
 40
0.06
 40
0.06
 40
0.18
 40
0.18
309
CELLMARGIN_END
 94
        6
 95
        1
302
GRIDFORMAT
  1
GRIDFORMAT_BEGIN
 90
        0
 91
        1
 62
     0
 92
       -2
340
0
 93
        0
 40
0.045
309
GRIDFORMAT_END
 95
        2
302
GRIDFORMAT
  1
GRIDFORMAT_BEGIN
 90
        0
 91
        1
 62
     0
 92
       -2
340
0
 93
        0
 40
0.045
309
GRIDFORMAT_END
 95
        4
302
GRIDFORMAT
  1
GRIDFORMAT_BEGIN
 90
        0
 91
        1
 62
     0
 92
       -2
340
0
 93
        0
 40
0.045
309
GRIDFORMAT_END
 95
        8
302
GRIDFORMAT
  1
GRIDFORMAT_BEGIN
 90
        0
 91
        1
 62
     0
 92
       -2
340
0
 93
        0
 40
0.045
309
GRIDFORMAT_END
 95
       16
302
GRIDFORMAT
  1
GRIDFORMAT_BEGIN
 90
        0
 91
        1
 62
     0
 92
       -2
340
0
 93
        0
 40
0.045
309
GRIDFORMAT_END
 95
       32
302
GRIDFORMAT
  1
GRIDFORMAT_BEGIN
 90
        0
 91
        1
 62
     0
 92
       -2
340
0
 93
        0
 40
0.045
309
GRIDFORMAT_END
309
TABLEFORMAT_END
  1
CELLSTYLE_BEGIN
 90
        2
 91
        1
300
_HEADER
309
CELLSTYLE_END
300
CELLSTYLE
  1
TABLEFORMAT_BEGIN
 90
        5
170
     1
 91
        0
 92
        0
 62
   257
 93
        1
300
CONTENTFORMAT
  1
CONTENTFORMAT_BEGIN
 90
        0
 91
        0
 92
        4
 93
        0
300

 40
0.0
140
1.0
 94
        2
 62
     0
340
23
144
0.18
309
CONTENTFORMAT_END
171
     1
301
MARGIN
  1
CELLMARGIN_BEGIN
 40
0.06
 40
0.06
 40
0.06
 40
0.06
 40
0.18
 40
0.18
309
CELLMARGIN_END
 94
        6
 95
        1
302
GRIDFORMAT
  1
GRIDFORMAT_BEGIN
 90
        0
 91
        1
 62
     0
 92
       -2
340
0
 93
        0
 40
0.045
309
GRIDFORMAT_END
 95
        2
302
GRIDFORMAT
  1
GRIDFORMAT_BEGIN
 90
        0
 91
        1
 62
     0
 92
       -2
340
0
 93
        0
 40
0.045
309
GRIDFORMAT_END
 95
        4
302
GRIDFORMAT
  1
GRIDFORMAT_BEGIN
 90
        0
 91
        1
 62
     0
 92
       -2
340
0
 93
        0
 40
0.045
309
GRIDFORMAT_END
 95
        8
302
GRIDFORMAT
  1
GRIDFORMAT_BEGIN
 90
        0
 91
        1
 62
     0
 92
       -2
340
0
 93
        0
 40
0.045
309
GRIDFORMAT_END
 95
       16
302
GRIDFORMAT
  1
GRIDFORMAT_BEGIN
 90
        0
 91
        1
 62
     0
 92
       -2
340
0
 93
        0
 40
0.045
309
GRIDFORMAT_END
 95
       32
302
GRIDFORMAT
  1
GRIDFORMAT_BEGIN
 90
        0
 91
        1
 62
     0
 92
       -2
340
0
 93
        0
 40
0.045
309
GRIDFORMAT_END
309
TABLEFORMAT_END
  1
CELLSTYLE_BEGIN
 90
        3
 91
        2
300
_DATA
309
CELLSTYLE_END
  0
XRECORD
  5
295
102
{ACAD_REACTORS
330
5D
102
}
330
5D
100
AcDbXrecord
280
     1
102
ACAD_ROUNDTRIP_PRE2007_TABLESTYLE
 90
        4
 91
        0
  1

 92
        4
 93
        0
  2

 94
        4
 95
        0
  3

  0
XRECORD
  5
292
102
{ACAD_REACTORS
330
291
102
}
330
291
100
AcDbXrecord
280
     1
102
RTVSPropertyOp0
 70
     1
102
RTVSPropertyOp1
 70
     1
102
RTVSPropertyOp2
 70
     1
102
RTVSPropertyOp3
 70
     1
102
RTVSPropertyOp4
 70
     1
102
RTVSPropertyOp5
 70
     1
102
RTVSPropertyOp6
 70
     1
102
RTVSPropertyOp7
 70
     1
102
RTVSPropertyOp8
 70
     1
102
RTVSPropertyOp9
 70
     1
102
RTVSPropertyOp10
 70
     1
102
RTVSPropertyOp11
 70
     1
102
RTVSPropertyOp12
 70
     1
102
RTVSPropertyOp13
 70
     1
102
RTVSPropertyOp14
 70
     1
102
RTVSPropertyOp15
 70
     1
102
RTVSPropertyOp16
 70
     1
102
RTVSPropertyOp17
 70
     1
102
RTVSPropertyOp18
 70
     1
102
RTVSPropertyOp19
 70
     1
102
RTVSPropertyOp20
 70
     1
102
RTVSPropertyOp21
 70
     1
102
RTVSPropertyOp22
 70
     1
102
RTVSPropertyOp23
 70
     1
102
RTVSPropertyOp24
 70
     1
102
RTVSPropertyOp25
 70
     1
102
RTVSPropertyOp26
 70
     1
102
RTVSPropertyOp27
 70
     1
  0
XRECORD
  5
299
102
{ACAD_REACTORS
330
298
102
}
330
298
100
AcDbXrecord
280
     1
102
RTVSPropertyOp0
 70
     1
102
RTVSPropertyOp1
 70
     1
102
RTVSPropertyOp2
 70
     1
102
RTVSPropertyOp3
 70
     1
102
RTVSPropertyOp4
 70
     1
102
RTVSPropertyOp5
 70
     1
102
RTVSPropertyOp6
 70
     1
102
RTVSPropertyOp7
 70
     1
102
RTVSPropertyOp8
 70
     1
102
RTVSPropertyOp9
 70
     1
102
RTVSPropertyOp10
 70
     1
102
RTVSPropertyOp11
 70
     1
102
RTVSPropertyOp12
 70
     1
102
RTVSPropertyOp13
 70
     1
102
RTVSPropertyOp14
 70
     1
102
RTVSPropertyOp15
 70
     1
102
RTVSPropertyOp16
 70
     1
102
RTVSPropertyOp17
 70
     1
102
RTVSPropertyOp18
 70
     1
102
RTVSPropertyOp19
 70
     1
102
RTVSPropertyOp20
 70
     1
102
RTVSPropertyOp21
 70
     1
102
RTVSPropertyOp22
 70
     1
102
RTVSPropertyOp23
 70
     1
102
RTVSPropertyOp24
 70
     1
102
RTVSPropertyOp25
 70
     1
102
RTVSPropertyOp26
 70
     1
102
RTVSPropertyOp27
 70
     1
  0
XRECORD
  5
297
102
{ACAD_REACTORS
330
296
102
}
330
296
100
AcDbXrecord
280
     1
102
RTVSPropertyOp0
 70
     1
102
RTVSPropertyOp1
 70
     1
102
RTVSPropertyOp2
 70
     1
102
RTVSPropertyOp3
 70
     1
102
RTVSPropertyOp4
 70
     1
102
RTVSPropertyOp5
 70
     1
102
RTVSPropertyOp6
 70
     1
102
RTVSPropertyOp7
 70
     1
102
RTVSPropertyOp8
 70
     1
102
RTVSPropertyOp9
 70
     1
102
RTVSPropertyOp10
 70
     1
102
RTVSPropertyOp11
 70
     1
102
RTVSPropertyOp12
 70
     1
102
RTVSPropertyOp13
 70
     1
102
RTVSPropertyOp14
 70
     1
102
RTVSPropertyOp15
 70
     1
102
RTVSPropertyOp16
 70
     1
102
RTVSPropertyOp17
 70
     1
102
RTVSPropertyOp18
 70
     1
102
RTVSPropertyOp19
 70
     1
102
RTVSPropertyOp20
 70
     1
102
RTVSPropertyOp21
 70
     1
102
RTVSPropertyOp22
 70
     1
102
RTVSPropertyOp23
 70
     1
102
RTVSPropertyOp24
 70
     1
102
RTVSPropertyOp25
 70
     1
102
RTVSPropertyOp26
 70
     1
102
RTVSPropertyOp27
 70
     1
  0
ENDSEC
  0
EOF
