  0
SECTION
  2
HEADER
  9
$ACADVER
  1
AC1015
  9
$ACADMAINTVER
 70
    20
  9
$DWGCODEPAGE
  3
ANSI_936
  9
$INSBASE
 10
0.0
 20
0.0
 30
0.0
  9
$EXTMIN
 10
68.66195544070206
 20
-11.58124520265175
 30
-0.0015258207003583
  9
$EXTMAX
 10
572.6606201998163
 20
344.5723359624316
 30
0.0000000349246037
  9
$LIMMIN
 10
0.0
 20
0.0
  9
$LIMMAX
 10
420.0
 20
297.0
  9
$ORTHOMODE
 70
     1
  9
$REGENMODE
 70
     1
  9
$FILLMODE
 70
     1
  9
$QTEXTMODE
 70
     0
  9
$MIRRTEXT
 70
     0
  9
$LTSCALE
 40
2.0
  9
$ATTMODE
 70
     1
  9
$TEXTSIZE
 40
2.5
  9
$TRACEWID
 40
1.0
  9
$TEXTSTYLE
  7
Standard
  9
$CLAYER
  8
0
  9
$CELTYPE
  6
ByLayer
  9
$CECOLOR
 62
   256
  9
$CELTSCALE
 40
1.0
  9
$DISPSILH
 70
     0
  9
$DIMSCALE
 40
1.0
  9
$DIMASZ
 40
10.0
  9
$DIMEXO
 40
0.625
  9
$DIMDLI
 40
3.75
  9
$DIMRND
 40
0.0
  9
$DIMDLE
 40
0.0
  9
$DIMEXE
 40
1.25
  9
$DIMTP
 40
0.0
  9
$DIMTM
 40
0.0
  9
$DIMTXT
 40
10.0
  9
$DIMCEN
 40
1.0
  9
$DIMTSZ
 40
0.0
  9
$DIMTOL
 70
     0
  9
$DIMLIM
 70
     0
  9
$DIMTIH
 70
     0
  9
$DIMTOH
 70
     0
  9
$DIMSE1
 70
     0
  9
$DIMSE2
 70
     0
  9
$DIMTAD
 70
     1
  9
$DIMZIN
 70
     8
  9
$DIMBLK
  1

  9
$DIMASO
 70
     1
  9
$DIMSHO
 70
     1
  9
$DIMPOST
  1
"
  9
$DIMAPOST
  1
mm
  9
$DIMALT
 70
     1
  9
$DIMALTD
 70
     0
  9
$DIMALTF
 40
25.4
  9
$DIMLFAC
 40
0.03937
  9
$DIMTOFL
 70
     1
  9
$DIMTVP
 40
0.0
  9
$DIMTIX
 70
     0
  9
$DIMSOXD
 70
     0
  9
$DIMSAH
 70
     0
  9
$DIMBLK1
  1

  9
$DIMBLK2
  1

  9
$DIMSTYLE
  2
副本 ISO-25
  9
$DIMCLRD
 70
     0
  9
$DIMCLRE
 70
     0
  9
$DIMCLRT
 70
     0
  9
$DIMTFAC
 40
1.0
  9
$DIMGAP
 40
0.625
  9
$DIMJUST
 70
     0
  9
$DIMSD1
 70
     0
  9
$DIMSD2
 70
     0
  9
$DIMTOLJ
 70
     0
  9
$DIMTZIN
 70
     8
  9
$DIMALTZ
 70
     0
  9
$DIMALTTZ
 70
     0
  9
$DIMUPT
 70
     0
  9
$DIMDEC
 70
     3
  9
$DIMTDEC
 70
     3
  9
$DIMALTU
 70
     2
  9
$DIMALTTD
 70
     0
  9
$DIMTXSTY
  7
Standard
  9
$DIMAUNIT
 70
     0
  9
$DIMADEC
 70
     0
  9
$DIMALTRND
 40
0.0
  9
$DIMAZIN
 70
     0
  9
$DIMDSEP
 70
    46
  9
$DIMATFIT
 70
     3
  9
$DIMFRAC
 70
     2
  9
$DIMLDRBLK
  1

  9
$DIMLUNIT
 70
     5
  9
$DIMLWD
 70
    -2
  9
$DIMLWE
 70
    -2
  9
$DIMTMOVE
 70
     0
  9
$LUNITS
 70
     2
  9
$LUPREC
 70
     4
  9
$SKETCHINC
 40
1.0
  9
$FILLETRAD
 40
25.0
  9
$AUNITS
 70
     0
  9
$AUPREC
 70
     0
  9
$MENU
  1
.
  9
$ELEVATION
 40
0.0
  9
$PELEVATION
 40
0.0
  9
$THICKNESS
 40
0.0
  9
$LIMCHECK
 70
     0
  9
$CHAMFERA
 40
0.0
  9
$CHAMFERB
 40
0.0
  9
$CHAMFERC
 40
0.0
  9
$CHAMFERD
 40
0.0
  9
$SKPOLY
 70
     0
  9
$TDCREATE
 40
2456023.449896319
  9
$TDUCREATE
 40
2456023.116562986
  9
$TDUPDATE
 40
2456667.705349560
  9
$TDUUPDATE
 40
2456667.372016227
  9
$TDINDWG
 40
0.3061187847
  9
$TDUSRTIMER
 40
0.3061171528
  9
$USRTIMER
 70
     1
  9
$ANGBASE
 50
0.0
  9
$ANGDIR
 70
     0
  9
$PDMODE
 70
     0
  9
$PDSIZE
 40
0.0
  9
$PLINEWID
 40
0.0
  9
$SPLFRAME
 70
     0
  9
$SPLINETYPE
 70
     6
  9
$SPLINESEGS
 70
     8
  9
$HANDSEED
  5
178A
  9
$SURFTAB1
 70
     6
  9
$SURFTAB2
 70
     6
  9
$SURFTYPE
 70
     6
  9
$SURFU
 70
     6
  9
$SURFV
 70
     6
  9
$UCSBASE
  2

  9
$UCSNAME
  2

  9
$UCSORG
 10
0.0
 20
0.0
 30
0.0
  9
$UCSXDIR
 10
1.0
 20
0.0
 30
0.0
  9
$UCSYDIR
 10
0.0
 20
1.0
 30
0.0
  9
$UCSORTHOREF
  2

  9
$UCSORTHOVIEW
 70
     0
  9
$UCSORGTOP
 10
0.0
 20
0.0
 30
0.0
  9
$UCSORGBOTTOM
 10
0.0
 20
0.0
 30
0.0
  9
$UCSORGLEFT
 10
0.0
 20
0.0
 30
0.0
  9
$UCSORGRIGHT
 10
0.0
 20
0.0
 30
0.0
  9
$UCSORGFRONT
 10
0.0
 20
0.0
 30
0.0
  9
$UCSORGBACK
 10
0.0
 20
0.0
 30
0.0
  9
$PUCSBASE
  2

  9
$PUCSNAME
  2

  9
$PUCSORG
 10
0.0
 20
0.0
 30
0.0
  9
$PUCSXDIR
 10
1.0
 20
0.0
 30
0.0
  9
$PUCSYDIR
 10
0.0
 20
1.0
 30
0.0
  9
$PUCSORTHOREF
  2

  9
$PUCSORTHOVIEW
 70
     0
  9
$PUCSORGTOP
 10
0.0
 20
0.0
 30
0.0
  9
$PUCSORGBOTTOM
 10
0.0
 20
0.0
 30
0.0
  9
$PUCSORGLEFT
 10
0.0
 20
0.0
 30
0.0
  9
$PUCSORGRIGHT
 10
0.0
 20
0.0
 30
0.0
  9
$PUCSORGFRONT
 10
0.0
 20
0.0
 30
0.0
  9
$PUCSORGBACK
 10
0.0
 20
0.0
 30
0.0
  9
$USERI1
 70
     0
  9
$USERI2
 70
     0
  9
$USERI3
 70
     0
  9
$USERI4
 70
     0
  9
$USERI5
 70
     0
  9
$USERR1
 40
0.0
  9
$USERR2
 40
0.0
  9
$USERR3
 40
0.0
  9
$USERR4
 40
0.0
  9
$USERR5
 40
0.0
  9
$WORLDVIEW
 70
     1
  9
$SHADEDGE
 70
     3
  9
$SHADEDIF
 70
    70
  9
$TILEMODE
 70
     1
  9
$MAXACTVP
 70
    64
  9
$PINSBASE
 10
0.0
 20
0.0
 30
0.0
  9
$PLIMCHECK
 70
     0
  9
$PEXTMIN
 10
0.0
 20
0.0
 30
0.0
  9
$PEXTMAX
 10
0.0
 20
0.0
 30
0.0
  9
$PLIMMIN
 10
0.0
 20
0.0
  9
$PLIMMAX
 10
12.0
 20
9.0
  9
$UNITMODE
 70
     0
  9
$VISRETAIN
 70
     1
  9
$PLINEGEN
 70
     0
  9
$PSLTSCALE
 70
     1
  9
$TREEDEPTH
 70
  3020
  9
$CMLSTYLE
  2
Standard
  9
$CMLJUST
 70
     0
  9
$CMLSCALE
 40
20.0
  9
$PROXYGRAPHICS
 70
     1
  9
$MEASUREMENT
 70
     1
  9
$CELWEIGHT
370
    -1
  9
$ENDCAPS
280
     0
  9
$JOINSTYLE
280
     0
  9
$LWDISPLAY
290
     0
  9
$INSUNITS
 70
     4
  9
$HYPERLINKBASE
  1

  9
$STYLESHEET
  1

  9
$XEDIT
290
     1
  9
$CEPSNTYPE
380
     0
  9
$PSTYLEMODE
290
     1
  9
$FINGERPRINTGUID
  2
{69FDC22C-C2FE-4EC0-BAF4-2C46C8734056}
  9
$VERSIONGUID
  2
{A4E72B9A-3909-4B9E-9B72-291A9E3B9867}
  9
$EXTNAMES
290
     1
  9
$PSVPSCALE
 40
0.0
  9
$OLESTARTUP
290
     0
  0
ENDSEC
  0
SECTION
  2
CLASSES
  0
CLASS
  1
ACDBDICTIONARYWDFLT
  2
AcDbDictionaryWithDefault
  3
ObjectDBX Classes
 90
        0
280
     0
281
     0
  0
CLASS
  1
DICTIONARYVAR
  2
AcDbDictionaryVar
  3
ObjectDBX Classes
 90
        0
280
     0
281
     0
  0
CLASS
  1
TABLESTYLE
  2
AcDbTableStyle
  3
ObjectDBX Classes
 90
     4095
280
     0
281
     0
  0
CLASS
  1
MATERIAL
  2
AcDbMaterial
  3
ObjectDBX Classes
 90
     1153
280
     0
281
     0
  0
CLASS
  1
VISUALSTYLE
  2
AcDbVisualStyle
  3
ObjectDBX Classes
 90
     4095
280
     0
281
     0
  0
CLASS
  1
SCALE
  2
AcDbScale
  3
ObjectDBX Classes
 90
     1153
280
     0
281
     0
  0
CLASS
  1
MLEADERSTYLE
  2
AcDbMLeaderStyle
  3
ACDB_MLEADERSTYLE_CLASS
 90
     4095
280
     0
281
     0
  0
CLASS
  1
CELLSTYLEMAP
  2
AcDbCellStyleMap
  3
ObjectDBX Classes
 90
     1152
280
     0
281
     0
  0
CLASS
  1
EXACXREFPANELOBJECT
  2
ExAcXREFPanelObject
  3
EXAC_ESW
 90
    33793
280
     0
281
     0
  0
CLASS
  1
NPOCOLLECTION
  2
AcDbImpNonPersistentObjectsCollection
  3
ObjectDBX Classes
 90
    33921
280
     0
281
     0
  0
CLASS
  1
LAYER_INDEX
  2
AcDbLayerIndex
  3
ObjectDBX Classes
 90
    32768
280
     0
281
     0
  0
CLASS
  1
SPATIAL_INDEX
  2
AcDbSpatialIndex
  3
ObjectDBX Classes
 90
    32768
280
     0
281
     0
  0
CLASS
  1
IDBUFFER
  2
AcDbIdBuffer
  3
ObjectDBX Classes
 90
    32768
280
     0
281
     0
  0
CLASS
  1
SORTENTSTABLE
  2
AcDbSortentsTable
  3
ObjectDBX Classes
 90
        0
280
     0
281
     0
  0
CLASS
  1
DIMASSOC
  2
AcDbDimAssoc
  3
"AcDbDimAssoc|Product Desc:     AcDim ARX App For Dimension|Company:          Autodesk, Inc.|WEB Address:      www.autodesk.com"
 90
        0
280
     0
281
     0
  0
CLASS
  1
RASTERVARIABLES
  2
AcDbRasterVariables
  3
ISM
 90
        0
280
     0
281
     0
  0
CLASS
  1
IMAGEDEF
  2
AcDbRasterImageDef
  3
ISM
 90
        0
280
     0
281
     0
  0
CLASS
  1
IMAGEDEF_REACTOR
  2
AcDbRasterImageDefReactor
  3
ISM
 90
        1
280
     0
281
     0
  0
CLASS
  1
IMAGE
  2
AcDbRasterImage
  3
ISM
 90
     2175
280
     0
281
     1
  0
CLASS
  1
ACDBPLACEHOLDER
  2
AcDbPlaceHolder
  3
ObjectDBX Classes
 90
        0
280
     0
281
     0
  0
CLASS
  1
LAYOUT
  2
AcDbLayout
  3
ObjectDBX Classes
 90
        0
280
     0
281
     0
  0
ENDSEC
  0
SECTION
  2
TABLES
  0
TABLE
  2
VPORT
  5
8
102
{ACAD_XDICTIONARY
360
6EA
102
}
330
0
100
AcDbSymbolTable
 70
     1
  0
VPORT
  5
EA
330
8
100
AcDbSymbolTableRecord
100
AcDbViewportTableRecord
  2
*Active
 70
     0
 10
0.0
 20
0.0
 11
1.0
 21
1.0
 12
302.5329237590728
 22
94.58393635271795
 13
0.0
 23
0.0
 14
10.0
 24
10.0
 15
10.0
 25
10.0
 16
0.0
 26
0.0
 36
1.0
 17
0.0
 27
0.0
 37
0.0
 40
510.9099125376347
 41
2.743380855397148
 42
50.0
 43
0.0
 44
0.0
 50
0.0
 51
0.0
 71
     0
 72
  1000
 73
     1
 74
     3
 75
     0
 76
     0
 77
     0
 78
     0
281
     0
 65
     1
110
0.0
120
0.0
130
0.0
111
1.0
121
0.0
131
0.0
112
0.0
122
1.0
132
0.0
 79
     0
146
0.0
  0
ENDTAB
  0
TABLE
  2
LTYPE
  5
5
330
0
100
AcDbSymbolTable
 70
     4
  0
LTYPE
  5
14
330
5
100
AcDbSymbolTableRecord
100
AcDbLinetypeTableRecord
  2
ByBlock
 70
     0
  3

 72
    65
 73
     0
 40
0.0
  0
LTYPE
  5
15
330
5
100
AcDbSymbolTableRecord
100
AcDbLinetypeTableRecord
  2
ByLayer
 70
     0
  3

 72
    65
 73
     0
 40
0.0
  0
LTYPE
  5
16
330
5
100
AcDbSymbolTableRecord
100
AcDbLinetypeTableRecord
  2
Continuous
 70
     0
  3
Solid line
 72
    65
 73
     0
 40
0.0
  0
LTYPE
  5
226
330
5
100
AcDbSymbolTableRecord
100
AcDbLinetypeTableRecord
  2
ACAD_ISO02W100
 70
     0
  3
ISO dash __ __ __ __ __ __ __ __ __ __ __ __ __
 72
    65
 73
     2
 40
15.0
 49
12.0
 74
     0
 49
-3.0
 74
     0
  0
LTYPE
  5
3CA
330
5
100
AcDbSymbolTableRecord
100
AcDbLinetypeTableRecord
  2
ACAD_ISO07W100
 70
     0
  3
ISO dot . . . . . . . . . . . . . . . . . . . .
 72
    65
 73
     2
 40
3.0
 49
0.0
 74
     0
 49
-3.0
 74
     0
  0
LTYPE
  5
3CB
330
5
100
AcDbSymbolTableRecord
100
AcDbLinetypeTableRecord
  2
ACAD_ISO03W100
 70
     0
  3
ISO dash space __    __    __    __    __    __
 72
    65
 73
     2
 40
30.0
 49
12.0
 74
     0
 49
-18.0
 74
     0
  0
ENDTAB
  0
TABLE
  2
LAYER
  5
2
102
{ACAD_XDICTIONARY
360
1FF
102
}
330
0
100
AcDbSymbolTable
 70
     2
  0
LAYER
  5
10
102
{ACAD_XDICTIONARY
360
13C
102
}
330
2
100
AcDbSymbolTableRecord
100
AcDbLayerTableRecord
  2
0
 70
     0
 62
     7
  6
Continuous
370
    -3
390
F
  0
LAYER
  5
229
330
2
100
AcDbSymbolTableRecord
100
AcDbLayerTableRecord
  2
Defpoints
 70
     0
 62
     7
  6
Continuous
290
     0
370
    -3
390
F
  0
ENDTAB
  0
TABLE
  2
STYLE
  5
3
330
0
100
AcDbSymbolTable
 70
     5
  0
STYLE
  5
11
330
3
100
AcDbSymbolTableRecord
100
AcDbTextStyleTableRecord
  2
Standard
 70
     0
 40
0.0
 41
1.0
 50
0.0
 71
     0
 42
2.5
  3
ARIALUNI.TTF
  4

1001
ACAD
1000
@Arial Unicode MS
1071
    34338
  0
STYLE
  5
132
330
3
100
AcDbSymbolTableRecord
100
AcDbTextStyleTableRecord
  2
Annotative
 70
     0
 40
0.0
 41
1.0
 50
0.0
 71
     0
 42
2.5
  3
SimSun.ttf
  4

1001
AcadAnnotative
1000
AnnotativeData
1002
{
1070
     1
1070
     1
1002
}
1001
ACAD
1000
SimSun
1071
       34
  0
STYLE
  5
225
330
3
100
AcDbSymbolTableRecord
100
AcDbTextStyleTableRecord
  2

 70
     1
 40
0.0
 41
1.0
 50
0.0
 71
     0
 42
2.5
  3
ltypeshp.shx
  4

  0
ENDTAB
  0
TABLE
  2
VIEW
  5
6
330
0
100
AcDbSymbolTable
 70
     0
  0
ENDTAB
  0
TABLE
  2
UCS
  5
7
330
0
100
AcDbSymbolTable
 70
     0
  0
ENDTAB
  0
TABLE
  2
APPID
  5
9
330
0
100
AcDbSymbolTable
 70
    11
  0
APPID
  5
12
330
9
100
AcDbSymbolTableRecord
100
AcDbRegAppTableRecord
  2
ACAD
 70
     0
  0
APPID
  5
9E
330
9
100
AcDbSymbolTableRecord
100
AcDbRegAppTableRecord
  2
ACAD_PSEXT
 70
     0
  0
APPID
  5
133
330
9
100
AcDbSymbolTableRecord
100
AcDbRegAppTableRecord
  2
AcadAnnoPO
 70
     0
  0
APPID
  5
134
330
9
100
AcDbSymbolTableRecord
100
AcDbRegAppTableRecord
  2
AcadAnnotative
 70
     0
  0
APPID
  5
135
330
9
100
AcDbSymbolTableRecord
100
AcDbRegAppTableRecord
  2
ACAD_DSTYLE_DIMJAG
 70
     0
  0
APPID
  5
136
330
9
100
AcDbSymbolTableRecord
100
AcDbRegAppTableRecord
  2
ACAD_DSTYLE_DIMTALN
 70
     0
  0
APPID
  5
165
330
9
100
AcDbSymbolTableRecord
100
AcDbRegAppTableRecord
  2
ACAD_MLEADERVER
 70
     0
  0
APPID
  5
218
330
9
100
AcDbSymbolTableRecord
100
AcDbRegAppTableRecord
  2
ACAD_EXEMPT_FROM_CAD_STANDARDS
 70
     0
  0
APPID
  5
246
330
9
100
AcDbSymbolTableRecord
100
AcDbRegAppTableRecord
  2
ACAD_DSTYLE_DIMBREAK
 70
     0
  0
APPID
  5
3CC
330
9
100
AcDbSymbolTableRecord
100
AcDbRegAppTableRecord
  2
ACAD_DSTYLE_DIMJOGGED_JOGANGLE_SYMBOL
 70
     0
  0
APPID
  5
725
330
9
100
AcDbSymbolTableRecord
100
AcDbRegAppTableRecord
  2
ACAD_DSTYLE_DIMEXT_ENABLED
 70
     0
  0
ENDTAB
  0
TABLE
  2
DIMSTYLE
  5
A
330
0
100
AcDbSymbolTable
 70
     6
100
AcDbDimStyleTable
 71
     3
340
247
340
27
340
137
  0
DIMSTYLE
105
1B0
330
A
100
AcDbSymbolTableRecord
100
AcDbDimStyleTableRecord
  2
Standard
 70
     0
340
11
  0
DIMSTYLE
105
137
330
A
100
AcDbSymbolTableRecord
100
AcDbDimStyleTableRecord
  2
Annotative
 70
     0
 40
0.0
 41
2.5
 42
0.625
 43
3.75
 44
1.25
 73
     0
 74
     0
 77
     1
 78
     8
140
2.5
141
2.5
143
0.03937007874016
147
0.625
171
     3
172
     1
271
     2
272
     2
274
     3
278
    44
283
     0
284
     8
340
11
1001
AcadAnnotative
1000
AnnotativeData
1002
{
1070
     1
1070
     1
1002
}
1001
ACAD_DSTYLE_DIMJAG
1070
   388
1040
1.5
1001
ACAD_DSTYLE_DIMTALN
1070
   392
1070
     0
  0
DIMSTYLE
105
27
330
A
100
AcDbSymbolTableRecord
100
AcDbDimStyleTableRecord
  2
ISO-25
 70
     0
 41
2.5
 42
0.625
 43
3.75
 44
1.25
 73
     0
 74
     0
 77
     1
 78
     8
140
2.5
141
2.5
143
0.03937007874016
147
0.625
171
     3
172
     1
271
     2
272
     2
274
     3
278
    44
283
     0
284
     8
340
11
  0
DIMSTYLE
105
247
102
{ACAD_REACTORS
330
C3D
330
1641
330
1659
102
}
330
A
100
AcDbSymbolTableRecord
100
AcDbDimStyleTableRecord
  2
副本 ISO-25
 70
     0
  3
"
  4
mm
 41
10.0
 42
0.625
 43
3.75
 44
1.25
 73
     0
 74
     0
 77
     1
 78
     8
140
10.0
141
1.0
144
0.03937
147
0.625
170
     1
171
     0
172
     1
271
     3
272
     3
274
     0
276
     2
277
     5
283
     0
284
     8
340
11
1001
ACAD_DSTYLE_DIMBREAK
1070
   391
1040
3.75
1001
ACAD_DSTYLE_DIMJAG
1070
   388
1040
1.5
1001
ACAD_DSTYLE_DIMTALN
1070
   392
1070
     0
1001
ACAD_DSTYLE_DIMEXT_ENABLED
1070
   383
1070
     1
  0
ENDTAB
  0
TABLE
  2
BLOCK_RECORD
  5
1
330
0
100
AcDbSymbolTable
 70
    34
  0
BLOCK_RECORD
  5
1F
102
{ACAD_XDICTIONARY
360
1CE
102
}
330
1
100
AcDbSymbolTableRecord
100
AcDbBlockTableRecord
  2
*Model_Space
340
22
  0
BLOCK_RECORD
  5
D2
330
1
100
AcDbSymbolTableRecord
100
AcDbBlockTableRecord
  2
*Paper_Space
340
D3
  0
BLOCK_RECORD
  5
D6
330
1
100
AcDbSymbolTableRecord
100
AcDbBlockTableRecord
  2
*Paper_Space0
340
D7
  0
BLOCK_RECORD
  5
C2D
330
1
100
AcDbSymbolTableRecord
100
AcDbBlockTableRecord
  2
*D1
340
0
  0
BLOCK_RECORD
  5
C9B
330
1
100
AcDbSymbolTableRecord
100
AcDbBlockTableRecord
  2
$AUDIT_BAD_BLOCK_RECORD1
340
0
  0
BLOCK_RECORD
  5
D22
330
1
100
AcDbSymbolTableRecord
100
AcDbBlockTableRecord
  2
*D3
340
0
  0
BLOCK_RECORD
  5
D3A
330
1
100
AcDbSymbolTableRecord
100
AcDbBlockTableRecord
  2
*D4
340
0
  0
BLOCK_RECORD
  5
DAD
330
1
100
AcDbSymbolTableRecord
100
AcDbBlockTableRecord
  2
*D5
340
0
  0
BLOCK_RECORD
  5
DC6
330
1
100
AcDbSymbolTableRecord
100
AcDbBlockTableRecord
  2
*D6
340
0
  0
BLOCK_RECORD
  5
E5A
330
1
100
AcDbSymbolTableRecord
100
AcDbBlockTableRecord
  2
*D7
340
0
  0
BLOCK_RECORD
  5
E73
330
1
100
AcDbSymbolTableRecord
100
AcDbBlockTableRecord
  2
*D8
340
0
  0
BLOCK_RECORD
  5
E8B
330
1
100
AcDbSymbolTableRecord
100
AcDbBlockTableRecord
  2
*D9
340
0
  0
BLOCK_RECORD
  5
105A
330
1
100
AcDbSymbolTableRecord
100
AcDbBlockTableRecord
  2
*D10
340
0
  0
BLOCK_RECORD
  5
1072
330
1
100
AcDbSymbolTableRecord
100
AcDbBlockTableRecord
  2
*D11
340
0
  0
BLOCK_RECORD
  5
1190
330
1
100
AcDbSymbolTableRecord
100
AcDbBlockTableRecord
  2
*D12
340
0
  0
BLOCK_RECORD
  5
11BC
330
1
100
AcDbSymbolTableRecord
100
AcDbBlockTableRecord
  2
*D13
340
0
  0
BLOCK_RECORD
  5
11FA
330
1
100
AcDbSymbolTableRecord
100
AcDbBlockTableRecord
  2
*D14
340
0
  0
BLOCK_RECORD
  5
1212
330
1
100
AcDbSymbolTableRecord
100
AcDbBlockTableRecord
  2
*D15
340
0
  0
BLOCK_RECORD
  5
123C
330
1
100
AcDbSymbolTableRecord
100
AcDbBlockTableRecord
  2
*D16
340
0
  0
BLOCK_RECORD
  5
1329
330
1
100
AcDbSymbolTableRecord
100
AcDbBlockTableRecord
  2
*D17
340
0
  0
BLOCK_RECORD
  5
1341
330
1
100
AcDbSymbolTableRecord
100
AcDbBlockTableRecord
  2
*D18
340
0
  0
BLOCK_RECORD
  5
135A
330
1
100
AcDbSymbolTableRecord
100
AcDbBlockTableRecord
  2
*D19
340
0
  0
BLOCK_RECORD
  5
1372
330
1
100
AcDbSymbolTableRecord
100
AcDbBlockTableRecord
  2
*D20
340
0
  0
BLOCK_RECORD
  5
138A
330
1
100
AcDbSymbolTableRecord
100
AcDbBlockTableRecord
  2
*D21
340
0
  0
BLOCK_RECORD
  5
13A2
330
1
100
AcDbSymbolTableRecord
100
AcDbBlockTableRecord
  2
*D22
340
0
  0
BLOCK_RECORD
  5
1405
330
1
100
AcDbSymbolTableRecord
100
AcDbBlockTableRecord
  2
*D23
340
0
  0
BLOCK_RECORD
  5
1411
330
1
100
AcDbSymbolTableRecord
100
AcDbBlockTableRecord
  2
*D24
340
0
  0
BLOCK_RECORD
  5
1465
330
1
100
AcDbSymbolTableRecord
100
AcDbBlockTableRecord
  2
*D25
340
0
  0
BLOCK_RECORD
  5
1471
330
1
100
AcDbSymbolTableRecord
100
AcDbBlockTableRecord
  2
*D26
340
0
  0
BLOCK_RECORD
  5
1517
330
1
100
AcDbSymbolTableRecord
100
AcDbBlockTableRecord
  2
*D27
340
0
  0
BLOCK_RECORD
  5
1530
330
1
100
AcDbSymbolTableRecord
100
AcDbBlockTableRecord
  2
*D28
340
0
  0
BLOCK_RECORD
  5
1642
330
1
100
AcDbSymbolTableRecord
100
AcDbBlockTableRecord
  2
*D29
340
0
  0
BLOCK_RECORD
  5
165A
330
1
100
AcDbSymbolTableRecord
100
AcDbBlockTableRecord
  2
*D30
340
0
  0
ENDTAB
  0
ENDSEC
  0
SECTION
  2
BLOCKS
  0
BLOCK
  5
20
330
1F
100
AcDbEntity
  8
0
100
AcDbBlockBegin
  2
*Model_Space
 70
     0
 10
0.0
 20
0.0
 30
0.0
  3
*Model_Space
  1

  0
ENDBLK
  5
21
330
1F
100
AcDbEntity
  8
0
100
AcDbBlockEnd
  0
BLOCK
  5
D4
330
D2
100
AcDbEntity
 67
     1
  8
0
100
AcDbBlockBegin
  2
*Paper_Space
 70
     0
 10
0.0
 20
0.0
 30
0.0
  3
*Paper_Space
  1

  0
ENDBLK
  5
D5
330
D2
100
AcDbEntity
 67
     1
  8
0
100
AcDbBlockEnd
  0
BLOCK
  5
D8
330
D6
100
AcDbEntity
 67
     1
  8
0
100
AcDbBlockBegin
  2
*Paper_Space0
 70
     0
 10
0.0
 20
0.0
 30
0.0
  3
*Paper_Space0
  1

  0
ENDBLK
  5
D9
330
D6
100
AcDbEntity
 67
     1
  8
0
100
AcDbBlockEnd
  0
BLOCK
  5
C2E
330
C2D
100
AcDbEntity
  8
0
100
AcDbBlockBegin
  2
*D1
 70
     1
 10
0.0
 20
0.0
 30
0.0
  3
*D1
  1

  0
LINE
  5
C2F
330
C2D
100
AcDbEntity
  8
0
 62
     0
370
    -2
100
AcDbLine
 10
642.5637338852197
 20
419.3467576055916
 30
0.0
 11
642.5637338852197
 21
417.0967576055916
 31
0.0
  0
LINE
  5
C30
330
C2D
100
AcDbEntity
  8
0
 62
     0
370
    -2
100
AcDbLine
 10
682.6584879917027
 20
419.3467576055916
 30
0.0
 11
682.6584879917027
 21
417.0967576055916
 31
0.0
  0
LINE
  5
C31
330
C2D
100
AcDbEntity
  8
0
 62
     0
370
    -2
100
AcDbLine
 10
643.5637338852196
 20
418.3467576055917
 30
0.0
 11
681.6584879917026
 21
418.3467576055917
 31
0.0
  0
SOLID
  5
C32
330
C2D
100
AcDbEntity
  8
0
 62
     0
100
AcDbTrace
 10
643.5637338852196
 20
418.5134242722585
 30
0.0
 11
643.5637338852196
 21
418.180090938925
 31
0.0
 12
642.5637338852197
 22
418.3467576055917
 32
0.0
 13
642.5637338852197
 23
418.3467576055917
 33
0.0
  0
SOLID
  5
C33
330
C2D
100
AcDbEntity
  8
0
 62
     0
100
AcDbTrace
 10
681.6584879917026
 20
418.5134242722585
 30
0.0
 11
681.6584879917026
 21
418.180090938925
 31
0.0
 12
682.6584879917027
 22
418.3467576055917
 32
0.0
 13
682.6584879917027
 23
418.3467576055917
 33
0.0
  0
MTEXT
  5
C34
330
C2D
100
AcDbEntity
  8
0
 62
     0
100
AcDbMText
 10
662.6111109384612
 20
419.4717576055918
 30
0.0
 40
1.0
 41
0.0
 71
     5
 72
     1
  1
400.948"
 73
     1
 44
1.0
1001
ACAD
1000
MTEXTBEGIN
1070
    73
1070
     1
1070
    44
1040
1.0
1070
    74
1070
     0
1000
MTEXTEND
  0
POINT
  5
C35
330
C2D
100
AcDbEntity
  8
Defpoints
 62
     0
100
AcDbPoint
 10
642.5637338852197
 20
440.1440382398758
 30
0.0
  0
POINT
  5
C36
330
C2D
100
AcDbEntity
  8
Defpoints
 62
     0
100
AcDbPoint
 10
682.6584879917027
 20
440.1440179490236
 30
0.0
  0
POINT
  5
C37
330
C2D
100
AcDbEntity
  8
Defpoints
 62
     0
100
AcDbPoint
 10
682.6584879917027
 20
418.3467576055917
 30
0.0
  0
ENDBLK
  5
C38
330
C2D
100
AcDbEntity
  8
0
100
AcDbBlockEnd
  0
BLOCK
  5
C9C
330
C9B
100
AcDbEntity
  8
0
100
AcDbBlockBegin
  2
$AUDIT_BAD_BLOCK_RECORD1
 70
     0
 10
0.0
 20
0.0
 30
0.0
  3
$AUDIT_BAD_BLOCK_RECORD1
  1

  0
LINE
  5
913
330
C9B
100
AcDbEntity
  8
0
 62
     0
370
    -2
100
AcDbLine
 10
478.1175988320232
 20
424.9831858352936
 30
0.0
 11
478.1175988320232
 21
422.7331858352936
 31
0.0
  0
LINE
  5
914
330
C9B
100
AcDbEntity
  8
0
 62
     0
370
    -2
100
AcDbLine
 10
513.6775281500373
 20
424.9831858352936
 30
0.0
 11
513.6775281500373
 21
422.7331858352936
 31
0.0
  0
LINE
  5
915
330
C9B
100
AcDbEntity
  8
0
 62
     0
370
    -2
100
AcDbLine
 10
479.1175988320231
 20
423.9831858352936
 30
0.0
 11
512.6775281500373
 21
423.9831858352936
 31
0.0
  0
SOLID
  5
916
330
C9B
100
AcDbEntity
  8
0
 62
     0
100
AcDbTrace
 10
479.1175988320231
 20
424.1498525019602
 30
0.0
 11
479.1175988320231
 21
423.8165191686269
 31
0.0
 12
478.1175988320232
 22
423.9831858352936
 32
0.0
 13
478.1175988320232
 23
423.9831858352936
 33
0.0
  0
SOLID
  5
917
330
C9B
100
AcDbEntity
  8
0
 62
     0
100
AcDbTrace
 10
512.6775281500373
 20
424.1498525019602
 30
0.0
 11
512.6775281500373
 21
423.8165191686269
 31
0.0
 12
513.6775281500373
 22
423.9831858352936
 32
0.0
 13
513.6775281500373
 23
423.9831858352936
 33
0.0
  0
MTEXT
  5
918
330
C9B
100
AcDbEntity
  8
0
 62
     0
100
AcDbMText
 10
495.89756349103
 20
425.1081858352937
 30
0.0
 40
1.0
 41
0.0
 71
     5
 72
     1
  1
14"
 73
     1
 44
1.0
1001
ACAD
1000
MTEXTBEGIN
1070
    73
1070
     1
1070
    44
1040
1.0
1070
    74
1070
     0
1000
MTEXTEND
  0
POINT
  5
919
330
C9B
100
AcDbEntity
  8
Defpoints
 62
     0
100
AcDbPoint
 10
478.1175988320232
 20
440.9158230922558
 30
0.0
  0
POINT
  5
91A
330
C9B
100
AcDbEntity
  8
Defpoints
 62
     0
100
AcDbPoint
 10
513.6775281500373
 20
440.8586566554149
 30
0.0
  0
POINT
  5
91B
330
C9B
100
AcDbEntity
  8
Defpoints
 62
     0
100
AcDbPoint
 10
513.6775281500373
 20
423.9831858352936
 30
0.0
  0
LINE
  5
935
330
C9B
100
AcDbEntity
  8
0
 62
     0
370
    -2
100
AcDbLine
 10
515.6806164823631
 20
426.6003595143499
 30
0.0
 11
517.9306164823631
 21
426.6003595143499
 31
0.0
  0
LINE
  5
936
330
C9B
100
AcDbEntity
  8
0
 62
     0
370
    -2
100
AcDbLine
 10
515.6806164823631
 20
454.5394888503087
 30
0.0
 11
517.9306164823631
 21
454.5394888503087
 31
0.0
  0
LINE
  5
937
330
C9B
100
AcDbEntity
  8
0
 62
     0
370
    -2
100
AcDbLine
 10
516.6806164823631
 20
427.6003595143499
 30
0.0
 11
516.6806164823631
 21
453.5394888503088
 31
0.0
  0
SOLID
  5
938
330
C9B
100
AcDbEntity
  8
0
 62
     0
100
AcDbTrace
 10
516.5139498156965
 20
427.6003595143499
 30
0.0
 11
516.8472831490297
 21
427.6003595143499
 31
0.0
 12
516.6806164823631
 22
426.6003595143499
 32
0.0
 13
516.6806164823631
 23
426.6003595143499
 33
0.0
  0
SOLID
  5
939
330
C9B
100
AcDbEntity
  8
0
 62
     0
100
AcDbTrace
 10
516.5139498156965
 20
453.5394888503088
 30
0.0
 11
516.8472831490297
 21
453.5394888503088
 31
0.0
 12
516.6806164823631
 22
454.5394888503087
 32
0.0
 13
516.6806164823631
 23
454.5394888503087
 33
0.0
  0
MTEXT
  5
93A
330
C9B
100
AcDbEntity
  8
0
 62
     0
100
AcDbMText
 10
515.555616482363
 20
440.5699241823294
 30
0.0
 40
1.0
 41
0.0
 71
     5
 72
     1
  1
11"
 11
0.0000000000000001
 21
1.0
 31
0.0
 73
     1
 44
1.0
1001
ACAD
1000
MTEXTBEGIN
1070
    73
1070
     1
1070
    44
1040
1.0
1070
    74
1070
     0
1000
MTEXTEND
  0
POINT
  5
93B
330
C9B
100
AcDbEntity
  8
Defpoints
 62
     0
100
AcDbPoint
 10
495.7639456688095
 20
426.6003595143499
 30
0.0
  0
POINT
  5
93C
330
C9B
100
AcDbEntity
  8
Defpoints
 62
     0
100
AcDbPoint
 10
495.9195277366608
 20
454.5394888503087
 30
0.0
  0
POINT
  5
93D
330
C9B
100
AcDbEntity
  8
Defpoints
 62
     0
100
AcDbPoint
 10
516.6806164823631
 20
454.5394888503087
 30
0.0
  0
LINE
  5
A10
330
C9B
100
AcDbEntity
  8
0
 62
     0
370
    -2
100
AcDbLine
 10
478.1175988320232
 20
424.9831858352936
 30
0.0
 11
478.1175988320232
 21
422.7331858352936
 31
0.0
  0
LINE
  5
A11
330
C9B
100
AcDbEntity
  8
0
 62
     0
370
    -2
100
AcDbLine
 10
513.6775281500373
 20
424.9831858352936
 30
0.0
 11
513.6775281500373
 21
422.7331858352936
 31
0.0
  0
LINE
  5
A12
330
C9B
100
AcDbEntity
  8
0
 62
     0
370
    -2
100
AcDbLine
 10
479.1175988320231
 20
423.9831858352936
 30
0.0
 11
512.6775281500373
 21
423.9831858352936
 31
0.0
  0
SOLID
  5
A13
330
C9B
100
AcDbEntity
  8
0
 62
     0
100
AcDbTrace
 10
479.1175988320231
 20
424.1498525019602
 30
0.0
 11
479.1175988320231
 21
423.8165191686269
 31
0.0
 12
478.1175988320232
 22
423.9831858352936
 32
0.0
 13
478.1175988320232
 23
423.9831858352936
 33
0.0
  0
SOLID
  5
A14
330
C9B
100
AcDbEntity
  8
0
 62
     0
100
AcDbTrace
 10
512.6775281500373
 20
424.1498525019602
 30
0.0
 11
512.6775281500373
 21
423.8165191686269
 31
0.0
 12
513.6775281500373
 22
423.9831858352936
 32
0.0
 13
513.6775281500373
 23
423.9831858352936
 33
0.0
  0
MTEXT
  5
A15
330
C9B
100
AcDbEntity
  8
0
 62
     0
100
AcDbMText
 10
495.89756349103
 20
425.1081858352937
 30
0.0
 40
1.0
 41
0.0
 71
     5
 72
     1
  1
14"
 73
     1
 44
1.0
1001
ACAD
1000
MTEXTBEGIN
1070
    73
1070
     1
1070
    44
1040
1.0
1070
    74
1070
     0
1000
MTEXTEND
  0
POINT
  5
A16
330
C9B
100
AcDbEntity
  8
Defpoints
 62
     0
100
AcDbPoint
 10
478.1175988320232
 20
440.9158230922558
 30
0.0
  0
POINT
  5
A17
330
C9B
100
AcDbEntity
  8
Defpoints
 62
     0
100
AcDbPoint
 10
513.6775281500373
 20
440.8586566554149
 30
0.0
  0
POINT
  5
A18
330
C9B
100
AcDbEntity
  8
Defpoints
 62
     0
100
AcDbPoint
 10
513.6775281500373
 20
423.9831858352936
 30
0.0
  0
LINE
  5
A34
330
C9B
100
AcDbEntity
  8
0
 62
     0
370
    -2
100
AcDbLine
 10
532.2107760832318
 20
424.7554037916628
 30
0.0
 11
532.2107760832318
 21
422.5054037916629
 31
0.0
  0
LINE
  5
A35
330
C9B
100
AcDbEntity
  8
0
 62
     0
370
    -2
100
AcDbLine
 10
567.7707054012461
 20
424.7554037916628
 30
0.0
 11
567.7707054012461
 21
422.5054037916629
 31
0.0
  0
LINE
  5
A36
330
C9B
100
AcDbEntity
  8
0
 62
     0
370
    -2
100
AcDbLine
 10
533.2107760832318
 20
423.7554037916629
 30
0.0
 11
566.7707054012461
 21
423.7554037916629
 31
0.0
  0
SOLID
  5
A37
330
C9B
100
AcDbEntity
  8
0
 62
     0
100
AcDbTrace
 10
533.2107760832318
 20
423.9220704583296
 30
0.0
 11
533.2107760832318
 21
423.5887371249963
 31
0.0
 12
532.2107760832318
 22
423.7554037916629
 32
0.0
 13
532.2107760832318
 23
423.7554037916629
 33
0.0
  0
SOLID
  5
A38
330
C9B
100
AcDbEntity
  8
0
 62
     0
100
AcDbTrace
 10
566.7707054012461
 20
423.9220704583296
 30
0.0
 11
566.7707054012461
 21
423.5887371249963
 31
0.0
 12
567.7707054012461
 22
423.7554037916629
 32
0.0
 13
567.7707054012461
 23
423.7554037916629
 33
0.0
  0
MTEXT
  5
A39
330
C9B
100
AcDbEntity
  8
0
 62
     0
100
AcDbMText
 10
549.990740742239
 20
424.8804037916628
 30
0.0
 40
1.0
 41
0.0
 71
     5
 72
     1
  1
14"
 73
     1
 44
1.0
1001
ACAD
1000
MTEXTBEGIN
1070
    73
1070
     1
1070
    44
1040
1.0
1070
    74
1070
     0
1000
MTEXTEND
  0
POINT
  5
A3A
330
C9B
100
AcDbEntity
  8
Defpoints
 62
     0
100
AcDbPoint
 10
532.2107760832318
 20
440.6880410486251
 30
0.0
  0
POINT
  5
A3B
330
C9B
100
AcDbEntity
  8
Defpoints
 62
     0
100
AcDbPoint
 10
567.7707054012461
 20
440.6308746117841
 30
0.0
  0
POINT
  5
A3C
330
C9B
100
AcDbEntity
  8
Defpoints
 62
     0
100
AcDbPoint
 10
567.7707054012461
 20
423.7554037916629
 30
0.0
  0
LINE
  5
AD8
330
C9B
100
AcDbEntity
  8
0
100
AcDbLine
 10
17.71850265392425
 20
27.56929725296334
 30
0.0
 11
17.71850265392425
 21
28.51081786096802
 31
0.0
  0
LINE
  5
AD9
330
C9B
100
AcDbEntity
  8
0
100
AcDbLine
 10
15.83546143791466
 20
27.56929725296334
 30
0.0
 11
15.83546143791466
 21
28.51081786096802
 31
0.0
  0
LINE
  5
ADA
330
C9B
100
AcDbEntity
  8
0
100
AcDbLine
 10
17.71850265392425
 20
28.51081786096802
 30
0.0
 11
18.28341501872683
 21
28.51081786096802
 31
0.0
  0
LINE
  5
ADB
330
C9B
100
AcDbEntity
  8
0
100
AcDbLine
 10
15.83546143791466
 20
28.51081786096802
 30
0.0
 11
15.27054907311174
 21
28.51081786096802
 31
0.0
  0
LINE
  5
ADC
330
C9B
100
AcDbEntity
  8
0
100
AcDbLine
 10
16.77698204591922
 20
29.67631969893091
 30
0.0
 11
18.28341501872683
 21
28.51081786096802
 31
0.0
  0
LINE
  5
ADD
330
C9B
100
AcDbEntity
  8
0
100
AcDbLine
 10
16.77698204591922
 20
29.67631969893091
 30
0.0
 11
15.27054907311208
 21
28.51081786096802
 31
0.0
  0
MTEXT
  5
ADE
330
C9B
100
AcDbEntity
  8
0
370
    70
100
AcDbMText
 10
13.59774234084023
 20
26.46882174807246
 30
0.0
 40
1.28
 41
3.2
 71
     1
 72
     1
  1
{\ftimes new roman|b1|i0|c238|p18;VB7027}
 73
     1
 44
1.0
1001
ACAD
1000
MTEXTBEGIN
1070
    73
1070
     1
1070
    44
1040
1.0
1070
    74
1070
     0
1000
MTEXTEND
  0
MTEXT
  5
ADF
330
C9B
100
AcDbEntity
  8
0
 48
2.0
370
    70
100
AcDbMText
 10
14.53956704297025
 20
1.213015291438067
 30
0.0
 40
0.9
 41
4.508126237459102
 71
     1
 72
     1
  1
{\fArial|b0|i0|c0|p34;FRONT}
 73
     1
 44
1.0
1001
ACAD
1000
MTEXTBEGIN
1070
    73
1070
     1
1070
    44
1040
1.0
1070
    74
1070
     0
1000
MTEXTEND
  0
LINE
  5
AE0
330
C9B
100
AcDbEntity
  8
0
100
AcDbLine
 10
15.82849368577047
 20
3.940091402235338
 30
0.0
 11
15.82849368577047
 21
2.991603042086181
 31
0.0
  0
LINE
  5
AE1
330
C9B
100
AcDbEntity
  8
0
100
AcDbLine
 10
17.72547040606844
 20
3.940091402235338
 30
0.0
 11
17.72547040606844
 21
2.991603042086181
 31
0.0
  0
LINE
  5
AE2
330
C9B
100
AcDbEntity
  8
0
100
AcDbLine
 10
15.82849368577047
 20
2.991603042086181
 30
0.0
 11
15.25940066968121
 21
2.991603042086181
 31
0.0
  0
LINE
  5
AE3
330
C9B
100
AcDbEntity
  8
0
100
AcDbLine
 10
17.72547040606844
 20
2.991603042086181
 30
0.0
 11
18.29456342215792
 21
2.991603042086181
 31
0.0
  0
LINE
  5
AE4
330
C9B
100
AcDbEntity
  8
0
100
AcDbLine
 10
16.77698204591957
 20
1.817475872015504
 30
0.0
 11
15.25940066968121
 21
2.991603042086181
 31
0.0
  0
LINE
  5
AE5
330
C9B
100
AcDbEntity
  8
0
100
AcDbLine
 10
16.77698204591957
 20
1.817475872015504
 30
0.0
 11
18.29456342215758
 21
2.991603042086181
 31
0.0
  0
LINE
  5
AE6
330
C9B
100
AcDbEntity
  8
0
100
AcDbLine
 10
17.72547040606844
 20
3.940091402235338
 30
0.0
 11
15.82849368577047
 21
3.940091402235338
 31
0.0
  0
MTEXT
  5
AE7
330
C9B
100
AcDbEntity
  8
0
100
AcDbMText
 10
0.7325129032917629
 20
24.16724767737696
 30
0.0
 40
0.75
 41
32.88672955349762
 71
     1
 72
     5
  3
{\fArial|b1|i0|c0|p34;NOTE:\PDimensions vary from sink to sink, verify exact size of sink before cutting using the template. Manufacturer is not responsible for mis-cut templates.\fArial|b1|i0|c238|p34;\PNOTA:\PLas dimensiones varian de fregadero al 
  1
fregadero,verifian el tamano exacto del fregadero antes del corte usando la plantilla. El fabricante no es responsable de mis-corto plantillas}
 73
     1
 44
1.0
1001
ACAD
1000
MTEXTBEGIN
1070
    73
1070
     1
1070
    44
1040
1.0
1070
    74
1070
     0
1000
MTEXTEND
  0
MTEXT
  5
AE8
330
C9B
100
AcDbEntity
  8
0
100
AcDbMText
 10
15.21476821776036
 20
31.06934972295949
 30
0.0
 40
0.9
 41
2.590293177805504
 71
     1
 72
     5
  1
{\fArial|b0|i0|c0|p34;BACK}
 73
     1
 44
1.0
1001
ACAD
1000
MTEXTBEGIN
1070
    73
1070
     1
1070
    44
1040
1.0
1070
    74
1070
     0
1000
MTEXTEND
  0
LINE
  5
AE9
330
C9B
100
AcDbEntity
  8
0
100
AcDbLine
 10
15.83546143791466
 20
27.56929725296334
 30
0.0
 11
17.71850265392425
 21
27.56929725296334
 31
0.0
  0
IMAGE
  5
AEA
330
C9B
100
AcDbEntity
  8
0
 92
      140
310
8C000000010000008400000006000000050000003F80CF63CA0F2640BDC633CAFC8C194000000000000000003F80CF63CA0F2640D812BBD242E22940000000000000000004EDEFEBA0CC3640D812BBD242E22940000000000000000004EDEFEBA0CC3640BDC633CAFC8C194000000000000000003F80CF63CA0F2640BDC633
310
CAFC8C19400000000000000000
370
    -3
100
AcDbRasterImage
 90
        0
 10
11.03084098728152
 20
6.387683066759277
 30
0.0
 11
0.0291299244602032
 21
0.0
 31
0.0
 12
0.0
 22
0.0291299244602032
 32
0.0
 13
404.0
 23
225.0
340
A40
 70
     7
280
     0
281
    50
282
    50
283
     0
360
AEB
 71
     1
 91
        2
 14
-0.5
 24
-0.5
 14
403.5
 24
224.5
  0
LWPOLYLINE
  5
B08
330
C9B
100
AcDbEntity
  8
0
  6
ByBlock
 62
     0
100
AcDbPolyline
 90
        2
 70
     1
 43
0.5
 10
-0.0625
 20
0.0
 42
1.0
 10
0.0625
 20
0.0
 42
1.0
  0
MTEXT
  5
B0E
330
C9B
100
AcDbEntity
  8
0
  6
ACAD_ISO03W100
100
AcDbMText
 10
0.1015636810666365
 20
1.431456016935043
 30
0.0
 40
0.4064
 41
6.306357610792588
 71
     1
 72
     5
  1
{\fSimHei|b0|i0|c134|p2;Cut line}
 73
     1
 44
1.0
1001
ACAD
1000
MTEXTBEGIN
1070
    73
1070
     1
1070
    44
1040
1.0
1070
    74
1070
     0
1000
MTEXTEND
  0
MTEXT
  5
B0F
330
C9B
100
AcDbEntity
  8
0
  6
ACAD_ISO03W100
100
AcDbMText
 10
0.0699879957824123
 20
0.50568050582865
 30
0.0
 40
0.4064
 41
6.306357610792588
 71
     1
 72
     5
  1
{\fSimHei|b0|i0|c134|p2;Cut line}
 73
     1
 44
1.0
1001
ACAD
1000
MTEXTBEGIN
1070
    73
1070
     1
1070
    44
1040
1.0
1070
    74
1070
     0
1000
MTEXTEND
  0
HATCH
  5
B10
330
C9B
100
AcDbEntity
  8
0
100
AcDbHatch
 10
0.0
 20
0.0
 30
0.0
210
0.0
220
0.0
230
1.0
  2
SOLID
 70
     1
 71
     0
 91
        3
 92
        5
 93
       12
 72
     1
 10
3.580691348068738
 20
0.6335487000817466
 11
3.027010490010975
 21
0.270984578165951
 72
     1
 10
3.027010490010752
 20
0.2709845781660078
 11
2.830643015084658
 21
0.370868962958582
 72
     1
 10
2.830643015084658
 20
0.3708689629586388
 11
3.503027123472064
 21
0.6848637054544044
 72
     1
 10
3.503027123472064
 20
0.684863705454518
 11
2.883881933990096
 21
1.093950886710899
 72
     1
 10
2.883881933990096
 20
1.093950886710899
 11
3.092761078161856
 21
1.163997861409086
 72
     1
 10
3.092761078161629
 20
1.163997861408915
 11
3.587369522146899
 21
0.7242505223393323
 72
     1
 10
3.587369522146899
 20
0.7242505223393893
 11
3.730942121247153
 21
0.7912970820685814
 72
     4
 94
        3
 73
     0
 74
     0
 95
        9
 96
        5
 40
0.0
 40
0.0
 40
0.0
 40
0.0
 40
2.805029479527813
 40
4.98660370770903
 40
4.98660370770903
 40
4.98660370770903
 40
4.98660370770903
 10
3.730942121247379
 20
0.7912970820684678
 10
3.758848559576563
 20
0.9219926147484327
 10
3.808797333123948
 20
1.15322248355801
 10
3.974478161457908
 20
1.004109152881937
 10
4.046961367740776
 20
0.9388740112206047
 72
     1
 10
4.046961367740776
 20
0.9388740112206047
 11
3.643285322126303
 21
0.6745368052531262
 72
     1
 10
3.643285322126073
 20
0.6745368052531831
 11
4.003893022193548
 21
0.3539270815798545
 72
     4
 94
        3
 73
     0
 74
     0
 95
        9
 96
        5
 40
0.0
 40
0.0
 40
0.0
 40
0.0
 40
2.18157422818124
 40
4.986603707709058
 40
4.986603707709058
 40
4.986603707709058
 40
4.986603707709058
 10
4.003893022193548
 20
0.3539270815797408
 10
3.922637006288596
 20
0.3000114179938009
 10
3.736903445197865
 20
0.1767719496924656
 10
3.721359595626608
 20
0.4128238951388994
 10
3.712895965883717
 20
0.5461972752950715
 72
     1
 10
3.712895965883717
 20
0.5461972752950715
 11
3.580691348068511
 21
0.6335487000818035
 97
        0
 92
       20
 93
        2
 72
     4
 94
        3
 73
     0
 74
     0
 95
        9
 96
        5
 40
0.0022346529120277
 40
0.0022346529120277
 40
0.0022346529120277
 40
0.0022346529120277
 40
1.699152400941025
 40
3.97747025263658
 40
3.97747025263658
 40
3.97747025263658
 40
3.97747025263658
 10
4.034911894479136
 20
0.9332470619710877
 10
3.978528029479773
 20
0.9822229065516694
 10
3.846489830666767
 20
1.0967884113943
 10
3.799670583838858
 20
0.9150431830189518
 10
3.772841843075638
 20
0.8108637140005612
 72
     1
 10
3.772841843075866
 20
0.8108637140012433
 11
4.034911894479136
 21
0.9332470619711443
 97
        0
 92
       20
 93
        2
 72
     4
 94
        3
 73
     0
 74
     0
 95
        9
 96
        5
 40
0.0022346529119619
 40
0.0022346529119619
 40
0.0022346529119619
 40
0.0022346529119619
 40
2.280552504607423
 40
3.977470252636471
 40
3.977470252636471
 40
3.977470252636471
 40
3.977470252636471
 10
3.751478096078696
 20
0.5207049430343888
 10
3.762759234608436
 20
0.4137195280968628
 10
3.782454904282303
 20
0.2270769538893091
 10
3.929848696423048
 20
0.3210685007647953
 10
3.992797618074517
 20
0.3612581368363408
 72
     1
 10
3.992797618074517
 20
0.3612581368363408
 11
3.751478096078696
 21
0.5207049430337634
 97
        0
 75
     0
 76
     1
 47
0.0275389756302889
 98
        3
 10
3.599889947535073
 20
0.6828830002164068
 10
3.599889947535073
 20
0.6828830002164068
 10
3.599889947535073
 20
0.6828830002164068
1001
ACAD
1010
0.0
1020
0.0
1030
0.0
  0
MTEXT
  5
B1A
330
C9B
100
AcDbEntity
  8
0
  6
ACAD_ISO03W100
100
AcDbMText
 10
1.749952021800709
 20
1.431479602872855
 30
0.0
 40
0.4064
 41
6.306357610792588
 71
     1
 72
     5
  1
{\fSimHei|b0|i0|c134|p2;Cut line}
 73
     1
 44
1.0
1001
ACAD
1000
MTEXTBEGIN
1070
    73
1070
     1
1070
    44
1040
1.0
1070
    74
1070
     0
1000
MTEXTEND
  0
MTEXT
  5
B1B
330
C9B
100
AcDbEntity
  8
0
  6
ACAD_ISO03W100
100
AcDbMText
 10
1.718376336516254
 20
0.5057040917664608
 30
0.0
 40
0.4064
 41
6.306357610792588
 71
     1
 72
     5
  1
{\fSimHei|b0|i0|c134|p2;Cut line}
 73
     1
 44
1.0
1001
ACAD
1000
MTEXTBEGIN
1070
    73
1070
     1
1070
    44
1040
1.0
1070
    74
1070
     0
1000
MTEXTEND
  0
HATCH
  5
B1C
330
C9B
100
AcDbEntity
  8
0
100
AcDbHatch
 10
0.0
 20
0.0
 30
0.0
210
0.0
220
0.0
230
1.0
  2
SOLID
 70
     1
 71
     0
 91
        3
 92
        5
 93
       12
 72
     1
 10
0.466221175602641
 20
0.7461182797707126
 11
1.0199020336604
 21
1.108682401686508
 72
     1
 10
1.019902033660627
 20
1.10868240168645
 11
1.216269508586719
 21
1.008798016893877
 72
     1
 10
1.216269508586719
 20
1.008798016893933
 11
0.543885400199315
 21
0.6948032743981685
 72
     1
 10
0.543885400199315
 20
0.6948032743980548
 11
1.163030589681284
 21
0.2857160931416729
 72
     1
 10
1.163030589681053
 20
0.2857160931416729
 11
0.954151445509524
 21
0.2156691184434862
 72
     1
 10
0.954151445509524
 20
0.2156691184435431
 11
0.459543001524253
 21
0.6554164575131268
 72
     1
 10
0.459543001524253
 20
0.6554164575131836
 11
0.315970402424
 21
0.5883698977839913
 72
     4
 94
        3
 73
     0
 74
     0
 95
        9
 96
        5
 40
0.0
 40
0.0
 40
0.0
 40
0.0
 40
2.805029479527813
 40
4.98660370770903
 40
4.98660370770903
 40
4.98660370770903
 40
4.98660370770903
 10
0.315970402424
 20
0.5883698977839913
 10
0.2880639640948175
 20
0.4576743651040263
 10
0.2381151905474326
 20
0.2264444962945618
 10
0.0724343622134711
 20
0.3755578269706348
 10
-0.0000488440693971
 20
0.4407929686319676
 72
     1
 10
-0.0000488440693971
 20
0.4407929686319676
 11
0.4036272015450777
 21
0.7051301745994465
 72
     1
 10
0.4036272015450777
 20
0.7051301745993897
 11
0.0430195014778292
 21
1.025739898272717
 72
     4
 94
        3
 73
     0
 74
     0
 95
        9
 96
        5
 40
0.0
 40
0.0
 40
0.0
 40
0.0
 40
2.18157422818124
 40
4.986603707709058
 40
4.986603707709058
 40
4.986603707709058
 40
4.986603707709058
 10
0.0430195014778292
 20
1.025739898272717
 10
0.1242755173825571
 20
1.079655561858654
 10
0.3100090784737404
 20
1.20289503015999
 10
0.3255529280449991
 20
0.9668430847135596
 10
0.3340165577874359
 20
0.8334697045573873
 72
     1
 10
0.3340165577874359
 20
0.8334697045573873
 11
0.466221175602641
 21
0.7461182797706556
 97
        0
 92
       20
 93
        2
 72
     4
 94
        3
 73
     0
 74
     0
 95
        9
 96
        5
 40
0.0022346529120277
 40
0.0022346529120277
 40
0.0022346529120277
 40
0.0022346529120277
 40
1.699152400941025
 40
3.97747025263658
 40
3.97747025263658
 40
3.97747025263658
 40
3.97747025263658
 10
0.0120006291922437
 20
0.4464199178813715
 10
0.0683844941913776
 20
0.3974440733007896
 10
0.2004226930048389
 20
0.2828785684581589
 10
0.2472419398325201
 20
0.4646237968336209
 10
0.2740706805957416
 20
0.5688032658518978
 72
     1
 10
0.2740706805955142
 20
0.5688032658513295
 11
0.0120006291922437
 21
0.4464199178814284
 97
        0
 92
       20
 93
        2
 72
     4
 94
        3
 73
     0
 74
     0
 95
        9
 96
        5
 40
0.0022346529119619
 40
0.0022346529119619
 40
0.0022346529119619
 40
0.0022346529119619
 40
2.280552504607423
 40
3.977470252636471
 40
3.977470252636471
 40
3.977470252636471
 40
3.977470252636471
 10
0.2954344275926814
 20
0.8589620368180701
 10
0.2841532890629423
 20
0.9659474517555963
 10
0.2644576193888497
 20
1.152590025963259
 10
0.1170638272483302
 20
1.058598479087663
 10
0.0541149055968617
 20
1.018408843016118
 72
     1
 10
0.0541149055968617
 20
1.018408843016118
 11
0.2954344275926814
 21
0.8589620368186956
 97
        0
 75
     0
 76
     1
 47
0.0275389756302889
 98
        3
 10
0.4470225761360779
 20
0.6967839796360522
 10
0.4470225761360779
 20
0.6967839796360522
 10
0.4470225761360779
 20
0.6967839796360522
1001
ACAD
1010
0.0
1020
0.0
1030
0.0
  0
MTEXT
  5
B60
330
C9B
100
AcDbEntity
  8
0
  6
ACAD_ISO03W100
100
AcDbMText
 10
0.1104415271693142
 20
1.411081947037015
 30
0.0
 40
0.4064
 41
6.306357610792588
 71
     1
 72
     5
  1
{\fSimHei|b0|i0|c134|p2;Cut line}
 11
0.0000000000000003
 21
1.0
 31
0.0
 73
     1
 44
1.0
1001
ACAD
1000
MTEXTBEGIN
1070
    73
1070
     1
1070
    44
1040
1.0
1070
    74
1070
     0
1000
MTEXTEND
  0
MTEXT
  5
B61
330
C9B
100
AcDbEntity
  8
0
  6
ACAD_ISO03W100
100
AcDbMText
 10
1.028934434987603
 20
1.340529260298352
 30
0.0
 40
0.4064
 41
6.306357610792588
 71
     1
 72
     5
  1
{\fSimHei|b0|i0|c134|p2;Cut line}
 11
0.0000000000000003
 21
1.0
 31
0.0
 73
     1
 44
1.0
1001
ACAD
1000
MTEXTBEGIN
1070
    73
1070
     1
1070
    44
1040
1.0
1070
    74
1070
     0
1000
MTEXTEND
  0
HATCH
  5
B62
330
C9B
100
AcDbEntity
  8
0
100
AcDbHatch
 10
0.0
 20
0.0
 30
0.0
210
0.0
220
0.0
230
1.0
  2
SOLID
 70
     1
 71
     0
 91
        3
 92
        5
 93
       12
 72
     1
 10
0.7730492427790523
 20
0.4553776755796548
 11
1.203175931888154
 21
0.9583749582724864
 72
     1
 10
1.203175931887926
 20
0.9583749582724864
 11
1.129113607407812
 21
1.165864349873174
 72
     1
 10
1.129113607407812
 20
1.165864349873174
 11
0.7320431502939755
 21
0.538944785962201
 72
     1
 10
0.7320431502937482
 20
0.538944785962201
 11
0.4051394178038663
 21
1.205148236276897
 72
     1
 10
0.4051394178040937
 20
1.205148236276897
 11
0.3090606915482112
 21
1.006890944115298
 72
     1
 10
0.3090606915479839
 20
1.006890944115127
 11
0.6822354966354851
 21
0.4603053607631296
 72
     1
 10
0.6822354966357125
 20
0.4603053607632435
 11
0.5974499747255777
 21
0.3264406990397788
 72
     4
 94
        3
 73
     0
 74
     0
 95
        9
 96
        5
 40
0.0
 40
0.0
 40
0.0
 40
0.0
 40
2.805029479527813
 40
4.98660370770903
 40
4.98660370770903
 40
4.98660370770903
 40
4.98660370770903
 10
0.5974499747253505
 20
0.3264406990397788
 10
0.4642646270726801
 20
0.3154064463089412
 10
0.2285563578141136
 20
0.2953130640219683
 10
0.3553549043879229
 20
0.1119908044636872
 10
0.4108276184017541
 20
0.0317897015998483
 72
     1
 10
0.4108276184017541
 20
0.0317897015998483
 11
0.7244231463055259
 21
0.3985135120355494
 72
     1
 10
0.7244231463052984
 20
0.3985135120355494
 11
0.9964963586050995
 21
0.0000104688719489
 72
     4
 94
        3
 73
     0
 74
     0
 95
        9
 96
        5
 40
0.0
 40
0.0
 40
0.0
 40
0.0
 40
2.18157422818124
 40
4.986603707709058
 40
4.986603707709058
 40
4.986603707709058
 40
4.986603707709058
 10
0.9964963586048723
 20
0.0000104688719489
 10
1.060321479091044
 20
0.0737382987297792
 10
1.20621180835451
 20
0.2422640655734654
 10
0.9740616487406439
 20
0.2877441227403211
 10
0.8428522288158999
 20
0.3131248178780766
 72
     1
 10
0.8428522288158999
 20
0.3131248178780766
 11
0.7730492427790523
 21
0.4553776755796548
 97
        0
 92
       20
 93
        2
 72
     4
 94
        3
 73
     0
 74
     0
 95
        9
 96
        5
 40
0.0022346529120277
 40
0.0022346529120277
 40
0.0022346529120277
 40
0.0022346529120277
 40
1.699152400941025
 40
3.97747025263658
 40
3.97747025263658
 40
3.97747025263658
 40
3.97747025263658
 10
0.4179433277056435
 20
0.0430244265559736
 10
0.3765471532240099
 20
0.1051865558862914
 10
0.279730497105902
 20
0.2507402433829498
 10
0.4659585138856528
 20
0.2740317799816125
 10
0.5727064665259151
 20
0.2873741074755003
 72
     1
 10
0.572706466525233
 20
0.2873741074753866
 11
0.4179433277054161
 21
0.0430244265558599
 97
        0
 92
       20
 93
        2
 72
     4
 94
        3
 73
     0
 74
     0
 95
        9
 96
        5
 40
0.0022346529119619
 40
0.0022346529119619
 40
0.0022346529119619
 40
0.0022346529119619
 40
2.280552504607423
 40
3.977470252636471
 40
3.977470252636471
 40
3.977470252636471
 40
3.977470252636471
 10
0.8632232864968043
 20
0.2716102447329263
 10
0.9679007902434475
 20
0.2467956662516713
 10
1.150515157811014
 20
0.2034902085275121
 10
1.038517407781682
 20
0.0692670926567303
 10
0.9906380735344557
 20
0.0119491815233346
 72
     1
 10
0.9906380735344557
 20
0.0119491815233346
 11
0.8632232864970319
 21
0.2716102447326989
 97
        0
 75
     0
 76
     1
 47
0.0275389756302889
 98
        3
 10
0.7216716033531158
 20
0.4426184609374674
 10
0.7216716033531158
 20
0.4426184609374674
 10
0.7216716033531158
 20
0.4426184609374674
1001
ACAD
1010
0.0
1020
0.0
1030
0.0
  0
MTEXT
  5
B6D
330
C9B
100
AcDbEntity
  8
0
  6
ACAD_ISO03W100
100
AcDbMText
 10
1.575000610142295
 20
0.0271235082223029
 30
0.0
 40
0.4064
 41
6.306357610792588
 71
     7
 72
     5
  1
{\fSimHei|b0|i0|c134|p2;Cut line}
 11
-0.0000000000000003
 21
1.0
 31
0.0
 73
     1
 44
1.0
1001
ACAD
1000
MTEXTBEGIN
1070
    73
1070
     1
1070
    44
1040
1.0
1070
    74
1070
     0
1000
MTEXTEND
  0
MTEXT
  5
B6E
330
C9B
100
AcDbEntity
  8
0
  6
ACAD_ISO03W100
100
AcDbMText
 10
0.5191791295017083
 20
0.0416037531423399
 30
0.0
 40
0.4064
 41
6.306357610792588
 71
     7
 72
     5
  1
{\fSimHei|b0|i0|c134|p2;Cut line}
 11
-0.0000000000000003
 21
1.0
 31
0.0
 73
     1
 44
1.0
1001
ACAD
1000
MTEXTBEGIN
1070
    73
1070
     1
1070
    44
1040
1.0
1070
    74
1070
     0
1000
MTEXTEND
  0
HATCH
  5
B6F
330
C9B
100
AcDbEntity
  8
0
100
AcDbHatch
 10
0.0
 20
0.0
 30
0.0
210
0.0
220
0.0
230
1.0
  2
SOLID
 70
     1
 71
     0
 91
        3
 92
        5
 93
       12
 72
     1
 10
0.7753154824140438
 20
3.286544542446903
 11
0.3541299406713279
 21
2.776036976873796
 72
     1
 10
0.3541299406715552
 20
2.776036976873796
 11
0.4318413988651173
 21
2.569886534721263
 72
     1
 10
0.4318413988648901
 20
2.569886534721263
 11
0.817789537169574
 21
3.203713894548968
 72
     1
 10
0.817789537169574
 20
3.203713894548968
 11
1.156395978118325
 21
2.543381579971708
 72
     1
 10
1.156395978118325
 20
2.543381579971649
 11
1.248961967933833
 21
2.743303097232169
 72
     1
 10
1.24896196793361
 20
2.743303097232113
 11
0.8662020313715855
 21
3.283219818628308
 72
     1
 10
0.8662020313713583
 20
3.283219818628365
 11
0.9486126306749156
 21
3.418559485786087
 72
     4
 94
        3
 73
     0
 74
     0
 95
        9
 96
        5
 40
0.0
 40
0.0
 40
0.0
 40
0.0
 40
2.805029479527813
 40
4.98660370770903
 40
4.98660370770903
 40
4.98660370770903
 40
4.98660370770903
 10
0.9486126306749156
 20
3.418559485786087
 10
1.081582575521905
 20
3.431941762501878
 10
1.316899657967495
 20
3.456190533971607
 10
1.186886557788051
 20
3.637247199257444
 10
1.130007518405135
 20
3.716457134111008
 72
     1
 10
1.130007518405135
 20
3.716457134111008
 11
0.8229307764765961
 21
3.344257748259506
 72
     1
 10
0.8229307764765961
 20
3.344257748259565
 11
0.5438692641225771
 21
3.737898676752023
 72
     4
 94
        3
 73
     0
 74
     0
 95
        9
 96
        5
 40
0.0
 40
0.0
 40
0.0
 40
0.0
 40
2.18157422818124
 40
4.986603707709058
 40
4.986603707709058
 40
4.986603707709058
 40
4.986603707709058
 10
0.5438692641225771
 20
3.737898676752023
 10
0.4813548313029516
 20
3.663056278408133
 10
0.3384604486793705
 20
3.491982850672001
 10
0.5713768639873253
 20
3.450605614314437
 10
0.7030136445318931
 20
3.42754375032689
 72
     1
 10
0.7030136445318931
 20
3.42754375032689
 11
0.7753154824138166
 21
3.286544542446847
 97
        0
 92
       20
 93
        2
 72
     4
 94
        3
 73
     0
 74
     0
 95
        9
 96
        5
 40
0.0022346529120277
 40
0.0022346529120277
 40
0.0022346529120277
 40
0.0022346529120277
 40
1.699152400941025
 40
3.97747025263658
 40
3.97747025263658
 40
3.97747025263658
 40
3.97747025263658
 10
1.123091126844428
 20
3.705098617855923
 10
1.165577562467432
 20
3.643676501540426
 10
1.26494710128577
 20
3.499853570125765
 10
1.079158993929467
 20
3.473280104492118
 10
0.9726630498221313
 20
3.458056537743118
 72
     1
 10
0.9726630498230406
 20
3.458056537743118
 11
1.123091126844428
 21
3.705098617855923
 97
        0
 92
       20
 93
        2
 72
     4
 94
        3
 73
     0
 74
     0
 95
        9
 96
        5
 40
0.0022346529119619
 40
0.0022346529119619
 40
0.0022346529119619
 40
0.0022346529119619
 40
2.280552504607423
 40
3.977470252636471
 40
3.977470252636471
 40
3.977470252636471
 40
3.977470252636471
 10
0.6819133307267295
 20
3.46869246272206
 10
0.5768143246327782
 20
3.491656391261471
 10
0.3934643571251399
 20
3.53173330887887
 10
0.5030766250624767
 20
3.667911469989006
 10
0.5499372678209511
 20
3.726065177909504
 72
     1
 10
0.5499372678209511
 20
3.726065177909504
 11
0.6819133307260472
 21
3.468692462722173
 97
        0
 75
     0
 76
     1
 47
0.0275389756302889
 98
        3
 10
0.8264600189882003
 20
3.300208208494153
 10
0.8264600189882003
 20
3.300208208494153
 10
0.8264600189882003
 20
3.300208208494153
1001
ACAD
1010
0.0
1020
0.0
1030
0.0
  0
MTEXT
  5
BAC
330
C9B
100
AcDbEntity
  8
0
  6
ACAD_ISO03W100
100
AcDbMText
 10
0.1015769593213918
 20
1.431456016935043
 30
0.0
 40
0.4064
 41
6.306357610792588
 71
     1
 72
     5
  1
{\fSimHei|b0|i0|c134|p2;Cut line}
 73
     1
 44
1.0
1001
ACAD
1000
MTEXTBEGIN
1070
    73
1070
     1
1070
    44
1040
1.0
1070
    74
1070
     0
1000
MTEXTEND
  0
MTEXT
  5
BAD
330
C9B
100
AcDbEntity
  8
0
  6
ACAD_ISO03W100
100
AcDbMText
 10
0.0700012740371676
 20
0.50568050582865
 30
0.0
 40
0.4064
 41
6.306357610792588
 71
     1
 72
     5
  1
{\fSimHei|b0|i0|c134|p2;Cut line}
 73
     1
 44
1.0
1001
ACAD
1000
MTEXTBEGIN
1070
    73
1070
     1
1070
    44
1040
1.0
1070
    74
1070
     0
1000
MTEXTEND
  0
HATCH
  5
BAE
330
C9B
100
AcDbEntity
  8
0
100
AcDbHatch
 10
0.0
 20
0.0
 30
0.0
210
0.0
220
0.0
230
1.0
  2
SOLID
 70
     1
 71
     0
 91
        3
 92
        5
 93
       12
 72
     1
 10
3.580704626323492
 20
0.6335487000817466
 11
3.027023768265733
 21
0.270984578165951
 72
     1
 10
3.027023768265506
 20
0.2709845781660078
 11
2.830656293339415
 21
0.370868962958582
 72
     1
 10
2.830656293339415
 20
0.3708689629586388
 11
3.503040401726821
 21
0.6848637054544044
 72
     1
 10
3.503040401726821
 20
0.684863705454518
 11
2.88389521224485
 21
1.093950886710899
 72
     1
 10
2.88389521224485
 20
1.093950886710899
 11
3.092774356416611
 21
1.163997861409086
 72
     1
 10
3.092774356416383
 20
1.163997861408915
 11
3.587382800401655
 21
0.7242505223393323
 72
     1
 10
3.587382800401655
 20
0.7242505223393893
 11
3.730955399501908
 21
0.7912970820685814
 72
     4
 94
        3
 73
     0
 74
     0
 95
        9
 96
        5
 40
0.0
 40
0.0
 40
0.0
 40
0.0
 40
2.805029479527813
 40
4.98660370770903
 40
4.98660370770903
 40
4.98660370770903
 40
4.98660370770903
 10
3.730955399502136
 20
0.7912970820684678
 10
3.758861837831318
 20
0.9219926147484327
 10
3.808810611378703
 20
1.15322248355801
 10
3.974491439712663
 20
1.004109152881937
 10
4.046974645995533
 20
0.9388740112206047
 72
     1
 10
4.046974645995533
 20
0.9388740112206047
 11
3.643298600381056
 21
0.6745368052531262
 72
     1
 10
3.64329860038083
 20
0.6745368052531831
 11
4.003906300448305
 21
0.3539270815798545
 72
     4
 94
        3
 73
     0
 74
     0
 95
        9
 96
        5
 40
0.0
 40
0.0
 40
0.0
 40
0.0
 40
2.18157422818124
 40
4.986603707709058
 40
4.986603707709058
 40
4.986603707709058
 40
4.986603707709058
 10
4.003906300448305
 20
0.3539270815797408
 10
3.922650284543351
 20
0.3000114179938009
 10
3.736916723452623
 20
0.1767719496924656
 10
3.721372873881363
 20
0.4128238951388994
 10
3.712909244138471
 20
0.5461972752950715
 72
     1
 10
3.712909244138471
 20
0.5461972752950715
 11
3.580704626323267
 21
0.6335487000818035
 97
        0
 92
       20
 93
        2
 72
     4
 94
        3
 73
     0
 74
     0
 95
        9
 96
        5
 40
0.0022346529120277
 40
0.0022346529120277
 40
0.0022346529120277
 40
0.0022346529120277
 40
1.699152400941025
 40
3.97747025263658
 40
3.97747025263658
 40
3.97747025263658
 40
3.97747025263658
 10
4.034925172733892
 20
0.9332470619710877
 10
3.978541307734531
 20
0.9822229065516694
 10
3.846503108921523
 20
1.0967884113943
 10
3.799683862093615
 20
0.9150431830189518
 10
3.772855121330393
 20
0.8108637140005612
 72
     1
 10
3.772855121330621
 20
0.8108637140012433
 11
4.034925172733892
 21
0.9332470619711443
 97
        0
 92
       20
 93
        2
 72
     4
 94
        3
 73
     0
 74
     0
 95
        9
 96
        5
 40
0.0022346529119619
 40
0.0022346529119619
 40
0.0022346529119619
 40
0.0022346529119619
 40
2.280552504607423
 40
3.977470252636471
 40
3.977470252636471
 40
3.977470252636471
 40
3.977470252636471
 10
3.751491374333453
 20
0.5207049430343888
 10
3.762772512863193
 20
0.4137195280968628
 10
3.782468182537058
 20
0.2270769538893091
 10
3.929861974677805
 20
0.3210685007647953
 10
3.992810896329274
 20
0.3612581368363408
 72
     1
 10
3.992810896329274
 20
0.3612581368363408
 11
3.751491374333453
 21
0.5207049430337634
 97
        0
 75
     0
 76
     1
 47
0.0275389756302889
 98
        3
 10
3.59990322578983
 20
0.6828830002164068
 10
3.59990322578983
 20
0.6828830002164068
 10
3.59990322578983
 20
0.6828830002164068
1001
ACAD
1010
0.0
1020
0.0
1030
0.0
  0
MTEXT
  5
BB8
330
C9B
100
AcDbEntity
  8
0
  6
ACAD_ISO03W100
100
AcDbMText
 10
1.749955951989248
 20
1.431479602872855
 30
0.0
 40
0.4064
 41
6.306357610792588
 71
     1
 72
     5
  1
{\fSimHei|b0|i0|c134|p2;Cut line}
 73
     1
 44
1.0
1001
ACAD
1000
MTEXTBEGIN
1070
    73
1070
     1
1070
    44
1040
1.0
1070
    74
1070
     0
1000
MTEXTEND
  0
MTEXT
  5
BB9
330
C9B
100
AcDbEntity
  8
0
  6
ACAD_ISO03W100
100
AcDbMText
 10
1.718380266704798
 20
0.5057040917664608
 30
0.0
 40
0.4064
 41
6.306357610792588
 71
     1
 72
     5
  1
{\fSimHei|b0|i0|c134|p2;Cut line}
 73
     1
 44
1.0
1001
ACAD
1000
MTEXTBEGIN
1070
    73
1070
     1
1070
    44
1040
1.0
1070
    74
1070
     0
1000
MTEXTEND
  0
HATCH
  5
BBA
330
C9B
100
AcDbEntity
  8
0
100
AcDbHatch
 10
0.0
 20
0.0
 30
0.0
210
0.0
220
0.0
230
1.0
  2
SOLID
 70
     1
 71
     0
 91
        3
 92
        5
 93
       12
 72
     1
 10
0.4662251057911817
 20
0.7461182797707126
 11
1.01990596384894
 21
1.108682401686508
 72
     1
 10
1.019905963849164
 20
1.10868240168645
 11
1.21627343877526
 21
1.008798016893877
 72
     1
 10
1.21627343877526
 20
1.008798016893933
 11
0.5438893303878558
 21
0.6948032743981685
 72
     1
 10
0.5438893303878558
 20
0.6948032743980548
 11
1.163034519869823
 21
0.2857160931416729
 72
     1
 10
1.163034519869597
 20
0.2857160931416729
 11
0.9541553756980647
 21
0.2156691184434862
 72
     1
 10
0.9541553756980647
 20
0.2156691184435431
 11
0.4595469317127936
 21
0.6554164575131268
 72
     1
 10
0.4595469317127936
 20
0.6554164575131836
 11
0.3159743326125408
 21
0.5883698977839913
 72
     4
 94
        3
 73
     0
 74
     0
 95
        9
 96
        5
 40
0.0
 40
0.0
 40
0.0
 40
0.0
 40
2.805029479527813
 40
4.98660370770903
 40
4.98660370770903
 40
4.98660370770903
 40
4.98660370770903
 10
0.3159743326125408
 20
0.5883698977839913
 10
0.2880678942833583
 20
0.4576743651040263
 10
0.2381191207359734
 20
0.2264444962945618
 10
0.072438292402012
 20
0.3755578269706348
 10
-0.0000449138808563
 20
0.4407929686319676
 72
     1
 10
-0.0000449138808563
 20
0.4407929686319676
 11
0.4036311317336187
 21
0.7051301745994465
 72
     1
 10
0.4036311317336187
 20
0.7051301745993897
 11
0.04302343166637
 21
1.025739898272717
 72
     4
 94
        3
 73
     0
 74
     0
 95
        9
 96
        5
 40
0.0
 40
0.0
 40
0.0
 40
0.0
 40
2.18157422818124
 40
4.986603707709058
 40
4.986603707709058
 40
4.986603707709058
 40
4.986603707709058
 10
0.04302343166637
 20
1.025739898272717
 10
0.124279447571098
 20
1.079655561858654
 10
0.3100130086622812
 20
1.20289503015999
 10
0.32555685823354
 20
0.9668430847135596
 10
0.3340204879759767
 20
0.8334697045573873
 72
     1
 10
0.3340204879759767
 20
0.8334697045573873
 11
0.4662251057911817
 21
0.7461182797706556
 97
        0
 92
       20
 93
        2
 72
     4
 94
        3
 73
     0
 74
     0
 95
        9
 96
        5
 40
0.0022346529120277
 40
0.0022346529120277
 40
0.0022346529120277
 40
0.0022346529120277
 40
1.699152400941025
 40
3.97747025263658
 40
3.97747025263658
 40
3.97747025263658
 40
3.97747025263658
 10
0.0120045593807845
 20
0.4464199178813715
 10
0.0683884243799184
 20
0.3974440733007896
 10
0.2004266231933798
 20
0.2828785684581589
 10
0.2472458700210609
 20
0.4646237968336209
 10
0.2740746107842824
 20
0.5688032658518978
 72
     1
 10
0.274074610784055
 20
0.5688032658513295
 11
0.0120045593807845
 21
0.4464199178814284
 97
        0
 92
       20
 93
        2
 72
     4
 94
        3
 73
     0
 74
     0
 95
        9
 96
        5
 40
0.0022346529119619
 40
0.0022346529119619
 40
0.0022346529119619
 40
0.0022346529119619
 40
2.280552504607423
 40
3.977470252636471
 40
3.977470252636471
 40
3.977470252636471
 40
3.977470252636471
 10
0.2954383577812223
 20
0.8589620368180701
 10
0.2841572192514832
 20
0.9659474517555963
 10
0.2644615495773905
 20
1.152590025963259
 10
0.117067757436871
 20
1.058598479087663
 10
0.0541188357854026
 20
1.018408843016118
 72
     1
 10
0.0541188357854026
 20
1.018408843016118
 11
0.2954383577812223
 21
0.8589620368186956
 97
        0
 75
     0
 76
     1
 47
0.0275389756302889
 98
        3
 10
0.4470265063246189
 20
0.6967839796360522
 10
0.4470265063246189
 20
0.6967839796360522
 10
0.4470265063246189
 20
0.6967839796360522
1001
ACAD
1010
0.0
1020
0.0
1030
0.0
  0
MTEXT
  5
BC4
330
C9B
100
AcDbEntity
  8
0
  6
ACAD_ISO03W100
100
AcDbMText
 10
1.575000610142295
 20
0.0271235082223029
 30
0.0
 40
0.4064
 41
6.306357610792588
 71
     7
 72
     5
  1
{\fSimHei|b0|i0|c134|p2;Cut line}
 11
-0.0000000000000003
 21
1.0
 31
0.0
 73
     1
 44
1.0
1001
ACAD
1000
MTEXTBEGIN
1070
    73
1070
     1
1070
    44
1040
1.0
1070
    74
1070
     0
1000
MTEXTEND
  0
MTEXT
  5
BC5
330
C9B
100
AcDbEntity
  8
0
  6
ACAD_ISO03W100
100
AcDbMText
 10
0.5191791295017083
 20
0.0416037531423399
 30
0.0
 40
0.4064
 41
6.306357610792588
 71
     7
 72
     5
  1
{\fSimHei|b0|i0|c134|p2;Cut line}
 11
-0.0000000000000003
 21
1.0
 31
0.0
 73
     1
 44
1.0
1001
ACAD
1000
MTEXTBEGIN
1070
    73
1070
     1
1070
    44
1040
1.0
1070
    74
1070
     0
1000
MTEXTEND
  0
HATCH
  5
BC6
330
C9B
100
AcDbEntity
  8
0
100
AcDbHatch
 10
0.0
 20
0.0
 30
0.0
210
0.0
220
0.0
230
1.0
  2
SOLID
 70
     1
 71
     0
 91
        3
 92
        5
 93
       12
 72
     1
 10
0.7753154824140438
 20
3.286544542446903
 11
0.3541299406713279
 21
2.776036976873796
 72
     1
 10
0.3541299406715552
 20
2.776036976873796
 11
0.4318413988651173
 21
2.569886534721263
 72
     1
 10
0.4318413988648901
 20
2.569886534721263
 11
0.817789537169574
 21
3.203713894548968
 72
     1
 10
0.817789537169574
 20
3.203713894548968
 11
1.156395978118325
 21
2.543381579971708
 72
     1
 10
1.156395978118325
 20
2.543381579971649
 11
1.248961967933833
 21
2.743303097232169
 72
     1
 10
1.24896196793361
 20
2.743303097232113
 11
0.8662020313715855
 21
3.283219818628308
 72
     1
 10
0.8662020313713583
 20
3.283219818628365
 11
0.9486126306749156
 21
3.418559485786087
 72
     4
 94
        3
 73
     0
 74
     0
 95
        9
 96
        5
 40
0.0
 40
0.0
 40
0.0
 40
0.0
 40
2.805029479527813
 40
4.98660370770903
 40
4.98660370770903
 40
4.98660370770903
 40
4.98660370770903
 10
0.9486126306749156
 20
3.418559485786087
 10
1.081582575521905
 20
3.431941762501878
 10
1.316899657967495
 20
3.456190533971607
 10
1.186886557788051
 20
3.637247199257444
 10
1.130007518405135
 20
3.716457134111008
 72
     1
 10
1.130007518405135
 20
3.716457134111008
 11
0.8229307764765961
 21
3.344257748259506
 72
     1
 10
0.8229307764765961
 20
3.344257748259565
 11
0.5438692641225771
 21
3.737898676752023
 72
     4
 94
        3
 73
     0
 74
     0
 95
        9
 96
        5
 40
0.0
 40
0.0
 40
0.0
 40
0.0
 40
2.18157422818124
 40
4.986603707709058
 40
4.986603707709058
 40
4.986603707709058
 40
4.986603707709058
 10
0.5438692641225771
 20
3.737898676752023
 10
0.4813548313029516
 20
3.663056278408133
 10
0.3384604486793705
 20
3.491982850672001
 10
0.5713768639873253
 20
3.450605614314437
 10
0.7030136445318931
 20
3.42754375032689
 72
     1
 10
0.7030136445318931
 20
3.42754375032689
 11
0.7753154824138166
 21
3.286544542446847
 97
        0
 92
       20
 93
        2
 72
     4
 94
        3
 73
     0
 74
     0
 95
        9
 96
        5
 40
0.0022346529120277
 40
0.0022346529120277
 40
0.0022346529120277
 40
0.0022346529120277
 40
1.699152400941025
 40
3.97747025263658
 40
3.97747025263658
 40
3.97747025263658
 40
3.97747025263658
 10
1.123091126844428
 20
3.705098617855923
 10
1.165577562467432
 20
3.643676501540426
 10
1.26494710128577
 20
3.499853570125765
 10
1.079158993929467
 20
3.473280104492118
 10
0.9726630498221313
 20
3.458056537743118
 72
     1
 10
0.9726630498230406
 20
3.458056537743118
 11
1.123091126844428
 21
3.705098617855923
 97
        0
 92
       20
 93
        2
 72
     4
 94
        3
 73
     0
 74
     0
 95
        9
 96
        5
 40
0.0022346529119619
 40
0.0022346529119619
 40
0.0022346529119619
 40
0.0022346529119619
 40
2.280552504607423
 40
3.977470252636471
 40
3.977470252636471
 40
3.977470252636471
 40
3.977470252636471
 10
0.6819133307267295
 20
3.46869246272206
 10
0.5768143246327782
 20
3.491656391261471
 10
0.3934643571251399
 20
3.53173330887887
 10
0.5030766250624767
 20
3.667911469989006
 10
0.5499372678209511
 20
3.726065177909504
 72
     1
 10
0.5499372678209511
 20
3.726065177909504
 11
0.6819133307260472
 21
3.468692462722173
 97
        0
 75
     0
 76
     1
 47
0.0275389756302889
 98
        3
 10
0.8264600189882003
 20
3.300208208494153
 10
0.8264600189882003
 20
3.300208208494153
 10
0.8264600189882003
 20
3.300208208494153
1001
ACAD
1010
0.0
1020
0.0
1030
0.0
  0
MTEXT
  5
C3A
330
C9B
100
AcDbEntity
  8
0
  6
ACAD_ISO03W100
100
AcDbMText
 10
39.44893714375212
 20
23.32342131601762
 30
0.0
 40
0.4064
 41
6.306357610792588
 71
     1
 72
     5
  1
{\fSimHei|b0|i0|c134|p2;Cut line}
 11
0.0000000000000003
 21
1.0
 31
0.0
 73
     1
 44
1.0
1001
ACAD
1000
MTEXTBEGIN
1070
    73
1070
     1
1070
    44
1040
1.0
1070
    74
1070
     0
1000
MTEXTEND
  0
MTEXT
  5
C3B
330
C9B
100
AcDbEntity
  8
0
  6
ACAD_ISO03W100
100
AcDbMText
 10
40.36743005157041
 20
23.25286862927896
 30
0.0
 40
0.4064
 41
6.306357610792588
 71
     1
 72
     5
  1
{\fSimHei|b0|i0|c134|p2;Cut line}
 11
0.0000000000000003
 21
1.0
 31
0.0
 73
     1
 44
1.0
1001
ACAD
1000
MTEXTBEGIN
1070
    73
1070
     1
1070
    44
1040
1.0
1070
    74
1070
     0
1000
MTEXTEND
  0
HATCH
  5
C3C
330
C9B
100
AcDbEntity
  8
0
100
AcDbHatch
 10
0.0
 20
0.0
 30
0.0
210
0.0
220
0.0
230
1.0
  2
SOLID
 70
     1
 71
     0
 91
        3
 92
        5
 93
       12
 72
     1
 10
40.11154485936185
 20
22.36771704456026
 11
40.54167154847095
 21
22.8707143272531
 72
     1
 10
40.5416715484707
 20
22.8707143272531
 11
40.46760922399061
 21
23.07820371885378
 72
     1
 10
40.46760922399061
 20
23.07820371885378
 11
40.07053876687677
 21
22.45128415494281
 72
     1
 10
40.07053876687654
 20
22.45128415494281
 11
39.74363503438667
 21
23.11748760525751
 72
     1
 10
39.7436350343869
 20
23.11748760525751
 11
39.64755630813101
 21
22.91923031309591
 72
     1
 10
39.64755630813079
 20
22.91923031309574
 11
40.02073111321829
 21
22.37264472974374
 72
     1
 10
40.02073111321851
 20
22.37264472974386
 11
39.93594559130838
 21
22.23878006802039
 72
     4
 94
        3
 73
     0
 74
     0
 95
        9
 96
        5
 40
0.0
 40
0.0
 40
0.0
 40
0.0
 40
2.805029479527813
 40
4.98660370770903
 40
4.98660370770903
 40
4.98660370770903
 40
4.98660370770903
 10
39.93594559130816
 20
22.23878006802039
 10
39.80276024365549
 20
22.22774581528955
 10
39.56705197439692
 20
22.20765243300258
 10
39.69385052097073
 20
22.0243301734443
 10
39.74932323498457
 20
21.94412907058046
 72
     1
 10
39.74932323498457
 20
21.94412907058046
 11
40.06291876288833
 21
22.31085288101616
 72
     1
 10
40.0629187628881
 20
22.31085288101616
 11
40.33499197518788
 21
21.91234983785256
 72
     4
 94
        3
 73
     0
 74
     0
 95
        9
 96
        5
 40
0.0
 40
0.0
 40
0.0
 40
0.0
 40
2.18157422818124
 40
4.986603707709058
 40
4.986603707709058
 40
4.986603707709058
 40
4.986603707709058
 10
40.33499197518767
 20
21.91234983785256
 10
40.39881709567384
 20
21.98607766771039
 10
40.54470742493729
 20
22.15460343455408
 10
40.31255726532346
 20
22.20008349172093
 10
40.1813478453987
 20
22.22546418685869
 72
     1
 10
40.1813478453987
 20
22.22546418685869
 11
40.11154485936185
 21
22.36771704456026
 97
        0
 92
       20
 93
        2
 72
     4
 94
        3
 73
     0
 74
     0
 95
        9
 96
        5
 40
0.0022346529120277
 40
0.0022346529120277
 40
0.0022346529120277
 40
0.0022346529120277
 40
1.699152400941025
 40
3.97747025263658
 40
3.97747025263658
 40
3.97747025263658
 40
3.97747025263658
 10
39.75643894428845
 20
21.95536379553658
 10
39.71504276980681
 20
22.0175259248669
 10
39.61822611368872
 20
22.16307961236356
 10
39.80445413046846
 20
22.18637114896222
 10
39.91120208310872
 20
22.19971347645611
 72
     1
 10
39.91120208310804
 20
22.199713476456
 11
39.75643894428822
 21
21.95536379553647
 97
        0
 92
       20
 93
        2
 72
     4
 94
        3
 73
     0
 74
     0
 95
        9
 96
        5
 40
0.0022346529119619
 40
0.0022346529119619
 40
0.0022346529119619
 40
0.0022346529119619
 40
2.280552504607423
 40
3.977470252636471
 40
3.977470252636471
 40
3.977470252636471
 40
3.977470252636471
 10
40.20171890307961
 20
22.18394961371354
 10
40.30639640682625
 20
22.15913503523228
 10
40.4890107743938
 20
22.11582957750812
 10
40.37701302436444
 20
21.98160646163734
 10
40.32913369011725
 20
21.92428855050394
 72
     1
 10
40.32913369011725
 20
21.92428855050394
 11
40.20171890307984
 21
22.1839496137133
 97
        0
 75
     0
 76
     1
 47
0.0275389756302889
 98
        3
 10
40.0601672199359
 20
22.35495782991808
 10
40.0601672199359
 20
22.35495782991808
 10
40.0601672199359
 20
22.35495782991808
1001
ACAD
1010
0.0
1020
0.0
1030
0.0
  0
DIMENSION
  5
C3D
330
C9B
100
AcDbEntity
  8
0
100
AcDbDimension
  2
*D1
 10
40.09475810051299
 20
1.249995699181454
 30
0.0
 11
20.04738104727153
 21
2.374995699181454
 31
0.0
 12
-642.5637298911897
 22
-417.0967619064104
 32
0.0
 70
    32
 71
     5
 42
400.9475410648291
  3
副本 ISO-25
100
AcDbAlignedDimension
 13
0.0000039940300667
 23
23.04727633346539
 33
0.0
 14
40.09475810051299
 24
23.0472560426133
 34
0.0
100
AcDbRotatedDimension
  0
MTEXT
  5
C5D
330
C9B
100
AcDbEntity
  8
0
  6
ACAD_ISO03W100
100
AcDbMText
 10
0.1104415271693142
 20
1.411081947037015
 30
0.0
 40
0.4064
 41
6.306357610792588
 71
     1
 72
     5
  1
{\fSimHei|b0|i0|c134|p2;Cut line}
 11
0.0000000000000003
 21
1.0
 31
0.0
 73
     1
 44
1.0
1001
ACAD
1000
MTEXTBEGIN
1070
    73
1070
     1
1070
    44
1040
1.0
1070
    74
1070
     0
1000
MTEXTEND
  0
MTEXT
  5
C5E
330
C9B
100
AcDbEntity
  8
0
  6
ACAD_ISO03W100
100
AcDbMText
 10
1.028934434987603
 20
1.340529260298352
 30
0.0
 40
0.4064
 41
6.306357610792588
 71
     1
 72
     5
  1
{\fSimHei|b0|i0|c134|p2;Cut line}
 11
0.0000000000000003
 21
1.0
 31
0.0
 73
     1
 44
1.0
1001
ACAD
1000
MTEXTBEGIN
1070
    73
1070
     1
1070
    44
1040
1.0
1070
    74
1070
     0
1000
MTEXTEND
  0
HATCH
  5
C5F
330
C9B
100
AcDbEntity
  8
0
100
AcDbHatch
 10
0.0
 20
0.0
 30
0.0
210
0.0
220
0.0
230
1.0
  2
SOLID
 70
     1
 71
     0
 91
        3
 92
        5
 93
       12
 72
     1
 10
0.7730492427790523
 20
0.4553776755796548
 11
1.203175931888154
 21
0.9583749582724864
 72
     1
 10
1.203175931887926
 20
0.9583749582724864
 11
1.129113607407812
 21
1.165864349873174
 72
     1
 10
1.129113607407812
 20
1.165864349873174
 11
0.7320431502939755
 21
0.538944785962201
 72
     1
 10
0.7320431502937482
 20
0.538944785962201
 11
0.4051394178038663
 21
1.205148236276897
 72
     1
 10
0.4051394178040937
 20
1.205148236276897
 11
0.3090606915482112
 21
1.006890944115298
 72
     1
 10
0.3090606915479839
 20
1.006890944115127
 11
0.6822354966354851
 21
0.4603053607631296
 72
     1
 10
0.6822354966357125
 20
0.4603053607632435
 11
0.5974499747255777
 21
0.3264406990397788
 72
     4
 94
        3
 73
     0
 74
     0
 95
        9
 96
        5
 40
0.0
 40
0.0
 40
0.0
 40
0.0
 40
2.805029479527813
 40
4.98660370770903
 40
4.98660370770903
 40
4.98660370770903
 40
4.98660370770903
 10
0.5974499747253505
 20
0.3264406990397788
 10
0.4642646270726801
 20
0.3154064463089412
 10
0.2285563578141136
 20
0.2953130640219683
 10
0.3553549043879229
 20
0.1119908044636872
 10
0.4108276184017541
 20
0.0317897015998483
 72
     1
 10
0.4108276184017541
 20
0.0317897015998483
 11
0.7244231463055259
 21
0.3985135120355494
 72
     1
 10
0.7244231463052984
 20
0.3985135120355494
 11
0.9964963586050995
 21
0.0000104688719489
 72
     4
 94
        3
 73
     0
 74
     0
 95
        9
 96
        5
 40
0.0
 40
0.0
 40
0.0
 40
0.0
 40
2.18157422818124
 40
4.986603707709058
 40
4.986603707709058
 40
4.986603707709058
 40
4.986603707709058
 10
0.9964963586048723
 20
0.0000104688719489
 10
1.060321479091044
 20
0.0737382987297792
 10
1.20621180835451
 20
0.2422640655734654
 10
0.9740616487406439
 20
0.2877441227403211
 10
0.8428522288158999
 20
0.3131248178780766
 72
     1
 10
0.8428522288158999
 20
0.3131248178780766
 11
0.7730492427790523
 21
0.4553776755796548
 97
        0
 92
       20
 93
        2
 72
     4
 94
        3
 73
     0
 74
     0
 95
        9
 96
        5
 40
0.0022346529120277
 40
0.0022346529120277
 40
0.0022346529120277
 40
0.0022346529120277
 40
1.699152400941025
 40
3.97747025263658
 40
3.97747025263658
 40
3.97747025263658
 40
3.97747025263658
 10
0.4179433277056435
 20
0.0430244265559736
 10
0.3765471532240099
 20
0.1051865558862914
 10
0.279730497105902
 20
0.2507402433829498
 10
0.4659585138856528
 20
0.2740317799816125
 10
0.5727064665259151
 20
0.2873741074755003
 72
     1
 10
0.572706466525233
 20
0.2873741074753866
 11
0.4179433277054161
 21
0.0430244265558599
 97
        0
 92
       20
 93
        2
 72
     4
 94
        3
 73
     0
 74
     0
 95
        9
 96
        5
 40
0.0022346529119619
 40
0.0022346529119619
 40
0.0022346529119619
 40
0.0022346529119619
 40
2.280552504607423
 40
3.977470252636471
 40
3.977470252636471
 40
3.977470252636471
 40
3.977470252636471
 10
0.8632232864968043
 20
0.2716102447329263
 10
0.9679007902434475
 20
0.2467956662516713
 10
1.150515157811014
 20
0.2034902085275121
 10
1.038517407781682
 20
0.0692670926567303
 10
0.9906380735344557
 20
0.0119491815233346
 72
     1
 10
0.9906380735344557
 20
0.0119491815233346
 11
0.8632232864970319
 21
0.2716102447326989
 97
        0
 75
     0
 76
     1
 47
0.0275389756302889
 98
        3
 10
0.7216716033531158
 20
0.4426184609374674
 10
0.7216716033531158
 20
0.4426184609374674
 10
0.7216716033531158
 20
0.4426184609374674
1001
ACAD
1010
0.0
1020
0.0
1030
0.0
  0
LINE
  5
C6B
330
C9B
100
AcDbEntity
  8
0
100
AcDbLine
 10
17.85661910409794
 20
23.74956912678403
 30
0.0
 11
17.85661910409794
 21
24.69108973478871
 31
0.0
  0
LINE
  5
C6C
330
C9B
100
AcDbEntity
  8
0
100
AcDbLine
 10
15.97357788808835
 20
23.74956912678403
 30
0.0
 11
15.97357788808835
 21
24.69108973478871
 31
0.0
  0
LINE
  5
C6D
330
C9B
100
AcDbEntity
  8
0
100
AcDbLine
 10
17.85661910409794
 20
24.69108973478871
 30
0.0
 11
18.42153146890052
 21
24.69108973478871
 31
0.0
  0
LINE
  5
C6E
330
C9B
100
AcDbEntity
  8
0
100
AcDbLine
 10
15.97357788808835
 20
24.69108973478871
 30
0.0
 11
15.40866552328543
 21
24.69108973478871
 31
0.0
  0
LINE
  5
C6F
330
C9B
100
AcDbEntity
  8
0
100
AcDbLine
 10
16.91509849609292
 20
25.85659157275161
 30
0.0
 11
18.42153146890052
 21
24.69108973478871
 31
0.0
  0
LINE
  5
C70
330
C9B
100
AcDbEntity
  8
0
100
AcDbLine
 10
16.91509849609292
 20
25.85659157275161
 30
0.0
 11
15.40866552328578
 21
24.69108973478871
 31
0.0
  0
MTEXT
  5
C71
330
C9B
100
AcDbEntity
  8
0
370
    70
100
AcDbMText
 10
13.59775510869065
 20
22.9307105245383
 30
0.0
 40
1.28
 41
3.2
 71
     1
 72
     1
  1
{\ftimes new roman|b1|i0|c238|p18;VB7027}
 73
     1
 44
1.0
1001
ACAD
1000
MTEXTBEGIN
1070
    73
1070
     1
1070
    44
1040
1.0
1070
    74
1070
     0
1000
MTEXTEND
  0
MTEXT
  5
C72
330
C9B
100
AcDbEntity
  8
0
 48
2.0
370
    70
100
AcDbMText
 10
14.6776834931436
 20
1.213038613098774
 30
0.0
 40
0.9
 41
4.508126237459102
 71
     1
 72
     1
  1
{\fArial|b0|i0|c0|p34;FRONT}
 73
     1
 44
1.0
1001
ACAD
1000
MTEXTBEGIN
1070
    73
1070
     1
1070
    44
1040
1.0
1070
    74
1070
     0
1000
MTEXTEND
  0
LINE
  5
C73
330
C9B
100
AcDbEntity
  8
0
100
AcDbLine
 10
15.96661013594382
 20
3.940114723896042
 30
0.0
 11
15.96661013594382
 21
2.991626363746886
 31
0.0
  0
LINE
  5
C74
330
C9B
100
AcDbEntity
  8
0
100
AcDbLine
 10
17.86358685624179
 20
3.940114723896042
 30
0.0
 11
17.86358685624179
 21
2.991626363746886
 31
0.0
  0
LINE
  5
C75
330
C9B
100
AcDbEntity
  8
0
100
AcDbLine
 10
15.96661013594382
 20
2.991626363746886
 30
0.0
 11
15.39751711985457
 21
2.991626363746886
 31
0.0
  0
LINE
  5
C76
330
C9B
100
AcDbEntity
  8
0
100
AcDbLine
 10
17.86358685624179
 20
2.991626363746886
 30
0.0
 11
18.43267987233128
 21
2.991626363746886
 31
0.0
  0
LINE
  5
C77
330
C9B
100
AcDbEntity
  8
0
100
AcDbLine
 10
16.91509849609292
 20
1.817499193676211
 30
0.0
 11
15.39751711985457
 21
2.991626363746886
 31
0.0
  0
LINE
  5
C78
330
C9B
100
AcDbEntity
  8
0
100
AcDbLine
 10
16.91509849609292
 20
1.817499193676211
 30
0.0
 11
18.43267987233094
 21
2.991626363746886
 31
0.0
  0
LINE
  5
C79
330
C9B
100
AcDbEntity
  8
0
100
AcDbLine
 10
17.86358685624179
 20
3.940114723896042
 30
0.0
 11
15.96661013594382
 21
3.940114723896042
 31
0.0
  0
MTEXT
  5
C7A
330
C9B
100
AcDbEntity
  8
0
100
AcDbMText
 10
0.7325256711420707
 20
21.21100909174976
 30
0.0
 40
0.75
 41
32.88672955349762
 71
     1
 72
     5
  3
{\fArial|b1|i0|c0|p34;NOTE:\PDimensions vary from sink to sink, verify exact size of sink before cutting using the template. Manufacturer is not responsible for mis-cut templates.\fArial|b1|i0|c238|p34;\PNOTA:\PLas dimensiones varian de fregadero al 
  1
fregadero,verifian el tamano exacto del fregadero antes del corte usando la plantilla. El fabricante no es responsable de mis-corto plantillas}
 73
     1
 44
1.0
1001
ACAD
1000
MTEXTBEGIN
1070
    73
1070
     1
1070
    44
1040
1.0
1070
    74
1070
     0
1000
MTEXTEND
  0
MTEXT
  5
C7B
330
C9B
100
AcDbEntity
  8
0
100
AcDbMText
 10
15.35288466793406
 20
27.24962159678018
 30
0.0
 40
0.9
 41
2.590293177805504
 71
     1
 72
     5
  1
{\fArial|b0|i0|c0|p34;BACK}
 73
     1
 44
1.0
1001
ACAD
1000
MTEXTBEGIN
1070
    73
1070
     1
1070
    44
1040
1.0
1070
    74
1070
     0
1000
MTEXTEND
  0
LINE
  5
C7C
330
C9B
100
AcDbEntity
  8
0
100
AcDbLine
 10
15.97357788808835
 20
23.74956912678403
 30
0.0
 11
17.85661910409794
 21
23.74956912678403
 31
0.0
  0
IMAGE
  5
C7D
330
C9B
100
AcDbEntity
  8
0
 92
      140
310
8C0000000100000084000000060000000500000038803A10CC0F2640008C3F490AA21040000000000000000038803A10CC0F264079F54092C96C25400000000000000000016D25C2A1CC364079F54092C96C25400000000000000000016D25C2A1CC3640008C3F490AA21040000000000000000038803A10CC0F2640008C3F
310
490AA210400000000000000000
370
    -3
100
AcDbRasterImage
 90
        0
 10
11.03085375513193
 20
4.158242363456338
 30
0.0
 11
0.0291299244602032
 21
0.0
 31
0.0
 12
0.0
 22
0.0291299244602032
 32
0.0
 13
404.0
 23
225.0
340
A40
 70
     7
280
     0
281
    50
282
    50
283
     0
360
C7E
 71
     1
 91
        2
 14
-0.5
 24
-0.5
 14
403.5
 24
224.5
  0
ENDBLK
  5
C9D
330
C9B
100
AcDbEntity
  8
0
100
AcDbBlockEnd
  0
BLOCK
  5
D23
330
D22
100
AcDbEntity
  8
0
100
AcDbBlockBegin
  2
*D3
 70
     1
 10
0.0
 20
0.0
 30
0.0
  3
*D3
  1

  0
LINE
  5
102C
330
D22
100
AcDbEntity
  8
0
 62
     0
370
    -2
100
AcDbLine
 10
582.0486287398671
 20
457.3735970521939
 30
0.0
 11
582.0486287398671
 21
459.6235970521939
 31
0.0
  0
LINE
  5
102D
330
D22
100
AcDbEntity
  8
0
 62
     0
370
    -2
100
AcDbLine
 10
627.648628739867
 20
457.3735970521939
 30
0.0
 11
627.648628739867
 21
459.6235970521939
 31
0.0
  0
LINE
  5
102E
330
D22
100
AcDbEntity
  8
0
 62
     0
370
    -2
100
AcDbLine
 10
583.0486287398671
 20
458.3735970521939
 30
0.0
 11
626.648628739867
 21
458.3735970521939
 31
0.0
  0
SOLID
  5
102F
330
D22
100
AcDbEntity
  8
0
 62
     0
100
AcDbTrace
 10
583.0486287398671
 20
458.5402637188606
 30
0.0
 11
583.0486287398671
 21
458.2069303855272
 31
0.0
 12
582.0486287398671
 22
458.3735970521939
 32
0.0
 13
582.0486287398671
 23
458.3735970521939
 33
0.0
  0
SOLID
  5
1030
330
D22
100
AcDbEntity
  8
0
 62
     0
100
AcDbTrace
 10
626.648628739867
 20
458.5402637188606
 30
0.0
 11
626.648628739867
 21
458.2069303855272
 31
0.0
 12
627.648628739867
 22
458.3735970521939
 32
0.0
 13
627.648628739867
 23
458.3735970521939
 33
0.0
  0
MTEXT
  5
1031
330
D22
100
AcDbEntity
  8
0
 62
     0
100
AcDbMText
 10
604.8486287398668
 20
459.4985970521939
 30
0.0
 40
1.0
 41
0.0
 71
     5
 72
     1
  1
18"
 73
     1
 44
1.0
1001
ACAD
1000
MTEXTBEGIN
1070
    73
1070
     1
1070
    44
1040
1.0
1070
    74
1070
     0
1000
MTEXTEND
  0
POINT
  5
1032
330
D22
100
AcDbEntity
  8
Defpoints
 62
     0
100
AcDbPoint
 10
582.0486287398671
 20
445.3766446855111
 30
0.0
  0
POINT
  5
1033
330
D22
100
AcDbEntity
  8
Defpoints
 62
     0
100
AcDbPoint
 10
627.648628739867
 20
445.3766446855111
 30
0.0
  0
POINT
  5
1034
330
D22
100
AcDbEntity
  8
Defpoints
 62
     0
100
AcDbPoint
 10
627.648628739867
 20
458.3735970521939
 30
0.0
  0
ENDBLK
  5
D24
330
D22
100
AcDbEntity
  8
0
100
AcDbBlockEnd
  0
BLOCK
  5
D3B
330
D3A
100
AcDbEntity
  8
0
100
AcDbBlockBegin
  2
*D4
 70
     1
 10
0.0
 20
0.0
 30
0.0
  3
*D4
  1

  0
LINE
  5
1035
330
D3A
100
AcDbEntity
  8
0
 62
     0
370
    -2
100
AcDbLine
 10
579.2772118156506
 20
454.7803864901289
 30
0.0
 11
577.0272118156506
 21
454.7803864901289
 31
0.0
  0
LINE
  5
1036
330
D3A
100
AcDbEntity
  8
0
 62
     0
370
    -2
100
AcDbLine
 10
579.2772118156506
 20
424.2803864901286
 30
0.0
 11
577.0272118156506
 21
424.2803864901286
 31
0.0
  0
LINE
  5
1037
330
D3A
100
AcDbEntity
  8
0
 62
     0
370
    -2
100
AcDbLine
 10
578.2772118156506
 20
453.7803864901286
 30
0.0
 11
578.2772118156506
 21
425.2803864901286
 31
0.0
  0
SOLID
  5
1038
330
D3A
100
AcDbEntity
  8
0
 62
     0
100
AcDbTrace
 10
578.110545148984
 20
453.7803864901286
 30
0.0
 11
578.4438784823172
 21
453.7803864901286
 31
0.0
 12
578.2772118156506
 22
454.7803864901289
 32
0.0
 13
578.2772118156506
 23
454.7803864901289
 33
0.0
  0
SOLID
  5
1039
330
D3A
100
AcDbEntity
  8
0
 62
     0
100
AcDbTrace
 10
578.110545148984
 20
425.2803864901286
 30
0.0
 11
578.4438784823172
 21
425.2803864901286
 31
0.0
 12
578.2772118156506
 22
424.2803864901286
 32
0.0
 13
578.2772118156506
 23
424.2803864901286
 33
0.0
  0
MTEXT
  5
103A
330
D3A
100
AcDbEntity
  8
0
 62
     0
100
AcDbMText
 10
577.1522118156505
 20
439.5303864901286
 30
0.0
 40
1.0
 41
0.0
 71
     5
 72
     1
  1
12"
 11
0.0000000000000001
 21
1.0
 31
0.0
 73
     1
 44
1.0
1001
ACAD
1000
MTEXTBEGIN
1070
    73
1070
     1
1070
    44
1040
1.0
1070
    74
1070
     0
1000
MTEXTEND
  0
POINT
  5
103B
330
D3A
100
AcDbEntity
  8
Defpoints
 62
     0
100
AcDbPoint
 10
589.2839969187531
 20
454.7803864901289
 30
0.0
  0
POINT
  5
103C
330
D3A
100
AcDbEntity
  8
Defpoints
 62
     0
100
AcDbPoint
 10
589.2839969187531
 20
424.2803864901286
 30
0.0
  0
POINT
  5
103D
330
D3A
100
AcDbEntity
  8
Defpoints
 62
     0
100
AcDbPoint
 10
578.2772118156506
 20
424.2803864901286
 30
0.0
  0
ENDBLK
  5
D3C
330
D3A
100
AcDbEntity
  8
0
100
AcDbBlockEnd
  0
BLOCK
  5
DAE
330
DAD
100
AcDbEntity
  8
0
100
AcDbBlockBegin
  2
*D5
 70
     1
 10
0.0
 20
0.0
 30
0.0
  3
*D5
  1

  0
LINE
  5
DF3
330
DAD
100
AcDbEntity
  8
0
 62
     0
370
    -2
100
AcDbLine
 10
565.9234059842372
 20
447.8009200829061
 30
0.0
 11
565.9234059842372
 21
450.0509200829063
 31
0.0
  0
LINE
  5
DF4
330
DAD
100
AcDbEntity
  8
0
 62
     0
370
    -2
100
AcDbLine
 10
555.9234059842371
 20
447.8009200829061
 30
0.0
 11
555.9234059842371
 21
450.0509200829063
 31
0.0
  0
LINE
  5
DF5
330
DAD
100
AcDbEntity
  8
0
 62
     0
370
    -2
100
AcDbLine
 10
564.923405984237
 20
448.8009200829065
 30
0.0
 11
556.9234059842369
 21
448.8009200829065
 31
0.0
  0
SOLID
  5
DF6
330
DAD
100
AcDbEntity
  8
0
 62
     0
100
AcDbTrace
 10
564.923405984237
 20
448.9675867495732
 30
0.0
 11
564.923405984237
 21
448.6342534162398
 31
0.0
 12
565.9234059842372
 22
448.8009200829065
 32
0.0
 13
565.9234059842372
 23
448.8009200829065
 33
0.0
  0
SOLID
  5
DF7
330
DAD
100
AcDbEntity
  8
0
 62
     0
100
AcDbTrace
 10
556.9234059842369
 20
448.9675867495732
 30
0.0
 11
556.9234059842369
 21
448.6342534162398
 31
0.0
 12
555.9234059842371
 22
448.8009200829065
 32
0.0
 13
555.9234059842371
 23
448.8009200829065
 33
0.0
  0
MTEXT
  5
DF8
330
DAD
100
AcDbEntity
  8
0
 62
     0
100
AcDbMText
 10
560.923405984237
 20
450.031475638462
 30
0.0
 40
1.0
 41
0.0
 71
     5
 72
     1
  1
3 7/8"
 73
     1
 44
1.0
1001
ACAD
1000
MTEXTBEGIN
1070
    73
1070
     1
1070
    44
1040
1.0
1070
    74
1070
     0
1000
MTEXTEND
  0
POINT
  5
DF9
330
DAD
100
AcDbEntity
  8
Defpoints
 62
     0
100
AcDbPoint
 10
565.9234059842372
 20
447.0439885201511
 30
0.0
  0
POINT
  5
DFA
330
DAD
100
AcDbEntity
  8
Defpoints
 62
     0
100
AcDbPoint
 10
555.9234059842371
 20
447.0439885201511
 30
0.0
  0
POINT
  5
DFB
330
DAD
100
AcDbEntity
  8
Defpoints
 62
     0
100
AcDbPoint
 10
555.9234059842371
 20
448.8009200829065
 30
0.0
  0
ENDBLK
  5
DAF
330
DAD
100
AcDbEntity
  8
0
100
AcDbBlockEnd
  0
BLOCK
  5
DC7
330
DC6
100
AcDbEntity
  8
0
100
AcDbBlockBegin
  2
*D6
 70
     1
 10
0.0
 20
0.0
 30
0.0
  3
*D6
  1

  0
LINE
  5
DFC
330
DC6
100
AcDbEntity
  8
0
 62
     0
370
    -2
100
AcDbLine
 10
559.7487341408757
 20
439.7494526567363
 30
0.0
 11
559.7487341408757
 21
441.2274682298998
 31
0.0
  0
LINE
  5
DFD
330
DC6
100
AcDbEntity
  8
0
 62
     0
370
    -2
100
AcDbLine
 10
558.7487341408757
 20
439.7494526567363
 30
0.0
 11
558.7487341408757
 21
441.2274682298998
 31
0.0
  0
LINE
  5
DFE
330
DC6
100
AcDbEntity
  8
0
 62
     0
370
    -2
100
AcDbLine
 10
560.7487341408757
 20
439.9774682298999
 30
0.0
 11
561.7487341408757
 21
439.9774682298999
 31
0.0
  0
LINE
  5
DFF
330
DC6
100
AcDbEntity
  8
0
 62
     0
370
    -2
100
AcDbLine
 10
557.7487341408757
 20
439.9774682298999
 30
0.0
 11
552.8542896964315
 21
439.9774682298999
 31
0.0
  0
LINE
  5
E00
330
DC6
100
AcDbEntity
  8
0
 62
     0
370
    -2
100
AcDbLine
 10
559.7487341408757
 20
439.9774682298999
 30
0.0
 11
558.7487341408757
 21
439.9774682298999
 31
0.0
  0
SOLID
  5
E01
330
DC6
100
AcDbEntity
  8
0
 62
     0
100
AcDbTrace
 10
560.7487341408757
 20
440.1441348965667
 30
0.0
 11
560.7487341408757
 21
439.8108015632333
 31
0.0
 12
559.7487341408757
 22
439.9774682298999
 32
0.0
 13
559.7487341408757
 23
439.9774682298999
 33
0.0
  0
SOLID
  5
E02
330
DC6
100
AcDbEntity
  8
0
 62
     0
100
AcDbTrace
 10
557.7487341408757
 20
440.1441348965667
 30
0.0
 11
557.7487341408757
 21
439.8108015632333
 31
0.0
 12
558.7487341408757
 22
439.9774682298999
 32
0.0
 13
558.7487341408757
 23
439.9774682298999
 33
0.0
  0
MTEXT
  5
E03
330
DC6
100
AcDbEntity
  8
0
 62
     0
100
AcDbMText
 10
554.8015119186536
 20
441.2080237854556
 30
0.0
 40
1.0
 41
0.0
 71
     5
 72
     1
  1
3/8"
 73
     1
 44
1.0
1001
ACAD
1000
MTEXTBEGIN
1070
    73
1070
     1
1070
    44
1040
1.0
1070
    74
1070
     0
1000
MTEXTEND
  0
POINT
  5
E04
330
DC6
100
AcDbEntity
  8
Defpoints
 62
     0
100
AcDbPoint
 10
559.7487341408757
 20
439.1244526567361
 30
0.0
  0
POINT
  5
E05
330
DC6
100
AcDbEntity
  8
Defpoints
 62
     0
100
AcDbPoint
 10
558.7487341408757
 20
439.1244526567361
 30
0.0
  0
POINT
  5
E06
330
DC6
100
AcDbEntity
  8
Defpoints
 62
     0
100
AcDbPoint
 10
558.7487341408757
 20
439.9774682298999
 30
0.0
  0
ENDBLK
  5
DC8
330
DC6
100
AcDbEntity
  8
0
100
AcDbBlockEnd
  0
BLOCK
  5
E5B
330
E5A
100
AcDbEntity
  8
0
100
AcDbBlockBegin
  2
*D7
 70
     1
 10
0.0
 20
0.0
 30
0.0
  3
*D7
  1

  0
LINE
  5
E67
330
E5A
100
AcDbEntity
  8
0
 62
     0
370
    -2
100
AcDbLine
 10
580.7786287398671
 20
461.5196451708975
 30
0.0
 11
580.7786287398671
 21
463.7696451708975
 31
0.0
  0
LINE
  5
E68
330
E5A
100
AcDbEntity
  8
0
 62
     0
370
    -2
100
AcDbLine
 10
628.918628739867
 20
461.5196451708975
 30
0.0
 11
628.918628739867
 21
463.7696451708975
 31
0.0
  0
LINE
  5
E69
330
E5A
100
AcDbEntity
  8
0
 62
     0
370
    -2
100
AcDbLine
 10
581.7786287398671
 20
462.5196451708974
 30
0.0
 11
627.918628739867
 21
462.5196451708974
 31
0.0
  0
SOLID
  5
E6A
330
E5A
100
AcDbEntity
  8
0
 62
     0
100
AcDbTrace
 10
581.7786287398671
 20
462.6863118375641
 30
0.0
 11
581.7786287398671
 21
462.3529785042308
 31
0.0
 12
580.7786287398671
 22
462.5196451708974
 32
0.0
 13
580.7786287398671
 23
462.5196451708974
 33
0.0
  0
SOLID
  5
E6B
330
E5A
100
AcDbEntity
  8
0
 62
     0
100
AcDbTrace
 10
627.918628739867
 20
462.6863118375641
 30
0.0
 11
627.918628739867
 21
462.3529785042308
 31
0.0
 12
628.918628739867
 22
462.5196451708974
 32
0.0
 13
628.918628739867
 23
462.5196451708974
 33
0.0
  0
MTEXT
  5
E6C
330
E5A
100
AcDbEntity
  8
0
 62
     0
100
AcDbMText
 10
604.8486287398667
 20
463.6446451708975
 30
0.0
 40
1.0
 41
0.0
 71
     5
 72
     1
  1
19"
 73
     1
 44
1.0
1001
ACAD
1000
MTEXTBEGIN
1070
    73
1070
     1
1070
    44
1040
1.0
1070
    74
1070
     0
1000
MTEXTEND
  0
POINT
  5
E6D
330
E5A
100
AcDbEntity
  8
Defpoints
 62
     0
100
AcDbPoint
 10
580.7786287398671
 20
452.7803864901287
 30
0.0
  0
POINT
  5
E6E
330
E5A
100
AcDbEntity
  8
Defpoints
 62
     0
100
AcDbPoint
 10
628.918628739867
 20
452.7803864901287
 30
0.0
  0
POINT
  5
E6F
330
E5A
100
AcDbEntity
  8
Defpoints
 62
     0
100
AcDbPoint
 10
628.918628739867
 20
462.5196451708974
 30
0.0
  0
ENDBLK
  5
E5C
330
E5A
100
AcDbEntity
  8
0
100
AcDbBlockEnd
  0
BLOCK
  5
E74
330
E73
100
AcDbEntity
  8
0
100
AcDbBlockBegin
  2
*D8
 70
     1
 10
0.0
 20
0.0
 30
0.0
  3
*D8
  1

  0
LINE
  5
1050
330
E73
100
AcDbEntity
  8
0
 62
     0
370
    -2
100
AcDbLine
 10
581.4136287398674
 20
460.2773857774923
 30
0.0
 11
581.4136287398674
 21
462.5273857774923
 31
0.0
  0
LINE
  5
1051
330
E73
100
AcDbEntity
  8
0
 62
     0
370
    -2
100
AcDbLine
 10
628.2836287398671
 20
460.2773857774923
 30
0.0
 11
628.2836287398671
 21
462.5273857774923
 31
0.0
  0
LINE
  5
1052
330
E73
100
AcDbEntity
  8
0
 62
     0
370
    -2
100
AcDbLine
 10
582.4136287398672
 20
461.2773857774921
 30
0.0
 11
627.2836287398671
 21
461.2773857774921
 31
0.0
  0
SOLID
  5
1053
330
E73
100
AcDbEntity
  8
0
 62
     0
100
AcDbTrace
 10
582.4136287398672
 20
461.4440524441588
 30
0.0
 11
582.4136287398672
 21
461.1107191108255
 31
0.0
 12
581.4136287398674
 22
461.2773857774921
 32
0.0
 13
581.4136287398674
 23
461.2773857774921
 33
0.0
  0
SOLID
  5
1054
330
E73
100
AcDbEntity
  8
0
 62
     0
100
AcDbTrace
 10
627.2836287398671
 20
461.4440524441588
 30
0.0
 11
627.2836287398671
 21
461.1107191108255
 31
0.0
 12
628.2836287398671
 22
461.2773857774921
 32
0.0
 13
628.2836287398671
 23
461.2773857774921
 33
0.0
  0
MTEXT
  5
1055
330
E73
100
AcDbEntity
  8
0
 62
     0
100
AcDbMText
 10
604.8486287398672
 20
462.5079413330476
 30
0.0
 40
1.0
 41
0.0
 71
     5
 72
     1
  1
18 1/2"
 73
     1
 44
1.0
1001
ACAD
1000
MTEXTBEGIN
1070
    73
1070
     1
1070
    44
1040
1.0
1070
    74
1070
     0
1000
MTEXTEND
  0
POINT
  5
1056
330
E73
100
AcDbEntity
  8
Defpoints
 62
     0
100
AcDbPoint
 10
581.4136287398674
 20
452.7803864901286
 30
0.0
  0
POINT
  5
1057
330
E73
100
AcDbEntity
  8
Defpoints
 62
     0
100
AcDbPoint
 10
628.2836287398671
 20
452.7803864901287
 30
0.0
  0
POINT
  5
1058
330
E73
100
AcDbEntity
  8
Defpoints
 62
     0
100
AcDbPoint
 10
628.2836287398671
 20
461.2773857774921
 30
0.0
  0
ENDBLK
  5
E75
330
E73
100
AcDbEntity
  8
0
100
AcDbBlockEnd
  0
BLOCK
  5
E8C
330
E8B
100
AcDbEntity
  8
0
100
AcDbBlockBegin
  2
*D9
 70
     1
 10
0.0
 20
0.0
 30
0.0
  3
*D9
  1

  0
LINE
  5
1047
330
E8B
100
AcDbEntity
  8
0
 62
     0
370
    -2
100
AcDbLine
 10
576.3652889841885
 20
455.4153864901286
 30
0.0
 11
574.1152889841885
 21
455.4153864901286
 31
0.0
  0
LINE
  5
1048
330
E8B
100
AcDbEntity
  8
0
 62
     0
370
    -2
100
AcDbLine
 10
576.3652889841885
 20
423.6453864901287
 30
0.0
 11
574.1152889841885
 21
423.6453864901287
 31
0.0
  0
LINE
  5
1049
330
E8B
100
AcDbEntity
  8
0
 62
     0
370
    -2
100
AcDbLine
 10
575.3652889841885
 20
454.4153864901288
 30
0.0
 11
575.3652889841885
 21
424.6453864901287
 31
0.0
  0
SOLID
  5
104A
330
E8B
100
AcDbEntity
  8
0
 62
     0
100
AcDbTrace
 10
575.1986223175219
 20
454.4153864901288
 30
0.0
 11
575.5319556508551
 21
454.4153864901288
 31
0.0
 12
575.3652889841885
 22
455.4153864901286
 32
0.0
 13
575.3652889841885
 23
455.4153864901286
 33
0.0
  0
SOLID
  5
104B
330
E8B
100
AcDbEntity
  8
0
 62
     0
100
AcDbTrace
 10
575.1986223175219
 20
424.6453864901287
 30
0.0
 11
575.5319556508551
 21
424.6453864901287
 31
0.0
 12
575.3652889841885
 22
423.6453864901287
 32
0.0
 13
575.3652889841885
 23
423.6453864901287
 33
0.0
  0
MTEXT
  5
104C
330
E8B
100
AcDbEntity
  8
0
 62
     0
100
AcDbMText
 10
574.1347334286327
 20
439.5303864901286
 30
0.0
 40
1.0
 41
0.0
 71
     5
 72
     1
  1
12 1/2"
 11
0.0000000000000001
 21
1.0
 31
0.0
 73
     1
 44
1.0
1001
ACAD
1000
MTEXTBEGIN
1070
    73
1070
     1
1070
    44
1040
1.0
1070
    74
1070
     0
1000
MTEXTEND
  0
POINT
  5
104D
330
E8B
100
AcDbEntity
  8
Defpoints
 62
     0
100
AcDbPoint
 10
604.3887320675501
 20
455.4153864901286
 30
0.0
  0
POINT
  5
104E
330
E8B
100
AcDbEntity
  8
Defpoints
 62
     0
100
AcDbPoint
 10
604.3887320675501
 20
423.6453864901287
 30
0.0
  0
POINT
  5
104F
330
E8B
100
AcDbEntity
  8
Defpoints
 62
     0
100
AcDbPoint
 10
575.3652889841885
 20
423.6453864901287
 30
0.0
  0
ENDBLK
  5
E8D
330
E8B
100
AcDbEntity
  8
0
100
AcDbBlockEnd
  0
BLOCK
  5
105B
330
105A
100
AcDbEntity
  8
0
100
AcDbBlockBegin
  2
*D10
 70
     1
 10
0.0
 20
0.0
 30
0.0
  3
*D10
  1

  0
LINE
  5
10DF
330
105A
100
AcDbEntity
  8
0
 62
     0
370
    -2
100
AcDbLine
 10
25.0118909183052
 20
37.31630581996964
 30
0.0
 11
25.0118909183052
 21
39.56630581996964
 31
0.0
  0
LINE
  5
10E0
330
105A
100
AcDbEntity
  8
0
 62
     0
370
    -2
100
AcDbLine
 10
61.49189091830521
 20
37.31630581996964
 30
0.0
 11
61.49189091830521
 21
39.56630581996964
 31
0.0
  0
LINE
  5
10E1
330
105A
100
AcDbEntity
  8
0
 62
     0
370
    -2
100
AcDbLine
 10
26.0118909183052
 20
38.31630581996964
 30
0.0
 11
60.49189091830522
 21
38.31630581996964
 31
0.0
  0
SOLID
  5
10E2
330
105A
100
AcDbEntity
  8
0
 62
     0
100
AcDbTrace
 10
26.0118909183052
 20
38.48297248663632
 30
0.0
 11
26.0118909183052
 21
38.14963915330298
 31
0.0
 12
25.0118909183052
 22
38.31630581996964
 32
0.0
 13
25.0118909183052
 23
38.31630581996964
 33
0.0
  0
SOLID
  5
10E3
330
105A
100
AcDbEntity
  8
0
 62
     0
100
AcDbTrace
 10
60.49189091830522
 20
38.48297248663632
 30
0.0
 11
60.49189091830522
 21
38.14963915330298
 31
0.0
 12
61.49189091830521
 22
38.31630581996964
 32
0.0
 13
61.49189091830521
 23
38.31630581996964
 33
0.0
  0
MTEXT
  5
10E4
330
105A
100
AcDbEntity
  8
0
 62
     0
100
AcDbMText
 10
43.2518909183052
 20
39.55797248663632
 30
0.0
 40
1.0
 41
0.0
 71
     5
 72
     1
  1
1 1/2" [5/8mm]
 73
     1
 44
1.0
1001
ACAD
1000
MTEXTBEGIN
1070
    73
1070
     1
1070
    44
1040
1.0
1070
    74
1070
     0
1000
MTEXTEND
  0
POINT
  5
10E5
330
105A
100
AcDbEntity
  8
Defpoints
 62
     0
100
AcDbPoint
 10
25.0118909183052
 20
30.10537560687581
 30
0.0
  0
POINT
  5
10E6
330
105A
100
AcDbEntity
  8
Defpoints
 62
     0
100
AcDbPoint
 10
61.49189091830521
 20
30.10537560687581
 30
0.0
  0
POINT
  5
10E7
330
105A
100
AcDbEntity
  8
Defpoints
 62
     0
100
AcDbPoint
 10
61.49189091830521
 20
38.31630581996964
 30
0.0
  0
ENDBLK
  5
105C
330
105A
100
AcDbEntity
  8
0
100
AcDbBlockEnd
  0
BLOCK
  5
1073
330
1072
100
AcDbEntity
  8
0
100
AcDbBlockBegin
  2
*D11
 70
     1
 10
0.0
 20
0.0
 30
0.0
  3
*D11
  1

  0
LINE
  5
10E8
330
1072
100
AcDbEntity
  8
0
 62
     0
370
    -2
100
AcDbLine
 10
22.03991917543914
 20
35.0998520511057
 30
0.0
 11
19.78991917543914
 21
35.0998520511057
 31
0.0
  0
LINE
  5
10E9
330
1072
100
AcDbEntity
  8
0
 62
     0
370
    -2
100
AcDbLine
 10
22.03991917543914
 20
10.69985205110556
 30
0.0
 11
19.78991917543914
 21
10.69985205110556
 31
0.0
  0
LINE
  5
10EA
330
1072
100
AcDbEntity
  8
0
 62
     0
370
    -2
100
AcDbLine
 10
21.03991917543914
 20
34.0998520511057
 30
0.0
 11
21.03991917543914
 21
11.69985205110555
 31
0.0
  0
SOLID
  5
10EB
330
1072
100
AcDbEntity
  8
0
 62
     0
100
AcDbTrace
 10
20.87325250877247
 20
34.0998520511057
 30
0.0
 11
21.20658584210581
 21
34.0998520511057
 31
0.0
 12
21.03991917543914
 22
35.0998520511057
 32
0.0
 13
21.03991917543914
 23
35.0998520511057
 33
0.0
  0
SOLID
  5
10EC
330
1072
100
AcDbEntity
  8
0
 62
     0
100
AcDbTrace
 10
20.87325250877247
 20
11.69985205110555
 30
0.0
 11
21.2065858421058
 21
11.69985205110555
 31
0.0
 12
21.03991917543914
 22
10.69985205110556
 32
0.0
 13
21.03991917543914
 23
10.69985205110556
 33
0.0
  0
MTEXT
  5
10ED
330
1072
100
AcDbEntity
  8
0
 62
     0
100
AcDbMText
 10
19.79825250877247
 20
22.89985205110563
 30
0.0
 40
1.0
 41
0.0
 71
     5
 72
     1
  1
1" [3/8mm]
 11
0.0000000000000001
 21
1.0
 31
0.0
 73
     1
 44
1.0
1001
ACAD
1000
MTEXTBEGIN
1070
    73
1070
     1
1070
    44
1040
1.0
1070
    74
1070
     0
1000
MTEXTEND
  0
POINT
  5
10EE
330
1072
100
AcDbEntity
  8
Defpoints
 62
     0
100
AcDbPoint
 10
43.25189091830526
 20
35.0998520511057
 30
0.0
  0
POINT
  5
10EF
330
1072
100
AcDbEntity
  8
Defpoints
 62
     0
100
AcDbPoint
 10
43.25189091830526
 20
10.69985205110555
 30
0.0
  0
POINT
  5
10F0
330
1072
100
AcDbEntity
  8
Defpoints
 62
     0
100
AcDbPoint
 10
21.03991917543914
 20
10.69985205110556
 30
0.0
  0
ENDBLK
  5
1074
330
1072
100
AcDbEntity
  8
0
100
AcDbBlockEnd
  0
BLOCK
  5
1191
330
1190
100
AcDbEntity
  8
0
100
AcDbBlockBegin
  2
*D12
 70
     1
 10
0.0
 20
0.0
 30
0.0
  3
*D12
  1

  0
LINE
  5
11E5
330
1190
100
AcDbEntity
  8
0
 62
     0
370
    -2
100
AcDbLine
 10
78.37924539431742
 20
341.7024628184482
 30
0.0
 11
78.37924539431742
 21
343.9524628184482
 31
0.0
  0
LINE
  5
11E6
330
1190
100
AcDbEntity
  8
0
 62
     0
370
    -2
100
AcDbLine
 10
526.3792453943174
 20
341.7024628184482
 30
0.0
 11
526.3792453943174
 21
343.9524628184482
 31
0.0
  0
LINE
  5
11E7
330
1190
100
AcDbEntity
  8
0
 62
     0
370
    -2
100
AcDbLine
 10
88.37924539431742
 20
342.7024628184482
 30
0.0
 11
516.3792453943174
 21
342.7024628184482
 31
0.0
  0
SOLID
  5
11E8
330
1190
100
AcDbEntity
  8
0
 62
     0
100
AcDbTrace
 10
88.37924539431742
 20
344.3691294851149
 30
0.0
 11
88.37924539431742
 21
341.0357961517815
 31
0.0
 12
78.37924539431742
 22
342.7024628184482
 32
0.0
 13
78.37924539431742
 23
342.7024628184482
 33
0.0
  0
SOLID
  5
11E9
330
1190
100
AcDbEntity
  8
0
 62
     0
100
AcDbTrace
 10
516.3792453943174
 20
344.3691294851149
 30
0.0
 11
516.3792453943174
 21
341.0357961517815
 31
0.0
 12
526.3792453943174
 22
342.7024628184482
 32
0.0
 13
526.3792453943174
 23
342.7024628184482
 33
0.0
  0
MTEXT
  5
11EA
330
1190
100
AcDbEntity
  8
0
 62
     0
100
AcDbMText
 10
302.3792453943173
 20
349.7428789166747
 30
0.0
 40
10.0
 41
0.0
 71
     5
 72
     1
  1
17 3/4" [450mm]
 73
     1
 44
1.0
1001
ACAD
1000
MTEXTBEGIN
1070
    73
1070
     1
1070
    44
1040
1.0
1070
    74
1070
     0
1000
MTEXTEND
  0
POINT
  5
11EB
330
1190
100
AcDbEntity
  8
Defpoints
 62
     0
100
AcDbPoint
 10
78.37924539431742
 20
271.5376565808493
 30
0.0
  0
POINT
  5
11EC
330
1190
100
AcDbEntity
  8
Defpoints
 62
     0
100
AcDbPoint
 10
526.3792453943174
 20
271.5376565808493
 30
0.0
  0
POINT
  5
11ED
330
1190
100
AcDbEntity
  8
Defpoints
 62
     0
100
AcDbPoint
 10
526.3792453943174
 20
342.7024628184482
 30
0.0
  0
ENDBLK
  5
1192
330
1190
100
AcDbEntity
  8
0
100
AcDbBlockEnd
  0
BLOCK
  5
11BD
330
11BC
100
AcDbEntity
  8
0
100
AcDbBlockBegin
  2
*D13
 70
     1
 10
0.0
 20
0.0
 30
0.0
  3
*D13
  1

  0
LINE
  5
11EE
330
11BC
100
AcDbEntity
  8
0
 62
     0
370
    -2
100
AcDbLine
 10
34.42340043108627
 20
299.6522266858698
 30
0.0
 11
32.17340043108627
 21
299.6522266858698
 31
0.0
  0
LINE
  5
11EF
330
11BC
100
AcDbEntity
  8
0
 62
     0
370
    -2
100
AcDbLine
 10
34.42340043108622
 20
1.652226685869836
 30
0.0
 11
32.17340043108622
 21
1.652226685869838
 31
0.0
  0
LINE
  5
11F0
330
11BC
100
AcDbEntity
  8
0
 62
     0
370
    -2
100
AcDbLine
 10
33.42340043108626
 20
289.6522266858698
 30
0.0
 11
33.42340043108619
 21
11.65222668586983
 31
0.0
  0
SOLID
  5
11F1
330
11BC
100
AcDbEntity
  8
0
 62
     0
100
AcDbTrace
 10
31.7567337644196
 20
289.6522266858698
 30
0.0
 11
35.09006709775293
 21
289.6522266858698
 31
0.0
 12
33.42340043108626
 22
299.6522266858698
 32
0.0
 13
33.42340043108626
 23
299.6522266858698
 33
0.0
  0
SOLID
  5
11F2
330
11BC
100
AcDbEntity
  8
0
 62
     0
100
AcDbTrace
 10
31.75673376441954
 20
11.65222668586983
 30
0.0
 11
35.09006709775287
 21
11.65222668586983
 31
0.0
 12
33.42340043108619
 22
1.652226685869838
 32
0.0
 13
33.42340043108619
 23
1.652226685869838
 33
0.0
  0
MTEXT
  5
11F3
330
11BC
100
AcDbEntity
  8
0
 62
     0
100
AcDbMText
 10
26.38298433285975
 20
150.6522266858698
 30
0.0
 40
10.0
 41
0.0
 71
     5
 72
     1
  1
11 3/4" [300mm]
 11
0.0000000000000001
 21
1.0
 31
0.0
 73
     1
 44
1.0
1001
ACAD
1000
MTEXTBEGIN
1070
    73
1070
     1
1070
    44
1040
1.0
1070
    74
1070
     0
1000
MTEXTEND
  0
POINT
  5
11F4
330
11BC
100
AcDbEntity
  8
Defpoints
 62
     0
100
AcDbPoint
 10
246.3782139904348
 20
299.6522266858698
 30
0.0
  0
POINT
  5
11F5
330
11BC
100
AcDbEntity
  8
Defpoints
 62
     0
100
AcDbPoint
 10
246.3782139904348
 20
1.652226685869776
 30
0.0
  0
POINT
  5
11F6
330
11BC
100
AcDbEntity
  8
Defpoints
 62
     0
100
AcDbPoint
 10
33.42340043108619
 20
1.652226685869838
 30
0.0
  0
ENDBLK
  5
11BE
330
11BC
100
AcDbEntity
  8
0
100
AcDbBlockEnd
  0
BLOCK
  5
11FB
330
11FA
100
AcDbEntity
  8
0
100
AcDbBlockBegin
  2
*D14
 70
     1
 10
0.0
 20
0.0
 30
0.0
  3
*D14
  1

  0
LINE
  5
1229
330
11FA
100
AcDbEntity
  8
0
 62
     0
370
    -2
100
AcDbLine
 10
726.4959087261677
 20
299.6722994137672
 30
0.0
 11
726.4959087261677
 21
301.9222994137672
 31
0.0
  0
LINE
  5
122A
330
11FA
100
AcDbEntity
  8
0
 62
     0
370
    -2
100
AcDbLine
 10
1076.495908726168
 20
299.6722994137672
 30
0.0
 11
1076.495908726168
 21
301.9222994137672
 31
0.0
  0
LINE
  5
122B
330
11FA
100
AcDbEntity
  8
0
 62
     0
370
    -2
100
AcDbLine
 10
736.4959087261677
 20
300.6722994137672
 30
0.0
 11
1066.495908726167
 21
300.6722994137672
 31
0.0
  0
SOLID
  5
122C
330
11FA
100
AcDbEntity
  8
0
 62
     0
100
AcDbTrace
 10
736.4959087261677
 20
302.3389660804339
 30
0.0
 11
736.4959087261677
 21
299.0056327471005
 31
0.0
 12
726.4959087261677
 22
300.6722994137672
 32
0.0
 13
726.4959087261677
 23
300.6722994137672
 33
0.0
  0
SOLID
  5
122D
330
11FA
100
AcDbEntity
  8
0
 62
     0
100
AcDbTrace
 10
1066.495908726167
 20
302.3389660804339
 30
0.0
 11
1066.495908726167
 21
299.0056327471005
 31
0.0
 12
1076.495908726168
 22
300.6722994137672
 32
0.0
 13
1076.495908726168
 23
300.6722994137672
 33
0.0
  0
MTEXT
  5
122E
330
11FA
100
AcDbEntity
  8
0
 62
     0
100
AcDbMText
 10
901.4959087261678
 20
307.7127155119936
 30
0.0
 40
10.0
 41
0.0
 71
     5
 72
     1
  1
13 3/4" [350mm]
 73
     1
 44
1.0
1001
ACAD
1000
MTEXTBEGIN
1070
    73
1070
     1
1070
    44
1040
1.0
1070
    74
1070
     0
1000
MTEXTEND
  0
POINT
  5
122F
330
11FA
100
AcDbEntity
  8
Defpoints
 62
     0
100
AcDbPoint
 10
726.4959087261677
 20
119.6060501426109
 30
0.0
  0
POINT
  5
1230
330
11FA
100
AcDbEntity
  8
Defpoints
 62
     0
100
AcDbPoint
 10
1076.495908726168
 20
119.6060501426109
 30
0.0
  0
POINT
  5
1231
330
11FA
100
AcDbEntity
  8
Defpoints
 62
     0
100
AcDbPoint
 10
1076.495908726168
 20
300.6722994137672
 30
0.0
  0
ENDBLK
  5
11FC
330
11FA
100
AcDbEntity
  8
0
100
AcDbBlockEnd
  0
BLOCK
  5
1213
330
1212
100
AcDbEntity
  8
0
100
AcDbBlockBegin
  2
*D15
 70
     1
 10
0.0
 20
0.0
 30
0.0
  3
*D15
  1

  0
LINE
  5
1232
330
1212
100
AcDbEntity
  8
0
 62
     0
370
    -2
100
AcDbLine
 10
1151.788341016708
 20
257.1060501426109
 30
0.0
 11
1154.038341016708
 21
257.1060501426109
 31
0.0
  0
LINE
  5
1233
330
1212
100
AcDbEntity
  8
0
 62
     0
370
    -2
100
AcDbLine
 10
1151.788341016708
 20
-17.89394985738916
 30
0.0
 11
1154.038341016708
 21
-17.89394985738916
 31
0.0
  0
LINE
  5
1234
330
1212
100
AcDbEntity
  8
0
 62
     0
370
    -2
100
AcDbLine
 10
1152.788341016709
 20
247.1060501426109
 30
0.0
 11
1152.788341016709
 21
-7.893949857389157
 31
0.0
  0
SOLID
  5
1235
330
1212
100
AcDbEntity
  8
0
 62
     0
100
AcDbTrace
 10
1151.121674350042
 20
247.1060501426109
 30
0.0
 11
1154.455007683375
 21
247.1060501426109
 31
0.0
 12
1152.788341016709
 22
257.1060501426109
 32
0.0
 13
1152.788341016709
 23
257.1060501426109
 33
0.0
  0
SOLID
  5
1236
330
1212
100
AcDbEntity
  8
0
 62
     0
100
AcDbTrace
 10
1151.121674350042
 20
-7.893949857389157
 30
0.0
 11
1154.455007683375
 21
-7.89394985738916
 31
0.0
 12
1152.788341016709
 22
-17.89394985738916
 32
0.0
 13
1152.788341016709
 23
-17.89394985738916
 33
0.0
  0
MTEXT
  5
1237
330
1212
100
AcDbEntity
  8
0
 62
     0
100
AcDbMText
 10
1145.747924918482
 20
119.606050142611
 30
0.0
 40
10.0
 41
0.0
 71
     5
 72
     1
  1
10 7/8" [275mm]
 11
0.0000000000000001
 21
1.0
 31
0.0
 73
     1
 44
1.0
1001
ACAD
1000
MTEXTBEGIN
1070
    73
1070
     1
1070
    44
1040
1.0
1070
    74
1070
     0
1000
MTEXTEND
  0
POINT
  5
1238
330
1212
100
AcDbEntity
  8
Defpoints
 62
     0
100
AcDbPoint
 10
901.4959087261678
 20
257.1060501426109
 30
0.0
  0
POINT
  5
1239
330
1212
100
AcDbEntity
  8
Defpoints
 62
     0
100
AcDbPoint
 10
901.4959087261678
 20
-17.89394985738909
 30
0.0
  0
POINT
  5
123A
330
1212
100
AcDbEntity
  8
Defpoints
 62
     0
100
AcDbPoint
 10
1152.788341016709
 20
-17.89394985738916
 30
0.0
  0
ENDBLK
  5
1214
330
1212
100
AcDbEntity
  8
0
100
AcDbBlockEnd
  0
BLOCK
  5
123D
330
123C
100
AcDbEntity
  8
0
100
AcDbBlockBegin
  2
*D16
 70
     1
 10
0.0
 20
0.0
 30
0.0
  3
*D16
  1

  0
LINE
  5
125C
330
123C
100
AcDbEntity
  8
0
 62
     0
370
    -2
100
AcDbLine
 10
528.3792453943174
 20
319.5944867992663
 30
0.0
 11
528.3792453943174
 21
321.8444867992663
 31
0.0
  0
LINE
  5
125D
330
123C
100
AcDbEntity
  8
0
 62
     0
370
    -2
100
AcDbLine
 10
78.37924539431742
 20
319.5944867992663
 30
0.0
 11
78.37924539431742
 21
321.8444867992663
 31
0.0
  0
LINE
  5
125E
330
123C
100
AcDbEntity
  8
0
 62
     0
370
    -2
100
AcDbLine
 10
518.3792453943174
 20
320.5944867992664
 30
0.0
 11
88.37924539431742
 21
320.5944867992664
 31
0.0
  0
SOLID
  5
125F
330
123C
100
AcDbEntity
  8
0
 62
     0
100
AcDbTrace
 10
518.3792453943174
 20
322.2611534659331
 30
0.0
 11
518.3792453943174
 21
318.9278201325997
 31
0.0
 12
528.3792453943174
 22
320.5944867992664
 32
0.0
 13
528.3792453943174
 23
320.5944867992664
 33
0.0
  0
SOLID
  5
1260
330
123C
100
AcDbEntity
  8
0
 62
     0
100
AcDbTrace
 10
88.37924539431742
 20
322.2611534659331
 30
0.0
 11
88.37924539431742
 21
318.9278201325997
 31
0.0
 12
78.37924539431742
 22
320.5944867992664
 32
0.0
 13
78.37924539431742
 23
320.5944867992664
 33
0.0
  0
MTEXT
  5
1261
330
123C
100
AcDbEntity
  8
0
 62
     0
100
AcDbMText
 10
303.3792453943174
 20
327.6349028974928
 30
0.0
 40
10.0
 41
0.0
 71
     5
 72
     1
  1
17 3/4" [450mm]
 73
     1
 44
1.0
1001
ACAD
1000
MTEXTBEGIN
1070
    73
1070
     1
1070
    44
1040
1.0
1070
    74
1070
     0
1000
MTEXTEND
  0
POINT
  5
1262
330
123C
100
AcDbEntity
  8
Defpoints
 62
     0
100
AcDbPoint
 10
528.3792453943174
 20
259.3454654378872
 30
0.0
  0
POINT
  5
1263
330
123C
100
AcDbEntity
  8
Defpoints
 62
     0
100
AcDbPoint
 10
78.37924539431742
 20
259.3454654378872
 30
0.0
  0
POINT
  5
1264
330
123C
100
AcDbEntity
  8
Defpoints
 62
     0
100
AcDbPoint
 10
78.37924539431742
 20
320.5944867992664
 30
0.0
  0
ENDBLK
  5
123E
330
123C
100
AcDbEntity
  8
0
100
AcDbBlockEnd
  0
BLOCK
  5
132A
330
1329
100
AcDbEntity
  8
0
100
AcDbBlockBegin
  2
*D17
 70
     1
 10
0.0
 20
0.0
 30
0.0
  3
*D17
  1

  0
LINE
  5
13CF
330
1329
100
AcDbEntity
  8
0
 62
     0
370
    -2
100
AcDbLine
 10
2184.471250176458
 20
376.9710400468047
 30
0.0
 11
2184.471250176458
 21
379.2210400468047
 31
0.0
  0
LINE
  5
13D0
330
1329
100
AcDbEntity
  8
0
 62
     0
370
    -2
100
AcDbLine
 10
1744.471292593685
 20
376.9710400468047
 30
0.0
 11
1744.471292593685
 21
379.2210400468047
 31
0.0
  0
LINE
  5
13D1
330
1329
100
AcDbEntity
  8
0
 62
     0
370
    -2
100
AcDbLine
 10
2174.471250176457
 20
377.9710400468045
 30
0.0
 11
1754.471292593685
 21
377.9710400468045
 31
0.0
  0
SOLID
  5
13D2
330
1329
100
AcDbEntity
  8
0
 62
     0
100
AcDbTrace
 10
2174.471250176457
 20
379.6377067134713
 30
0.0
 11
2174.471250176457
 21
376.3043733801378
 31
0.0
 12
2184.471250176458
 22
377.9710400468045
 32
0.0
 13
2184.471250176458
 23
377.9710400468045
 33
0.0
  0
SOLID
  5
13D3
330
1329
100
AcDbEntity
  8
0
 62
     0
100
AcDbTrace
 10
1754.471292593685
 20
379.6377067134713
 30
0.0
 11
1754.471292593685
 21
376.3043733801378
 31
0.0
 12
1744.471292593685
 22
377.9710400468045
 32
0.0
 13
1744.471292593685
 23
377.9710400468045
 33
0.0
  0
MTEXT
  5
13D4
330
1329
100
AcDbEntity
  8
0
 62
     0
100
AcDbMText
 10
1964.471271385071
 20
385.011456145031
 30
0.0
 40
10.0
 41
0.0
 71
     5
 72
     1
  1
17 3/8" [440mm]
 73
     1
 44
1.0
1001
ACAD
1000
MTEXTBEGIN
1070
    73
1070
     1
1070
    44
1040
1.0
1070
    74
1070
     0
1000
MTEXTEND
  0
POINT
  5
13D5
330
1329
100
AcDbEntity
  8
Defpoints
 62
     0
100
AcDbPoint
 10
2184.471250176458
 20
121.7125196651235
 30
0.0
  0
POINT
  5
13D6
330
1329
100
AcDbEntity
  8
Defpoints
 62
     0
100
AcDbPoint
 10
1744.471292593685
 20
121.7122486120889
 30
0.0
  0
POINT
  5
13D7
330
1329
100
AcDbEntity
  8
Defpoints
 62
     0
100
AcDbPoint
 10
1744.471292593685
 20
377.9710400468045
 30
0.0
  0
ENDBLK
  5
132B
330
1329
100
AcDbEntity
  8
0
100
AcDbBlockEnd
  0
BLOCK
  5
1342
330
1341
100
AcDbEntity
  8
0
100
AcDbBlockBegin
  2
*D18
 70
     1
 10
0.0
 20
0.0
 30
0.0
  3
*D18
  1

  0
LINE
  5
13FC
330
1341
100
AcDbEntity
  8
0
 62
     0
370
    -2
100
AcDbLine
 10
2288.709964406389
 20
301.6959731806271
 30
0.0
 11
2290.959964406389
 21
301.6959731806271
 31
0.0
  0
LINE
  5
13FD
330
1341
100
AcDbEntity
  8
0
 62
     0
370
    -2
100
AcDbLine
 10
2288.709964406389
 20
-58.27279238513964
 30
0.0
 11
2290.959964406389
 21
-58.27279238513964
 31
0.0
  0
LINE
  5
13FE
330
1341
100
AcDbEntity
  8
0
 62
     0
370
    -2
100
AcDbLine
 10
2289.709964406389
 20
291.695973180627
 30
0.0
 11
2289.709964406389
 21
-48.27279238513964
 31
0.0
  0
SOLID
  5
13FF
330
1341
100
AcDbEntity
  8
0
 62
     0
100
AcDbTrace
 10
2288.043297739723
 20
291.695973180627
 30
0.0
 11
2291.376631073056
 21
291.695973180627
 31
0.0
 12
2289.709964406389
 22
301.6959731806271
 32
0.0
 13
2289.709964406389
 23
301.6959731806271
 33
0.0
  0
SOLID
  5
1400
330
1341
100
AcDbEntity
  8
0
 62
     0
100
AcDbTrace
 10
2288.043297739723
 20
-48.27279238513964
 30
0.0
 11
2291.376631073056
 21
-48.27279238513964
 31
0.0
 12
2289.709964406389
 22
-58.27279238513964
 32
0.0
 13
2289.709964406389
 23
-58.27279238513964
 33
0.0
  0
MTEXT
  5
1401
330
1341
100
AcDbEntity
  8
0
 62
     0
100
AcDbMText
 10
2282.669548308163
 20
121.711590397744
 30
0.0
 40
10.0
 41
0.0
 71
     5
 72
     1
  1
14 1/8" [360mm]
 11
0.0000000000000001
 21
1.0
 31
0.0
 73
     1
 44
1.0
1001
ACAD
1000
MTEXTBEGIN
1070
    73
1070
     1
1070
    44
1040
1.0
1070
    74
1070
     0
1000
MTEXTEND
  0
POINT
  5
1402
330
1341
100
AcDbEntity
  8
Defpoints
 62
     0
100
AcDbPoint
 10
1963.104788109918
 20
301.6959731806271
 30
0.0
  0
POINT
  5
1403
330
1341
100
AcDbEntity
  8
Defpoints
 62
     0
100
AcDbPoint
 10
1963.105918127563
 20
-58.27279238513956
 30
0.0
  0
POINT
  5
1404
330
1341
100
AcDbEntity
  8
Defpoints
 62
     0
100
AcDbPoint
 10
2289.709964406389
 20
-58.27279238513964
 30
0.0
  0
ENDBLK
  5
1343
330
1341
100
AcDbEntity
  8
0
100
AcDbBlockEnd
  0
BLOCK
  5
135B
330
135A
100
AcDbEntity
  8
0
100
AcDbBlockBegin
  2
*D19
 70
     1
 10
0.0
 20
0.0
 30
0.0
  3
*D19
  1

  0
LINE
  5
1367
330
135A
100
AcDbEntity
  8
0
 62
     0
370
    -2
100
AcDbLine
 10
1660.347164693711
 20
276.1407899869718
 30
0.0
 11
1662.597164693711
 21
276.1407899869718
 31
0.0
  0
LINE
  5
1368
330
135A
100
AcDbEntity
  8
0
 62
     0
370
    -2
100
AcDbLine
 10
1660.347164693711
 20
-43.85412354293485
 30
0.0
 11
1662.597164693711
 21
-43.85412354293485
 31
0.0
  0
LINE
  5
1369
330
135A
100
AcDbEntity
  8
0
 62
     0
370
    -2
100
AcDbLine
 10
1661.347164693711
 20
266.1407899869718
 30
0.0
 11
1661.347164693711
 21
-33.85412354293487
 31
0.0
  0
SOLID
  5
136A
330
135A
100
AcDbEntity
  8
0
 62
     0
100
AcDbTrace
 10
1659.680498027045
 20
266.1407899869718
 30
0.0
 11
1663.013831360378
 21
266.1407899869718
 31
0.0
 12
1661.347164693711
 22
276.1407899869718
 32
0.0
 13
1661.347164693711
 23
276.1407899869718
 33
0.0
  0
SOLID
  5
136B
330
135A
100
AcDbEntity
  8
0
 62
     0
100
AcDbTrace
 10
1659.680498027045
 20
-33.85412354293487
 30
0.0
 11
1663.013831360378
 21
-33.85412354293487
 31
0.0
 12
1661.347164693711
 22
-43.85412354293485
 32
0.0
 13
1661.347164693711
 23
-43.85412354293485
 33
0.0
  0
MTEXT
  5
136C
330
135A
100
AcDbEntity
  8
0
 62
     0
100
AcDbMText
 10
1654.306748595485
 20
116.1433332220187
 30
0.0
 40
10.0
 41
0.0
 71
     5
 72
     1
  1
12 5/8" [320mm]
 11
0.0000000000000001
 21
1.0
 31
0.0
 73
     1
 44
1.0
1001
ACAD
1000
MTEXTBEGIN
1070
    73
1070
     1
1070
    44
1040
1.0
1070
    74
1070
     0
1000
MTEXTEND
  0
POINT
  5
136D
330
135A
100
AcDbEntity
  8
Defpoints
 62
     0
100
AcDbPoint
 10
1417.786430077489
 20
276.1407899869718
 30
0.0
  0
POINT
  5
136E
330
135A
100
AcDbEntity
  8
Defpoints
 62
     0
100
AcDbPoint
 10
1415.894764568882
 20
-43.8541235429348
 30
0.0
  0
POINT
  5
136F
330
135A
100
AcDbEntity
  8
Defpoints
 62
     0
100
AcDbPoint
 10
1661.347164693711
 20
-43.85412354293485
 30
0.0
  0
ENDBLK
  5
135C
330
135A
100
AcDbEntity
  8
0
100
AcDbBlockEnd
  0
BLOCK
  5
1373
330
1372
100
AcDbEntity
  8
0
100
AcDbBlockBegin
  2
*D20
 70
     1
 10
0.0
 20
0.0
 30
0.0
  3
*D20
  1

  0
LINE
  5
137F
330
1372
100
AcDbEntity
  8
0
 62
     0
370
    -2
100
AcDbLine
 10
1614.8367336067
 20
-121.0527378503345
 30
0.0
 11
1614.8367336067
 21
-123.3027378503345
 31
0.0
  0
LINE
  5
1380
330
1372
100
AcDbEntity
  8
0
 62
     0
370
    -2
100
AcDbLine
 10
1219.836744154369
 20
-121.0527378503345
 30
0.0
 11
1219.836744154369
 21
-123.3027378503345
 31
0.0
  0
LINE
  5
1381
330
1372
100
AcDbEntity
  8
0
 62
     0
370
    -2
100
AcDbLine
 10
1604.836733606699
 20
-122.0527378503345
 30
0.0
 11
1229.836744154369
 21
-122.0527378503345
 31
0.0
  0
SOLID
  5
1382
330
1372
100
AcDbEntity
  8
0
 62
     0
100
AcDbTrace
 10
1604.836733606699
 20
-120.3860711836679
 30
0.0
 11
1604.836733606699
 21
-123.7194045170012
 31
0.0
 12
1614.8367336067
 22
-122.0527378503345
 32
0.0
 13
1614.8367336067
 23
-122.0527378503345
 33
0.0
  0
SOLID
  5
1383
330
1372
100
AcDbEntity
  8
0
 62
     0
100
AcDbTrace
 10
1229.836744154369
 20
-120.3860711836679
 30
0.0
 11
1229.836744154369
 21
-123.7194045170012
 31
0.0
 12
1219.836744154369
 22
-122.0527378503345
 32
0.0
 13
1219.836744154369
 23
-122.0527378503345
 33
0.0
  0
MTEXT
  5
1384
330
1372
100
AcDbEntity
  8
0
 62
     0
100
AcDbMText
 10
1417.336738880534
 20
-115.012321752108
 30
0.0
 40
10.0
 41
0.0
 71
     5
 72
     1
  1
15 1/2" [395mm]
 73
     1
 44
1.0
1001
ACAD
1000
MTEXTBEGIN
1070
    73
1070
     1
1070
    44
1040
1.0
1070
    74
1070
     0
1000
MTEXTEND
  0
POINT
  5
1385
330
1372
100
AcDbEntity
  8
Defpoints
 62
     0
100
AcDbPoint
 10
1614.8367336067
 20
116.1413870785179
 30
0.0
  0
POINT
  5
1386
330
1372
100
AcDbEntity
  8
Defpoints
 62
     0
100
AcDbPoint
 10
1219.836744154369
 20
116.1412521467707
 30
0.0
  0
POINT
  5
1387
330
1372
100
AcDbEntity
  8
Defpoints
 62
     0
100
AcDbPoint
 10
1219.836744154369
 20
-122.0527378503345
 30
0.0
  0
ENDBLK
  5
1374
330
1372
100
AcDbEntity
  8
0
100
AcDbBlockEnd
  0
BLOCK
  5
138B
330
138A
100
AcDbEntity
  8
0
100
AcDbBlockBegin
  2
*D21
 70
     1
 10
0.0
 20
0.0
 30
0.0
  3
*D21
  1

  0
LINE
  5
1397
330
138A
100
AcDbEntity
  8
0
 62
     0
370
    -2
100
AcDbLine
 10
1076.495908726168
 20
274.0579652992544
 30
0.0
 11
1076.495908726168
 21
276.3079652992544
 31
0.0
  0
LINE
  5
1398
330
138A
100
AcDbEntity
  8
0
 62
     0
370
    -2
100
AcDbLine
 10
726.4959087261677
 20
274.0579652992544
 30
0.0
 11
726.4959087261677
 21
276.3079652992544
 31
0.0
  0
LINE
  5
1399
330
138A
100
AcDbEntity
  8
0
 62
     0
370
    -2
100
AcDbLine
 10
1066.495908726167
 20
275.0579652992544
 30
0.0
 11
736.4959087261677
 21
275.0579652992544
 31
0.0
  0
SOLID
  5
139A
330
138A
100
AcDbEntity
  8
0
 62
     0
100
AcDbTrace
 10
1066.495908726167
 20
276.7246319659211
 30
0.0
 11
1066.495908726167
 21
273.3912986325877
 31
0.0
 12
1076.495908726168
 22
275.0579652992544
 32
0.0
 13
1076.495908726168
 23
275.0579652992544
 33
0.0
  0
SOLID
  5
139B
330
138A
100
AcDbEntity
  8
0
 62
     0
100
AcDbTrace
 10
736.4959087261677
 20
276.7246319659211
 30
0.0
 11
736.4959087261677
 21
273.3912986325877
 31
0.0
 12
726.4959087261677
 22
275.0579652992544
 32
0.0
 13
726.4959087261677
 23
275.0579652992544
 33
0.0
  0
MTEXT
  5
139C
330
138A
100
AcDbEntity
  8
0
 62
     0
100
AcDbMText
 10
901.4959087261678
 20
282.0983813974809
 30
0.0
 40
10.0
 41
0.0
 71
     5
 72
     1
  1
13 3/4" [350mm]
 73
     1
 44
1.0
1001
ACAD
1000
MTEXTBEGIN
1070
    73
1070
     1
1070
    44
1040
1.0
1070
    74
1070
     0
1000
MTEXTEND
  0
POINT
  5
139D
330
138A
100
AcDbEntity
  8
Defpoints
 62
     0
100
AcDbPoint
 10
1076.495908726168
 20
119.6060501426109
 30
0.0
  0
POINT
  5
139E
330
138A
100
AcDbEntity
  8
Defpoints
 62
     0
100
AcDbPoint
 10
726.4959087261677
 20
119.6060501426109
 30
0.0
  0
POINT
  5
139F
330
138A
100
AcDbEntity
  8
Defpoints
 62
     0
100
AcDbPoint
 10
726.4959087261677
 20
275.0579652992544
 30
0.0
  0
ENDBLK
  5
138C
330
138A
100
AcDbEntity
  8
0
100
AcDbBlockEnd
  0
BLOCK
  5
13A3
330
13A2
100
AcDbEntity
  8
0
100
AcDbBlockBegin
  2
*D22
 70
     1
 10
0.0
 20
0.0
 30
0.0
  3
*D22
  1

  0
LINE
  5
13AF
330
13A2
100
AcDbEntity
  8
0
 62
     0
370
    -2
100
AcDbLine
 10
688.3162123177527
 20
257.106050142611
 30
0.0
 11
686.0662123177527
 21
257.106050142611
 31
0.0
  0
LINE
  5
13B0
330
13A2
100
AcDbEntity
  8
0
 62
     0
370
    -2
100
AcDbLine
 10
688.3162123177527
 20
-17.89394985738903
 30
0.0
 11
686.0662123177526
 21
-17.89394985738903
 31
0.0
  0
LINE
  5
13B1
330
13A2
100
AcDbEntity
  8
0
 62
     0
370
    -2
100
AcDbLine
 10
687.3162123177527
 20
247.106050142611
 30
0.0
 11
687.3162123177527
 21
-7.893949857389026
 31
0.0
  0
SOLID
  5
13B2
330
13A2
100
AcDbEntity
  8
0
 62
     0
100
AcDbTrace
 10
685.649545651086
 20
247.106050142611
 30
0.0
 11
688.9828789844192
 21
247.106050142611
 31
0.0
 12
687.3162123177527
 22
257.106050142611
 32
0.0
 13
687.3162123177527
 23
257.106050142611
 33
0.0
  0
SOLID
  5
13B3
330
13A2
100
AcDbEntity
  8
0
 62
     0
100
AcDbTrace
 10
685.649545651086
 20
-7.893949857389026
 30
0.0
 11
688.9828789844192
 21
-7.893949857389026
 31
0.0
 12
687.3162123177527
 22
-17.89394985738903
 32
0.0
 13
687.3162123177527
 23
-17.89394985738903
 33
0.0
  0
MTEXT
  5
13B4
330
13A2
100
AcDbEntity
  8
0
 62
     0
100
AcDbMText
 10
680.275796219526
 20
119.6060501426111
 30
0.0
 40
10.0
 41
0.0
 71
     5
 72
     1
  1
10 7/8" [275mm]
 11
0.0000000000000001
 21
1.0
 31
0.0
 73
     1
 44
1.0
1001
ACAD
1000
MTEXTBEGIN
1070
    73
1070
     1
1070
    44
1040
1.0
1070
    74
1070
     0
1000
MTEXTEND
  0
POINT
  5
13B5
330
13A2
100
AcDbEntity
  8
Defpoints
 62
     0
100
AcDbPoint
 10
901.4959087261678
 20
257.1060501426109
 30
0.0
  0
POINT
  5
13B6
330
13A2
100
AcDbEntity
  8
Defpoints
 62
     0
100
AcDbPoint
 10
901.4959087261678
 20
-17.89394985738909
 30
0.0
  0
POINT
  5
13B7
330
13A2
100
AcDbEntity
  8
Defpoints
 62
     0
100
AcDbPoint
 10
687.3162123177527
 20
-17.89394985738903
 30
0.0
  0
ENDBLK
  5
13A4
330
13A2
100
AcDbEntity
  8
0
100
AcDbBlockEnd
  0
BLOCK
  5
1406
330
1405
100
AcDbEntity
  8
0
100
AcDbBlockBegin
  2
*D23
 70
     1
 10
0.0
 20
0.0
 30
0.0
  3
*D23
  1

  0
LINE
  5
1407
330
1405
100
AcDbEntity
  8
0
 62
     0
370
    -2
100
AcDbLine
 10
2184.471250176458
 20
376.9710400468047
 30
0.0
 11
2184.471250176458
 21
379.2210400468047
 31
0.0
  0
LINE
  5
1408
330
1405
100
AcDbEntity
  8
0
 62
     0
370
    -2
100
AcDbLine
 10
1744.471292593685
 20
376.9710400468047
 30
0.0
 11
1744.471292593685
 21
379.2210400468047
 31
0.0
  0
LINE
  5
1409
330
1405
100
AcDbEntity
  8
0
 62
     0
370
    -2
100
AcDbLine
 10
2174.471250176457
 20
377.9710400468045
 30
0.0
 11
1754.471292593685
 21
377.9710400468045
 31
0.0
  0
SOLID
  5
140A
330
1405
100
AcDbEntity
  8
0
 62
     0
100
AcDbTrace
 10
2174.471250176457
 20
379.6377067134713
 30
0.0
 11
2174.471250176457
 21
376.3043733801378
 31
0.0
 12
2184.471250176458
 22
377.9710400468045
 32
0.0
 13
2184.471250176458
 23
377.9710400468045
 33
0.0
  0
SOLID
  5
140B
330
1405
100
AcDbEntity
  8
0
 62
     0
100
AcDbTrace
 10
1754.471292593685
 20
379.6377067134713
 30
0.0
 11
1754.471292593685
 21
376.3043733801378
 31
0.0
 12
1744.471292593685
 22
377.9710400468045
 32
0.0
 13
1744.471292593685
 23
377.9710400468045
 33
0.0
  0
MTEXT
  5
140C
330
1405
100
AcDbEntity
  8
0
 62
     0
100
AcDbMText
 10
1964.471271385071
 20
385.011456145031
 30
0.0
 40
10.0
 41
0.0
 71
     5
 72
     1
  1
17 3/8" [440mm]
 73
     1
 44
1.0
1001
ACAD
1000
MTEXTBEGIN
1070
    73
1070
     1
1070
    44
1040
1.0
1070
    74
1070
     0
1000
MTEXTEND
  0
POINT
  5
140D
330
1405
100
AcDbEntity
  8
Defpoints
 62
     0
100
AcDbPoint
 10
2184.471250176458
 20
121.7125196651235
 30
0.0
  0
POINT
  5
140E
330
1405
100
AcDbEntity
  8
Defpoints
 62
     0
100
AcDbPoint
 10
1744.471292593685
 20
121.7122486120889
 30
0.0
  0
POINT
  5
140F
330
1405
100
AcDbEntity
  8
Defpoints
 62
     0
100
AcDbPoint
 10
1744.471292593685
 20
377.9710400468045
 30
0.0
  0
ENDBLK
  5
1410
330
1405
100
AcDbEntity
  8
0
100
AcDbBlockEnd
  0
BLOCK
  5
1412
330
1411
100
AcDbEntity
  8
0
100
AcDbBlockBegin
  2
*D24
 70
     1
 10
0.0
 20
0.0
 30
0.0
  3
*D24
  1

  0
LINE
  5
1413
330
1411
100
AcDbEntity
  8
0
 62
     0
370
    -2
100
AcDbLine
 10
2288.709964406389
 20
301.6959731806271
 30
0.0
 11
2290.959964406389
 21
301.6959731806271
 31
0.0
  0
LINE
  5
1414
330
1411
100
AcDbEntity
  8
0
 62
     0
370
    -2
100
AcDbLine
 10
2288.709964406389
 20
-58.27279238513964
 30
0.0
 11
2290.959964406389
 21
-58.27279238513964
 31
0.0
  0
LINE
  5
1415
330
1411
100
AcDbEntity
  8
0
 62
     0
370
    -2
100
AcDbLine
 10
2289.709964406389
 20
291.695973180627
 30
0.0
 11
2289.709964406389
 21
-48.27279238513964
 31
0.0
  0
SOLID
  5
1416
330
1411
100
AcDbEntity
  8
0
 62
     0
100
AcDbTrace
 10
2288.043297739723
 20
291.695973180627
 30
0.0
 11
2291.376631073056
 21
291.695973180627
 31
0.0
 12
2289.709964406389
 22
301.6959731806271
 32
0.0
 13
2289.709964406389
 23
301.6959731806271
 33
0.0
  0
SOLID
  5
1417
330
1411
100
AcDbEntity
  8
0
 62
     0
100
AcDbTrace
 10
2288.043297739723
 20
-48.27279238513964
 30
0.0
 11
2291.376631073056
 21
-48.27279238513964
 31
0.0
 12
2289.709964406389
 22
-58.27279238513964
 32
0.0
 13
2289.709964406389
 23
-58.27279238513964
 33
0.0
  0
MTEXT
  5
1418
330
1411
100
AcDbEntity
  8
0
 62
     0
100
AcDbMText
 10
2282.669548308163
 20
121.711590397744
 30
0.0
 40
10.0
 41
0.0
 71
     5
 72
     1
  1
14 1/8" [360mm]
 11
0.0000000000000001
 21
1.0
 31
0.0
 73
     1
 44
1.0
1001
ACAD
1000
MTEXTBEGIN
1070
    73
1070
     1
1070
    44
1040
1.0
1070
    74
1070
     0
1000
MTEXTEND
  0
POINT
  5
1419
330
1411
100
AcDbEntity
  8
Defpoints
 62
     0
100
AcDbPoint
 10
1963.104788109918
 20
301.6959731806271
 30
0.0
  0
POINT
  5
141A
330
1411
100
AcDbEntity
  8
Defpoints
 62
     0
100
AcDbPoint
 10
1963.105918127563
 20
-58.27279238513956
 30
0.0
  0
POINT
  5
141B
330
1411
100
AcDbEntity
  8
Defpoints
 62
     0
100
AcDbPoint
 10
2289.709964406389
 20
-58.27279238513964
 30
0.0
  0
ENDBLK
  5
141C
330
1411
100
AcDbEntity
  8
0
100
AcDbBlockEnd
  0
BLOCK
  5
1466
330
1465
100
AcDbEntity
  8
0
100
AcDbBlockBegin
  2
*D25
 70
     1
 10
0.0
 20
0.0
 30
0.0
  3
*D25
  1

  0
LINE
  5
150D
330
1465
100
AcDbEntity
  8
0
 62
     0
370
    -2
100
AcDbLine
 10
2980.52241717139
 20
435.1931889656468
 30
0.0
 11
2980.52241717139
 21
437.4431889656468
 31
0.0
  0
LINE
  5
150E
330
1465
100
AcDbEntity
  8
0
 62
     0
370
    -2
100
AcDbLine
 10
2558.402303344335
 20
435.1931889656468
 30
0.0
 11
2558.402303344335
 21
437.4431889656468
 31
0.0
  0
LINE
  5
150F
330
1465
100
AcDbEntity
  8
0
 62
     0
370
    -2
100
AcDbLine
 10
2970.52241717139
 20
436.1931889656466
 30
0.0
 11
2568.402303344335
 21
436.1931889656466
 31
0.0
  0
SOLID
  5
1510
330
1465
100
AcDbEntity
  8
0
 62
     0
100
AcDbTrace
 10
2970.52241717139
 20
437.8598556323135
 30
0.0
 11
2970.52241717139
 21
434.5265222989801
 31
0.0
 12
2980.52241717139
 22
436.1931889656466
 32
0.0
 13
2980.52241717139
 23
436.1931889656466
 33
0.0
  0
SOLID
  5
1511
330
1465
100
AcDbEntity
  8
0
 62
     0
100
AcDbTrace
 10
2568.402303344335
 20
437.8598556323135
 30
0.0
 11
2568.402303344335
 21
434.5265222989801
 31
0.0
 12
2558.402303344335
 22
436.1931889656466
 32
0.0
 13
2558.402303344335
 23
436.1931889656466
 33
0.0
  0
MTEXT
  5
1512
330
1465
100
AcDbEntity
  8
0
 62
     0
100
AcDbMText
 10
2769.462360257862
 20
443.2336050638731
 30
0.0
 40
10.0
 41
0.0
 71
     5
 72
     1
  1
16 5/8" [422mm]
 73
     1
 44
1.0
1001
ACAD
1000
MTEXTBEGIN
1070
    73
1070
     1
1070
    44
1040
1.0
1070
    74
1070
     0
1000
MTEXTEND
  0
POINT
  5
1513
330
1465
100
AcDbEntity
  8
Defpoints
 62
     0
100
AcDbPoint
 10
2980.52241717139
 20
183.0500123612678
 30
0.0
  0
POINT
  5
1514
330
1465
100
AcDbEntity
  8
Defpoints
 62
     0
100
AcDbPoint
 10
2558.402303344335
 20
174.2122014697665
 30
0.0
  0
POINT
  5
1515
330
1465
100
AcDbEntity
  8
Defpoints
 62
     0
100
AcDbPoint
 10
2558.402303344335
 20
436.1931889656466
 30
0.0
  0
ENDBLK
  5
1467
330
1465
100
AcDbEntity
  8
0
100
AcDbBlockEnd
  0
BLOCK
  5
1472
330
1471
100
AcDbEntity
  8
0
100
AcDbBlockBegin
  2
*D26
 70
     1
 10
0.0
 20
0.0
 30
0.0
  3
*D26
  1

  0
LINE
  5
14D7
330
1471
100
AcDbEntity
  8
0
 62
     0
370
    -2
100
AcDbLine
 10
3095.028197822661
 20
352.3334535420867
 30
0.0
 11
3097.278197822662
 21
352.3334535420867
 31
0.0
  0
LINE
  5
14D8
330
1471
100
AcDbEntity
  8
0
 62
     0
370
    -2
100
AcDbLine
 10
3095.028197822661
 20
7.364687976253883
 30
0.0
 11
3097.278197822662
 21
7.364687976253883
 31
0.0
  0
LINE
  5
14D9
330
1471
100
AcDbEntity
  8
0
 62
     0
370
    -2
100
AcDbLine
 10
3096.028197822662
 20
342.3334535420867
 30
0.0
 11
3096.028197822662
 21
17.36468797625388
 31
0.0
  0
SOLID
  5
14DA
330
1471
100
AcDbEntity
  8
0
 62
     0
100
AcDbTrace
 10
3094.361531155995
 20
342.3334535420867
 30
0.0
 11
3097.694864489329
 21
342.3334535420867
 31
0.0
 12
3096.028197822662
 22
352.3334535420867
 32
0.0
 13
3096.028197822662
 23
352.3334535420867
 33
0.0
  0
SOLID
  5
14DB
330
1471
100
AcDbEntity
  8
0
 62
     0
100
AcDbTrace
 10
3094.361531155995
 20
17.36468797625388
 30
0.0
 11
3097.694864489329
 21
17.36468797625388
 31
0.0
 12
3096.028197822662
 22
7.364687976253883
 32
0.0
 13
3096.028197822662
 23
7.364687976253883
 33
0.0
  0
MTEXT
  5
14DC
330
1471
100
AcDbEntity
  8
0
 62
     0
100
AcDbMText
 10
3088.987781724435
 20
179.8490707591708
 30
0.0
 40
10.0
 41
0.0
 71
     5
 72
     1
  1
13 5/8" [345mm]
 11
0.0000000000000001
 21
1.0
 31
0.0
 73
     1
 44
1.0
1001
ACAD
1000
MTEXTBEGIN
1070
    73
1070
     1
1070
    44
1040
1.0
1070
    74
1070
     0
1000
MTEXTEND
  0
POINT
  5
14DD
330
1471
100
AcDbEntity
  8
Defpoints
 62
     0
100
AcDbPoint
 10
2769.423060080713
 20
352.3334535420868
 30
0.0
  0
POINT
  5
14DE
330
1471
100
AcDbEntity
  8
Defpoints
 62
     0
100
AcDbPoint
 10
2769.424151543835
 20
7.364687976253973
 30
0.0
  0
POINT
  5
14DF
330
1471
100
AcDbEntity
  8
Defpoints
 62
     0
100
AcDbPoint
 10
3096.028197822662
 20
7.364687976253883
 30
0.0
  0
ENDBLK
  5
1473
330
1471
100
AcDbEntity
  8
0
100
AcDbBlockEnd
  0
BLOCK
  5
1518
330
1517
100
AcDbEntity
  8
0
100
AcDbBlockBegin
  2
*D27
 70
     1
 10
0.0
 20
0.0
 30
0.0
  3
*D27
  1

  0
LINE
  5
1524
330
1517
100
AcDbEntity
  8
0
 62
     0
370
    -2
100
AcDbLine
 10
528.3792453943174
 20
357.9575538725314
 30
0.0
 11
528.3792453943174
 21
360.2075538725314
 31
0.0
  0
LINE
  5
1525
330
1517
100
AcDbEntity
  8
0
 62
     0
370
    -2
100
AcDbLine
 10
78.37924539431743
 20
357.9575538725314
 30
0.0
 11
78.37924539431743
 21
360.2075538725314
 31
0.0
  0
LINE
  5
1526
330
1517
100
AcDbEntity
  8
0
 62
     0
370
    -2
100
AcDbLine
 10
518.3792453943174
 20
358.9575538725314
 30
0.0
 11
88.37924539431744
 21
358.9575538725314
 31
0.0
  0
SOLID
  5
1527
330
1517
100
AcDbEntity
  8
0
 62
     0
100
AcDbTrace
 10
518.3792453943174
 20
360.6242205391982
 30
0.0
 11
518.3792453943174
 21
357.2908872058647
 31
0.0
 12
528.3792453943174
 22
358.9575538725314
 32
0.0
 13
528.3792453943174
 23
358.9575538725314
 33
0.0
  0
SOLID
  5
1528
330
1517
100
AcDbEntity
  8
0
 62
     0
100
AcDbTrace
 10
88.37924539431744
 20
360.6242205391982
 30
0.0
 11
88.37924539431744
 21
357.2908872058647
 31
0.0
 12
78.37924539431743
 22
358.9575538725314
 32
0.0
 13
78.37924539431743
 23
358.9575538725314
 33
0.0
  0
MTEXT
  5
1529
330
1517
100
AcDbEntity
  8
0
 62
     0
100
AcDbMText
 10
303.3792453943174
 20
365.9979699707579
 30
0.0
 40
10.0
 41
0.0
 71
     5
 72
     1
  1
17 3/4" [450mm]
 73
     1
 44
1.0
1001
ACAD
1000
MTEXTBEGIN
1070
    73
1070
     1
1070
    44
1040
1.0
1070
    74
1070
     0
1000
MTEXTEND
  0
POINT
  5
152A
330
1517
100
AcDbEntity
  8
Defpoints
 62
     0
100
AcDbPoint
 10
528.3792453943174
 20
83.1716917585552
 30
0.0
  0
POINT
  5
152B
330
1517
100
AcDbEntity
  8
Defpoints
 62
     0
100
AcDbPoint
 10
78.37924539431742
 20
83.17169175855516
 30
0.0
  0
POINT
  5
152C
330
1517
100
AcDbEntity
  8
Defpoints
 62
     0
100
AcDbPoint
 10
78.37924539431743
 20
358.9575538725314
 30
0.0
  0
ENDBLK
  5
1519
330
1517
100
AcDbEntity
  8
0
100
AcDbBlockEnd
  0
BLOCK
  5
1531
330
1530
100
AcDbEntity
  8
0
100
AcDbBlockBegin
  2
*D28
 70
     1
 10
0.0
 20
0.0
 30
0.0
  3
*D28
  1

  0
LINE
  5
1547
330
1530
100
AcDbEntity
  8
0
 62
     0
370
    -2
100
AcDbLine
 10
627.2115024012427
 20
299.6522266858697
 30
0.0
 11
629.4615024012429
 21
299.6522266858697
 31
0.0
  0
LINE
  5
1548
330
1530
100
AcDbEntity
  8
0
 62
     0
370
    -2
100
AcDbLine
 10
627.2115024012427
 20
-0.3477733141303045
 30
0.0
 11
629.4615024012427
 21
-0.3477733141303052
 31
0.0
  0
LINE
  5
1549
330
1530
100
AcDbEntity
  8
0
 62
     0
370
    -2
100
AcDbLine
 10
628.2115024012429
 20
289.6522266858696
 30
0.0
 11
628.2115024012427
 21
9.652226685869694
 31
0.0
  0
SOLID
  5
154A
330
1530
100
AcDbEntity
  8
0
 62
     0
100
AcDbTrace
 10
626.5448357345762
 20
289.6522266858696
 30
0.0
 11
629.8781690679094
 21
289.6522266858696
 31
0.0
 12
628.2115024012429
 22
299.6522266858697
 32
0.0
 13
628.2115024012429
 23
299.6522266858697
 33
0.0
  0
SOLID
  5
154B
330
1530
100
AcDbEntity
  8
0
 62
     0
100
AcDbTrace
 10
626.5448357345761
 20
9.652226685869694
 30
0.0
 11
629.8781690679094
 21
9.652226685869694
 31
0.0
 12
628.2115024012427
 22
-0.3477733141303048
 32
0.0
 13
628.2115024012427
 23
-0.3477733141303048
 33
0.0
  0
MTEXT
  5
154C
330
1530
100
AcDbEntity
  8
0
 62
     0
100
AcDbMText
 10
621.1710863030162
 20
149.6522266858698
 30
0.0
 40
10.0
 41
0.0
 71
     5
 72
     1
  1
11 3/4" [300mm]
 11
0.0000000000000001
 21
1.0
 31
0.0
 73
     1
 44
1.0
1001
ACAD
1000
MTEXTBEGIN
1070
    73
1070
     1
1070
    44
1040
1.0
1070
    74
1070
     0
1000
MTEXTEND
  0
POINT
  5
154D
330
1530
100
AcDbEntity
  8
Defpoints
 62
     0
100
AcDbPoint
 10
341.3449817045412
 20
299.6522266858698
 30
0.0
  0
POINT
  5
154E
330
1530
100
AcDbEntity
  8
Defpoints
 62
     0
100
AcDbPoint
 10
337.1452578418002
 20
-0.3477733141302224
 30
0.0
  0
POINT
  5
154F
330
1530
100
AcDbEntity
  8
Defpoints
 62
     0
100
AcDbPoint
 10
628.2115024012427
 20
-0.3477733141303048
 30
0.0
  0
ENDBLK
  5
1532
330
1530
100
AcDbEntity
  8
0
100
AcDbBlockEnd
  0
BLOCK
  5
1643
330
1642
100
AcDbEntity
  8
0
100
AcDbBlockBegin
  2
*D29
 70
     1
 10
0.0
 20
0.0
 30
0.0
  3
*D29
  1

  0
LINE
  5
16E5
330
1642
100
AcDbEntity
  8
0
 62
     0
370
    -2
100
AcDbLine
 10
78.37924539431742
 20
325.2215964562103
 30
0.0
 11
78.37924539431742
 21
327.4715964562103
 31
0.0
  0
LINE
  5
16E6
330
1642
100
AcDbEntity
  8
0
 62
     0
370
    -2
100
AcDbLine
 10
528.3792453943174
 20
325.2215964562103
 30
0.0
 11
528.3792453943174
 21
327.4715964562103
 31
0.0
  0
LINE
  5
16E7
330
1642
100
AcDbEntity
  8
0
 62
     0
370
    -2
100
AcDbLine
 10
88.37924539431742
 20
326.2215964562102
 30
0.0
 11
518.3792453943174
 21
326.2215964562102
 31
0.0
  0
SOLID
  5
16E8
330
1642
100
AcDbEntity
  8
0
 62
     0
100
AcDbTrace
 10
88.37924539431742
 20
327.8882631228769
 30
0.0
 11
88.37924539431742
 21
324.5549297895436
 31
0.0
 12
78.37924539431742
 22
326.2215964562102
 32
0.0
 13
78.37924539431742
 23
326.2215964562102
 33
0.0
  0
SOLID
  5
16E9
330
1642
100
AcDbEntity
  8
0
 62
     0
100
AcDbTrace
 10
518.3792453943174
 20
327.8882631228769
 30
0.0
 11
518.3792453943174
 21
324.5549297895436
 31
0.0
 12
528.3792453943174
 22
326.2215964562102
 32
0.0
 13
528.3792453943174
 23
326.2215964562102
 33
0.0
  0
MTEXT
  5
16EA
330
1642
100
AcDbEntity
  8
0
 62
     0
100
AcDbMText
 10
303.3792453943174
 20
333.2620125544367
 30
0.0
 40
10.0
 41
0.0
 71
     5
 72
     1
  1
17 3/4" [450mm]
 73
     1
 44
1.0
1001
ACAD
1000
MTEXTBEGIN
1070
    73
1070
     1
1070
    44
1040
1.0
1070
    74
1070
     0
1000
MTEXTEND
  0
POINT
  5
16EB
330
1642
100
AcDbEntity
  8
Defpoints
 62
     0
100
AcDbPoint
 10
78.37924539431742
 20
258.1060669746102
 30
0.0
  0
POINT
  5
16EC
330
1642
100
AcDbEntity
  8
Defpoints
 62
     0
100
AcDbPoint
 10
528.3792453943174
 20
258.1060669746102
 30
0.0
  0
POINT
  5
16ED
330
1642
100
AcDbEntity
  8
Defpoints
 62
     0
100
AcDbPoint
 10
528.3792453943174
 20
326.2215964562102
 30
0.0
  0
ENDBLK
  5
1644
330
1642
100
AcDbEntity
  8
0
100
AcDbBlockEnd
  0
BLOCK
  5
165B
330
165A
100
AcDbEntity
  8
0
100
AcDbBlockBegin
  2
*D30
 70
     1
 10
0.0
 20
0.0
 30
0.0
  3
*D30
  1

  0
LINE
  5
16D2
330
165A
100
AcDbEntity
  8
0
 62
     0
370
    -2
100
AcDbLine
 10
569.9764765179808
 20
299.6522266858698
 30
0.0
 11
572.2264765179808
 21
299.6522266858698
 31
0.0
  0
LINE
  5
16D3
330
165A
100
AcDbEntity
  8
0
 62
     0
370
    -2
100
AcDbLine
 10
569.9764765179806
 20
-0.347773314130245
 30
0.0
 11
572.2264765179807
 21
-0.3477733141302456
 31
0.0
  0
LINE
  5
16D4
330
165A
100
AcDbEntity
  8
0
 62
     0
370
    -2
100
AcDbLine
 10
570.9764765179808
 20
289.6522266858698
 30
0.0
 11
570.9764765179807
 21
9.652226685869754
 31
0.0
  0
SOLID
  5
16D5
330
165A
100
AcDbEntity
  8
0
 62
     0
100
AcDbTrace
 10
569.3098098513141
 20
289.6522266858698
 30
0.0
 11
572.6431431846474
 21
289.6522266858698
 31
0.0
 12
570.9764765179808
 22
299.6522266858698
 32
0.0
 13
570.9764765179808
 23
299.6522266858698
 33
0.0
  0
SOLID
  5
16D6
330
165A
100
AcDbEntity
  8
0
 62
     0
100
AcDbTrace
 10
569.309809851314
 20
9.652226685869754
 30
0.0
 11
572.6431431846473
 21
9.652226685869752
 31
0.0
 12
570.9764765179807
 22
-0.3477733141302453
 32
0.0
 13
570.9764765179807
 23
-0.3477733141302453
 33
0.0
  0
MTEXT
  5
16D7
330
165A
100
AcDbEntity
  8
0
 62
     0
100
AcDbMText
 10
563.9360604197541
 20
149.6522266858699
 30
0.0
 40
10.0
 41
0.0
 71
     5
 72
     1
  1
11 3/4" [300mm]
 11
0.0000000000000001
 21
1.0
 31
0.0
 73
     1
 44
1.0
1001
ACAD
1000
MTEXTBEGIN
1070
    73
1070
     1
1070
    44
1040
1.0
1070
    74
1070
     0
1000
MTEXTEND
  0
POINT
  5
16D8
330
165A
100
AcDbEntity
  8
Defpoints
 62
     0
100
AcDbPoint
 10
490.3154500004675
 20
299.6522266858698
 30
0.0
  0
POINT
  5
16D9
330
165A
100
AcDbEntity
  8
Defpoints
 62
     0
100
AcDbPoint
 10
490.3154500004675
 20
-0.3477733141302224
 30
0.0
  0
POINT
  5
16DA
330
165A
100
AcDbEntity
  8
Defpoints
 62
     0
100
AcDbPoint
 10
570.9764765179807
 20
-0.3477733141302453
 30
0.0
  0
ENDBLK
  5
165C
330
165A
100
AcDbEntity
  8
0
100
AcDbBlockEnd
  0
ENDSEC
  0
SECTION
  2
ENTITIES
  0
MTEXT
  5
C93
330
1F
100
AcDbEntity
  8
0
 60
     1
100
AcDbMText
 10
693.9932564997662
 20
446.4650605480722
 30
0.0
 40
0.75
 41
32.88672955349762
 71
     1
 72
     5
  3
{\fArial|b1|i0|c0|p34;NOTE:\PDimensions vary from sink to sink, verify exact size of sink before cutting using the template. Manufacturer is not responsible for mis-cut templates.\fArial|b1|i0|c238|p34;\PNOTA:\PLas dimensiones varian de fregadero al 
  1
fregadero,verifian el tamano exacto del fregadero antes del corte usando la plantilla. El fabricante no es responsable de mis-corto plantillas}
 73
     1
 44
1.0
1001
ACAD
1000
MTEXTBEGIN
1070
    73
1070
     1
1070
    44
1040
1.0
1070
    74
1070
     0
1000
MTEXTEND
  0
LWPOLYLINE
  5
10F2
102
{ACAD_REACTORS
330
1658
330
1670
102
}
330
1F
100
AcDbEntity
  8
0
  6
ACAD_ISO02W100
100
AcDbPolyline
 90
        8
 70
     1
 43
0.0
 10
103.3792453943174
 20
-0.3477733141302224
 10
503.3792453943174
 20
-0.3477733141302224
 42
0.4142135623730951
 10
528.3792453943174
 20
24.65222668586977
 10
528.3792453943174
 20
274.6522266858698
 42
0.4142135623730951
 10
503.3792453943174
 20
299.6522266858698
 10
103.3792453943174
 20
299.6522266858698
 42
0.4142135623730951
 10
78.37924539431742
 20
274.6522266858698
 10
78.37924539431742
 20
24.65222668586978
 42
0.4142135623730951
  0
LINE
  5
110B
330
1F
100
AcDbEntity
  8
0
100
AcDbLine
 10
309.4049772855492
 20
258.0275954258082
 30
0.0
 11
309.4049772855492
 21
264.053327317039
 31
0.0
  0
LINE
  5
110C
330
1F
100
AcDbEntity
  8
0
100
AcDbLine
 10
297.3535135030875
 20
258.0275954258082
 30
0.0
 11
297.3535135030875
 21
264.053327317039
 31
0.0
  0
LINE
  5
110D
330
1F
100
AcDbEntity
  8
0
100
AcDbLine
 10
309.4049772855492
 20
264.053327317039
 30
0.0
 11
313.0204164202865
 21
264.053327317039
 31
0.0
  0
LINE
  5
110E
330
1F
100
AcDbEntity
  8
0
100
AcDbLine
 10
297.3535135030875
 20
264.053327317039
 30
0.0
 11
293.7380743683493
 21
264.053327317039
 31
0.0
  0
LINE
  5
110F
330
1F
100
AcDbEntity
  8
0
100
AcDbLine
 10
303.3792453943174
 20
271.5125390800024
 30
0.0
 11
313.0204164202865
 21
264.053327317039
 31
0.0
  0
LINE
  5
1110
330
1F
100
AcDbEntity
  8
0
100
AcDbLine
 10
303.3792453943174
 20
271.5125390800024
 30
0.0
 11
293.7380743683501
 21
264.053327317039
 31
0.0
  0
MTEXT
  5
1111
330
1F
100
AcDbEntity
  8
0
370
    70
100
AcDbMText
 10
259.7418235659941
 20
244.290194365308
 30
0.0
 40
16.52962188802734
 41
41.32405472006836
 71
     1
 72
     1
  1
{\ftimes new roman|b1|i0|c238|p18;VB7006}
 73
     1
 44
1.0
1001
ACAD
1000
MTEXTBEGIN
1070
    73
1070
     1
1070
    44
1040
1.0
1070
    74
1070
     0
1000
MTEXTEND
  0
LINE
  5
1112
330
1F
100
AcDbEntity
  8
0
100
AcDbLine
 10
297.3535135030875
 20
258.0275954258082
 30
0.0
 11
309.4049772855492
 21
258.0275954258082
 31
0.0
  0
MTEXT
  5
1113
330
1F
100
AcDbEntity
  8
0
 48
2.0
370
    70
100
AcDbMText
 10
289.9036609540108
 20
27.63099873882767
 30
0.0
 40
5.759999999999998
 41
28.85200791973826
 71
     1
 72
     1
  1
{\fArial|b0|i0|c0|p34;FRONT}
 73
     1
 44
1.0
1001
ACAD
1000
MTEXTBEGIN
1070
    73
1070
     1
1070
    44
1040
1.0
1070
    74
1070
     0
1000
MTEXTEND
  0
LINE
  5
1114
330
1F
100
AcDbEntity
  8
0
100
AcDbLine
 10
297.3089198893613
 20
42.15369061833325
 30
0.0
 11
297.3089198893613
 21
36.08336511337802
 31
0.0
  0
LINE
  5
1115
330
1F
100
AcDbEntity
  8
0
100
AcDbLine
 10
309.4495708992699
 20
42.15369061833325
 30
0.0
 11
309.4495708992699
 21
36.08336511337802
 31
0.0
  0
LINE
  5
1116
330
1F
100
AcDbEntity
  8
0
100
AcDbLine
 10
297.3089198893613
 20
36.08336511337802
 30
0.0
 11
293.6667245863928
 21
36.08336511337802
 31
0.0
  0
LINE
  5
1117
330
1F
100
AcDbEntity
  8
0
100
AcDbLine
 10
303.3792453943174
 20
28.56895122492642
 30
0.0
 11
293.6667245863928
 21
36.08336511337802
 31
0.0
  0
LINE
  5
1118
330
1F
100
AcDbEntity
  8
0
100
AcDbLine
 10
303.3792453943174
 20
28.56895122492642
 30
0.0
 11
313.0917662022393
 21
36.08336511337802
 31
0.0
  0
LINE
  5
1119
330
1F
100
AcDbEntity
  8
0
100
AcDbLine
 10
309.4495708992699
 20
42.15369061833325
 30
0.0
 11
297.3089198893613
 21
42.15369061833325
 31
0.0
  0
LINE
  5
111A
330
1F
100
AcDbEntity
  8
0
100
AcDbLine
 10
309.4495708992699
 20
36.08336511337802
 30
0.0
 11
313.0917662022393
 21
36.08336511337802
 31
0.0
  0
MTEXT
  5
1132
330
1F
100
AcDbEntity
  8
0
  6
ACAD_ISO03W100
100
AcDbMText
 10
270.6621989286164
 20
309.5718024008034
 30
0.0
 40
5.16128
 41
36.32777082009488
 71
     1
 72
     5
  1
{\fSimHei|b0|i0|c134|p2;Cut line}
 73
     1
 44
1.0
1001
ACAD
1000
ACAD_MTEXT_COLUMN_INFO_BEGIN
1070
    75
1070
     2
1070
    79
1070
     0
1070
    76
1070
     1
1070
    78
1070
     0
1070
    48
1040
36.32777082009488
1070
    49
1040
12.5
1070
    50
1070
     1
1040
0.0
1000
ACAD_MTEXT_COLUMN_INFO_END
1000
MTEXTBEGIN
1070
    73
1070
     1
1070
    44
1040
1.0
1070
    74
1070
     0
1000
MTEXTEND
  0
MTEXT
  5
1133
330
1F
100
AcDbEntity
  8
0
  6
ACAD_ISO03W100
100
AcDbMText
 10
270.8485903608375
 20
296.4101643024795
 30
0.0
 40
5.16128
 41
41.02136880665431
 71
     1
 72
     5
  1
{\fSimHei|b0|i0|c134|p2;Cut line}
 73
     1
 44
1.0
1001
ACAD
1000
ACAD_MTEXT_COLUMN_INFO_BEGIN
1070
    75
1070
     2
1070
    79
1070
     0
1070
    76
1070
     1
1070
    78
1070
     0
1070
    48
1040
41.02136880665431
1070
    49
1040
12.5
1070
    50
1070
     1
1040
0.0
1000
ACAD_MTEXT_COLUMN_INFO_END
1000
MTEXTBEGIN
1070
    73
1070
     1
1070
    44
1040
1.0
1070
    74
1070
     0
1000
MTEXTEND
  0
HATCH
  5
1134
330
1F
100
AcDbEntity
  8
0
100
AcDbHatch
 10
0.0
 20
0.0
 30
0.0
210
0.0
220
0.0
230
1.0
  2
SOLID
 70
     1
 71
     0
 91
        3
 92
        5
 93
       12
 72
     1
 10
318.2772313955297
 20
298.9476299749885
 11
311.2454844981948
 21
294.3430656266576
 72
     1
 10
311.2454844981926
 20
294.3430656266581
 11
308.7516175666312
 21
295.6115973135242
 72
     1
 10
308.7516175666328
 20
295.6115973135228
 11
317.2908957431529
 21
299.5993305432193
 72
     1
 10
317.2908957431513
 20
299.5993305432202
 11
309.4277518367304
 21
304.7947377451761
 72
     1
 10
309.4277518367321
 20
304.7947377451763
 11
312.080516967712
 21
305.6843343238432
 72
     1
 10
312.0805169677092
 20
305.6843343238432
 11
318.3620442063221
 21
300.0995431176593
 72
     1
 10
318.3620442063233
 20
300.0995431176587
 11
320.1854162148966
 21
300.9510344262194
 72
     4
 94
        3
 73
     0
 74
     0
 95
        9
 96
        5
 40
0.0
 40
0.0
 40
0.0
 40
0.0
 40
2.805029479527813
 40
4.98660370770903
 40
4.98660370770903
 40
4.98660370770903
 40
4.98660370770903
 10
320.185416214897
 20
300.9510344262188
 10
320.5398279816777
 20
302.6108676912544
 10
321.1741774057277
 20
305.5474870251345
 10
323.2783239255709
 20
303.6537477255478
 10
324.1988606453647
 20
302.8252614264502
 72
     1
 10
324.1988606453647
 20
302.8252614264502
 11
319.0721748660593
 21
299.4681789106634
 72
     1
 10
319.0721748660593
 20
299.4681789106625
 11
323.6518926569149
 21
295.3964354200115
 72
     4
 94
        3
 73
     0
 74
     0
 95
        9
 96
        5
 40
0.0
 40
0.0
 40
0.0
 40
0.0
 40
2.18157422818124
 40
4.986603707709058
 40
4.986603707709058
 40
4.986603707709058
 40
4.986603707709058
 10
323.6518926569165
 20
295.3964354200124
 10
322.6199412549227
 20
294.7117064924713
 10
320.2611250290697
 20
293.1465652450441
 10
320.0637181395155
 20
296.1444249522127
 10
319.9562300417797
 20
297.8382668801968
 72
     1
 10
319.9562300417797
 20
297.8382668801968
 11
318.2772313955266
 21
298.9476299749881
 97
        0
 92
       20
 93
        2
 72
     4
 94
        3
 73
     0
 74
     0
 95
        9
 96
        5
 40
0.0022346529120277
 40
0.0022346529120277
 40
0.0022346529120277
 40
0.0022346529120277
 40
1.699152400941025
 40
3.97747025263658
 40
3.97747025263658
 40
3.97747025263658
 40
3.97747025263658
 10
324.0458323349427
 20
302.7537991709813
 10
323.3297572494498
 20
303.375792397156
 10
321.6528721245245
 20
304.8307743086569
 10
321.0582676898098
 20
302.5226099082892
 10
320.7175426821172
 20
301.1995306517564
 72
     1
 10
320.7175426821208
 20
301.1995306517637
 11
324.0458323349423
 21
302.7537991709816
 97
        0
 92
       20
 93
        2
 72
     4
 94
        3
 73
     0
 74
     0
 95
        9
 96
        5
 40
0.0022346529119619
 40
0.0022346529119619
 40
0.0022346529119619
 40
0.0022346529119619
 40
2.280552504607423
 40
3.977470252636471
 40
3.977470252636471
 40
3.977470252636471
 40
3.977470252636471
 10
320.4462230952537
 20
297.5145142604859
 10
320.5894935545853
 20
296.1557994907797
 10
320.8396285594404
 20
293.7854387983423
 10
322.7115297196301
 20
294.9791314436624
 10
323.5109810246044
 20
295.4895398217713
 72
     1
 10
323.5109810246044
 20
295.4895398217713
 11
320.4462230952576
 21
297.5145142604783
 97
        0
 75
     0
 76
     1
 47
0.0275389756302889
 98
        3
 10
318.521053608752
 20
299.5741755866983
 10
318.521053608752
 20
299.5741755866983
 10
318.521053608752
 20
299.5741755866983
1001
ACAD
1010
0.0
1020
0.0
1030
0.0
  0
MTEXT
  5
1135
330
1F
100
AcDbEntity
  8
0
  6
ACAD_ISO03W100
100
AcDbMText
 10
520.1763121390345
 20
147.7411207959982
 30
0.0
 40
5.16128
 41
38.46526868289629
 71
     1
 72
     5
  1
{\fSimHei|b0|i0|c134|p2;Cut line}
 11
0.0000000000000003
 21
1.0
 31
0.0
 73
     1
 44
1.0
1001
ACAD
1000
ACAD_MTEXT_COLUMN_INFO_BEGIN
1070
    75
1070
     2
1070
    79
1070
     0
1070
    76
1070
     1
1070
    78
1070
     0
1070
    48
1040
38.46526868289629
1070
    49
1040
12.5
1070
    50
1070
     1
1040
0.0
1000
ACAD_MTEXT_COLUMN_INFO_END
1000
MTEXTBEGIN
1070
    73
1070
     1
1070
    44
1040
1.0
1070
    74
1070
     0
1000
MTEXTEND
  0
MTEXT
  5
1136
330
1F
100
AcDbEntity
  8
0
  6
ACAD_ISO03W100
100
AcDbMText
 10
531.2873647006331
 20
147.9615188344646
 30
0.0
 40
5.16128
 41
36.82174948146439
 71
     1
 72
     5
  1
{\fSimHei|b0|i0|c134|p2;Cut line}
 11
0.0000000000000003
 21
1.0
 31
0.0
 73
     1
 44
1.0
1001
ACAD
1000
ACAD_MTEXT_COLUMN_INFO_BEGIN
1070
    75
1070
     2
1070
    79
1070
     0
1070
    76
1070
     1
1070
    78
1070
     0
1070
    48
1040
36.82174948146439
1070
    49
1040
12.5
1070
    50
1070
     1
1040
0.0
1000
ACAD_MTEXT_COLUMN_INFO_END
1000
MTEXTBEGIN
1070
    73
1070
     1
1070
    44
1040
1.0
1070
    74
1070
     0
1000
MTEXTEND
  0
HATCH
  5
1137
330
1F
100
AcDbEntity
  8
0
100
AcDbHatch
 10
0.0
 20
0.0
 30
0.0
210
0.0
220
0.0
230
1.0
  2
SOLID
 70
     1
 71
     0
 91
        3
 92
        5
 93
       12
 72
     1
 10
528.9025636212668
 20
130.9369552565364
 11
534.2516200013979
 21
137.4204013393147
 72
     1
 10
534.2516200013983
 20
137.4204013393151
 11
533.2646844823415
 21
140.0385119546523
 72
     1
 10
533.2646844823451
 20
140.0385119546523
 11
528.3631431258758
 21
131.9889044848408
 72
     1
 10
528.3631431258711
 20
131.9889044848402
 11
524.0628413258222
 21
140.3751248799716
 72
     1
 10
524.0628413258223
 20
140.3751248799714
 11
522.8872532551668
 21
137.836121610763
 72
     1
 10
522.8872532551671
 20
137.8361216107638
 11
527.7483044495063
 21
130.9791792490318
 72
     1
 10
527.7483044495079
 20
130.9791792490319
 11
526.7016898383542
 21
129.2603654761285
 72
     4
 94
        3
 73
     0
 74
     0
 95
        9
 96
        5
 40
0.0
 40
0.0
 40
0.0
 40
0.0
 40
2.805029479527813
 40
4.98660370770903
 40
4.98660370770903
 40
4.98660370770903
 40
4.98660370770903
 10
526.7016898383539
 20
129.2603654761284
 10
525.0129715387979
 20
129.090410561837
 10
522.0244445917365
 20
128.7824511641735
 10
523.6756109640176
 20
126.4830315150417
 10
524.3979747641811
 20
125.4770653424017
 72
     1
 10
524.3979747641811
 20
125.4770653424017
 11
528.297849386675
 21
130.2039975427156
 72
     1
 10
528.2978493866708
 20
130.2039975427147
 11
531.8419305935669
 21
125.2047577508605
 72
     4
 94
        3
 73
     0
 74
     0
 95
        9
 96
        5
 40
0.0
 40
0.0
 40
0.0
 40
0.0
 40
2.18157422818124
 40
4.986603707709058
 40
4.986603707709058
 40
4.986603707709058
 40
4.986603707709058
 10
531.8419305935698
 20
125.2047577508607
 10
532.6358638903789
 20
126.1552562098292
 10
534.4506225496975
 20
128.3278887420771
 10
531.4925840752862
 20
128.8533796438183
 10
529.8207969623713
 20
129.1462653164595
 72
     1
 10
529.8207969623713
 20
129.1462653164595
 11
528.9025636212693
 21
130.9369552565361
 97
        0
 92
       20
 93
        2
 72
     4
 94
        3
 73
     0
 74
     0
 95
        9
 96
        5
 40
0.0022346529120277
 40
0.0022346529120277
 40
0.0022346529120277
 40
0.0022346529120277
 40
1.699152400941025
 40
3.97747025263658
 40
3.97747025263658
 40
3.97747025263658
 40
3.97747025263658
 10
524.4858129370027
 20
125.6213184988406
 10
523.9462352045871
 20
126.4013793760483
 10
522.6842420615962
 20
128.2279306050146
 10
525.0437510250178
 20
128.5654136185627
 10
526.3962495151814
 20
128.7587529162744
 72
     1
 10
526.3962495151741
 20
128.7587529162735
 11
524.4858129370023
 21
125.6213184988408
 97
        0
 92
       20
 93
        2
 72
     4
 94
        3
 73
     0
 74
     0
 95
        9
 96
        5
 40
0.0022346529119619
 40
0.0022346529119619
 40
0.0022346529119619
 40
0.0022346529119619
 40
2.280552504607423
 40
3.977470252636471
 40
3.977470252636471
 40
3.977470252636471
 40
3.977470252636471
 10
530.0887709476978
 20
128.6236766690423
 10
531.4235283250877
 20
128.3320347765917
 10
533.7520729124356
 20
127.823057922849
 10
532.3599971096323
 20
126.093595276751
 10
531.7648669465983
 20
125.3550431861609
 72
     1
 10
531.7648669465983
 20
125.3550431861609
 11
530.0887709477036
 21
128.6236766690403
 97
        0
 75
     0
 76
     1
 47
0.0275389756302889
 98
        3
 10
528.2530280067716
 20
130.7634266977371
 10
528.2530280067716
 20
130.7634266977371
 10
528.2530280067716
 20
130.7634266977371
1001
ACAD
1010
0.0
1020
0.0
1030
0.0
  0
MTEXT
  5
1138
330
1F
100
AcDbEntity
  8
0
  6
ACAD_ISO03W100
100
AcDbMText
 10
284.7266198942025
 20
8.77557803926868
 30
0.0
 40
6.4516
 41
64.40393440570563
 71
     1
 72
     5
  1
{\fSimHei|b0|i0|c134|p2;Cut line}
 73
     1
 44
1.0
1001
ACAD
1000
ACAD_MTEXT_COLUMN_INFO_BEGIN
1070
    75
1070
     2
1070
    79
1070
     0
1070
    76
1070
     1
1070
    78
1070
     0
1070
    48
1040
64.40393440570563
1070
    49
1040
12.5
1070
    50
1070
     1
1040
0.0
1000
ACAD_MTEXT_COLUMN_INFO_END
1000
MTEXTBEGIN
1070
    73
1070
     1
1070
    44
1040
1.0
1070
    74
1070
     0
1000
MTEXTEND
  0
MTEXT
  5
1139
330
1F
100
AcDbEntity
  8
0
  6
ACAD_ISO03W100
100
AcDbMText
 10
285.247288087824
 20
-3.806587919924253
 30
0.0
 40
6.4516
 41
47.9174516350631
 71
     1
 72
     5
  1
{\fSimHei|b0|i0|c134|p2;Cut line}
 73
     1
 44
1.0
1001
ACAD
1000
ACAD_MTEXT_COLUMN_INFO_BEGIN
1070
    75
1070
     2
1070
    79
1070
     0
1070
    76
1070
     1
1070
    78
1070
     0
1070
    48
1040
47.9174516350631
1070
    49
1040
12.5
1070
    50
1070
     1
1040
0.0
1000
ACAD_MTEXT_COLUMN_INFO_END
1000
MTEXTBEGIN
1070
    73
1070
     1
1070
    44
1040
1.0
1070
    74
1070
     0
1000
MTEXTEND
  0
HATCH
  5
113A
330
1F
100
AcDbEntity
  8
0
100
AcDbHatch
 10
0.0
 20
0.0
 30
0.0
210
0.0
220
0.0
230
1.0
  2
SOLID
 70
     1
 71
     0
 91
        3
 92
        5
 93
       12
 72
     1
 10
272.8119206104539
 20
-0.3112113807077321
 11
279.4865762740784
 21
4.797256984483967
 72
     1
 10
279.4865762740819
 20
4.797256984483851
 11
282.0668579158503
 21
3.715271974390143
 72
     1
 10
282.0668579158491
 20
3.715271974390473
 11
273.8434473306629
 21
-0.8887269868021817
 72
     1
 10
273.8434473306597
 20
-0.8887269868031353
 11
282.066857915846
 21
-5.492725947995791
 72
     1
 10
282.0668579158491
 20
-5.492725947994927
 11
279.4865762740808
 21
-6.574710958088632
 72
     1
 10
279.4865762740819
 20
-6.574710958089213
 11
272.8119206104574
 21
-1.466242592897511
 72
     1
 10
272.8119206104539
 20
-1.466242592896717
 11
271.0559950666217
 21
-2.449323675373201
 72
     4
 94
        3
 73
     0
 74
     0
 95
        9
 96
        5
 40
0.0
 40
0.0
 40
0.0
 40
0.0
 40
2.805029479527813
 40
4.98660370770903
 40
4.98660370770903
 40
4.98660370770903
 40
4.98660370770903
 10
271.0559950666257
 20
-2.449323675373646
 10
270.8244199848496
 20
-4.130700239279008
 10
270.4074161034124
 20
-7.105971666692652
 10
268.169894419193
 20
-5.371850037619307
 10
267.1910078006886
 20
-4.613194392160378
 72
     1
 10
267.1910078006886
 20
-4.613194392160378
 11
272.0573465315983
 21
-0.8887269868017281
 72
     1
 10
272.0573465315947
 20
-0.8887269868031353
 11
267.1910078006849
 21
2.835740418555517
 72
     4
 94
        3
 73
     0
 74
     0
 95
        9
 96
        5
 40
0.0
 40
0.0
 40
0.0
 40
0.0
 40
2.18157422818124
 40
4.986603707709058
 40
4.986603707709058
 40
4.986603707709058
 40
4.986603707709058
 10
267.1910078006886
 20
2.835740418555928
 10
268.169894419193
 20
3.594396064014858
 10
270.4074161034124
 20
5.328517693087291
 10
270.8244199848496
 20
2.353246265674556
 10
271.0559950666257
 20
0.6718697017682871
 72
     1
 10
271.0559950666257
 20
0.6718697017682871
 11
272.8119206104578
 21
-0.3112113807081946
 97
        0
 92
       20
 93
        2
 72
     4
 94
        3
 73
     0
 74
     0
 95
        9
 96
        5
 40
0.0022346529120277
 40
0.0022346529120277
 40
0.0022346529120277
 40
0.0022346529120277
 40
1.699152400941025
 40
3.97747025263658
 40
3.97747025263658
 40
3.97747025263658
 40
3.97747025263658
 10
267.3383755994337
 20
-4.530688333960256
 10
268.0981899548069
 20
-5.09842176334348
 10
269.877386134126
 20
-6.426343839555897
 10
270.3008991503093
 20
-4.080749233058098
 10
270.543551938209
 20
-2.736222597226855
 72
     1
 10
270.5435519382054
 20
-2.736222597234131
 11
267.3383755994331
 21
-4.530688333960121
 97
        0
 92
       20
 93
        2
 72
     4
 94
        3
 73
     0
 74
     0
 95
        9
 96
        5
 40
0.0022346529119619
 40
0.0022346529119619
 40
0.0022346529119619
 40
0.0022346529119619
 40
2.280552504607423
 40
3.977470252636471
 40
3.977470252636471
 40
3.977470252636471
 40
3.977470252636471
 10
270.543551938209
 20
0.9587686236224044
 10
270.3008991503093
 20
2.303295259452738
 10
269.877386134126
 20
4.648889865950534
 10
268.0981899548069
 20
3.320967789738118
 10
267.3383755994337
 20
2.753234360355803
 72
     1
 10
267.3383755994337
 20
2.753234360355803
 11
270.543551938206
 21
0.9587686236298155
 97
        0
 75
     0
 76
     1
 47
0.0275389756302889
 98
        3
 10
272.6147632392394
 20
-0.9539692248366693
 10
272.6147632392394
 20
-0.9539692248366693
 10
272.6147632392394
 20
-0.9539692248366693
1001
ACAD
1010
0.0
1020
0.0
1030
0.0
  0
MTEXT
  5
113B
330
1F
100
AcDbEntity
  8
0
  6
ACAD_ISO03W100
100
AcDbMText
 10
87.12288875876357
 20
122.9451713145062
 30
0.0
 40
5.16128
 41
34.61009633095069
 71
     7
 72
     5
  1
{\fSimHei|b0|i0|c134|p2;Cut line}
 11
-0.0000000000000003
 21
1.0
 31
0.0
 73
     1
 44
1.0
1001
ACAD
1000
ACAD_MTEXT_COLUMN_INFO_BEGIN
1070
    75
1070
     2
1070
    79
1070
     0
1070
    76
1070
     1
1070
    78
1070
     0
1070
    48
1040
34.61009633095069
1070
    49
1040
12.5
1070
    50
1070
     1
1040
0.0
1000
ACAD_MTEXT_COLUMN_INFO_END
1000
MTEXTBEGIN
1070
    73
1070
     1
1070
    44
1040
1.0
1070
    74
1070
     0
1000
MTEXTEND
  0
MTEXT
  5
113C
330
1F
100
AcDbEntity
  8
0
  6
ACAD_ISO03W100
100
AcDbMText
 10
75.10784827664747
 20
122.4346216654902
 30
0.0
 40
5.16128
 41
40.13910750134118
 71
     7
 72
     5
  1
{\fSimHei|b0|i0|c134|p2;Cut line}
 11
-0.0000000000000003
 21
1.0
 31
0.0
 73
     1
 44
1.0
1001
ACAD
1000
ACAD_MTEXT_COLUMN_INFO_BEGIN
1070
    75
1070
     2
1070
    79
1070
     0
1070
    76
1070
     1
1070
    78
1070
     0
1070
    48
1040
40.13910750134118
1070
    49
1040
12.5
1070
    50
1070
     1
1040
0.0
1000
ACAD_MTEXT_COLUMN_INFO_END
1000
MTEXTBEGIN
1070
    73
1070
     1
1070
    44
1040
1.0
1070
    74
1070
     0
1000
MTEXTEND
  0
HATCH
  5
113D
330
1F
100
AcDbEntity
  8
0
100
AcDbHatch
 10
0.0
 20
0.0
 30
0.0
210
0.0
220
0.0
230
1.0
  2
SOLID
 70
     1
 71
     0
 91
        3
 92
        5
 93
       12
 72
     1
 10
78.05687820947923
 20
169.1480358114075
 11
72.70782182934819
 21
162.6645897286293
 72
     1
 10
72.70782182934954
 20
162.6645897286297
 11
73.69475734840634
 21
160.0464791132925
 72
     1
 10
73.69475734840627
 20
160.0464791132925
 11
78.59629870487575
 21
168.096086583104
 72
     1
 10
78.59629870487471
 20
168.0960865831037
 11
82.89660050492384
 21
159.7098661879724
 72
     1
 10
82.89660050492377
 20
159.7098661879726
 11
84.0721885755793
 21
162.2488694571809
 72
     1
 10
84.07218857557881
 20
162.2488694571801
 11
79.21113738123967
 21
169.1058118189121
 72
     1
 10
79.21113738123813
 20
169.1058118189129
 11
80.25775199239186
 21
170.8246255918163
 72
     4
 94
        3
 73
     0
 74
     0
 95
        9
 96
        5
 40
0.0
 40
0.0
 40
0.0
 40
0.0
 40
2.805029479527813
 40
4.98660370770903
 40
4.98660370770903
 40
4.98660370770903
 40
4.98660370770903
 10
80.25775199239204
 20
170.8246255918155
 10
81.94647029194994
 20
170.9945805061078
 10
84.93499723900777
 20
171.3025399037714
 10
83.28383086673012
 20
173.6019595529022
 10
82.5614670665668
 20
174.6079257255432
 72
     1
 10
82.5614670665668
 20
174.6079257255432
 11
78.66159244407291
 21
169.8809935252293
 72
     1
 10
78.66159244407346
 20
169.8809935252283
 11
75.11751123717741
 21
174.8802333170825
 72
     4
 94
        3
 73
     0
 74
     0
 95
        9
 96
        5
 40
0.0
 40
0.0
 40
0.0
 40
0.0
 40
2.18157422818124
 40
4.986603707709058
 40
4.986603707709058
 40
4.986603707709058
 40
4.986603707709058
 10
75.11751123717795
 20
174.8802333170832
 10
74.32357794036899
 20
173.9297348581157
 10
72.50881928104854
 20
171.7571023258668
 10
75.46685775545984
 20
171.2316114241247
 10
77.13864486837656
 20
170.9387257514835
 72
     1
 10
77.13864486837656
 20
170.9387257514835
 11
78.05687820947842
 21
169.148035811407
 97
        0
 92
       20
 93
        2
 72
     4
 94
        3
 73
     0
 74
     0
 95
        9
 96
        5
 40
0.0022346529120277
 40
0.0022346529120277
 40
0.0022346529120277
 40
0.0022346529120277
 40
1.699152400941025
 40
3.97747025263658
 40
3.97747025263658
 40
3.97747025263658
 40
3.97747025263658
 10
82.47362889374334
 20
174.4636725691033
 10
83.01320662615717
 20
173.6836116918965
 10
84.27519976914981
 20
171.8570604629293
 10
81.91569080572799
 20
171.5195774493821
 10
80.56319231556472
 20
171.3262381516696
 72
     1
 10
80.56319231557017
 20
171.3262381516704
 11
82.4736288937418
 21
174.4636725691031
 97
        0
 92
       20
 93
        2
 72
     4
 94
        3
 73
     0
 74
     0
 95
        9
 96
        5
 40
0.0022346529119619
 40
0.0022346529119619
 40
0.0022346529119619
 40
0.0022346529119619
 40
2.280552504607423
 40
3.977470252636471
 40
3.977470252636471
 40
3.977470252636471
 40
3.977470252636471
 10
76.87067088304821
 20
171.4613143989025
 10
75.53591350565828
 20
171.7529562913531
 10
73.20736891831029
 20
172.261933145095
 10
74.59944472111556
 20
173.9913957911929
 10
75.19457488414764
 20
174.7299478817829
 72
     1
 10
75.19457488414764
 20
174.7299478817829
 11
76.87067088304236
 21
171.4613143989036
 97
        0
 75
     0
 76
     1
 47
0.0275389756302889
 98
        3
 10
78.70641382397434
 20
169.3215643702077
 10
78.70641382397434
 20
169.3215643702077
 10
78.70641382397434
 20
169.3215643702077
1001
ACAD
1010
0.0
1020
0.0
1030
0.0
  0
MTEXT
  5
1148
330
1F
100
AcDbEntity
  8
0
 48
2.0
370
    70
100
AcDbMText
 10
291.7787980306016
 20
279.3062518244199
 30
0.0
 40
5.759999999999998
 41
28.85200791973826
 71
     1
 72
     1
  1
{\fArial|b0|i0|c0|p34;BACK}
 73
     1
 44
1.0
1001
ACAD
1000
MTEXTBEGIN
1070
    73
1070
     1
1070
    44
1040
1.0
1070
    74
1070
     0
1000
MTEXTEND
  0
DIMENSION
  5
1641
102
{ACAD_XDICTIONARY
360
164E
102
}
102
{ACAD_REACTORS
330
1658
102
}
330
1F
100
AcDbEntity
  8
0
100
AcDbDimension
  2
*D29
 10
528.3792453943174
 20
326.2215964562102
 30
0.0
 11
303.3792453943174
 21
333.2620125544367
 31
0.0
 70
    32
 71
     5
 42
17.7165
  3
副本 ISO-25
100
AcDbAlignedDimension
 13
78.37924539431742
 23
258.1060669746102
 33
0.0
 14
528.3792453943174
 24
258.1060669746102
 34
0.0
100
AcDbRotatedDimension
  0
DIMENSION
  5
1659
102
{ACAD_XDICTIONARY
360
1666
102
}
102
{ACAD_REACTORS
330
1670
102
}
330
1F
100
AcDbEntity
  8
0
100
AcDbDimension
  2
*D30
 10
570.9764765179807
 20
-0.3477733141302453
 30
0.0
 11
563.9360604197541
 21
149.6522266858699
 31
0.0
 70
    32
 71
     5
 42
11.811
  3
副本 ISO-25
100
AcDbAlignedDimension
 13
490.3154500004675
 23
299.6522266858698
 33
0.0
 14
490.3154500004675
 24
-0.3477733141302224
 34
0.0
 50
90.0
100
AcDbRotatedDimension
  0
MTEXT
  5
16F5
102
{ACAD_XDICTIONARY
360
1788
102
}
330
1F
100
AcDbEntity
  8
0
370
    70
100
AcDbMText
 10
140.372901669838
 20
217.0732186199653
 30
0.0
 40
9.154864999709518
 41
9066.373922321877
 71
     1
 72
     1
  3
{\ftimes new roman|b0|i0|c0|p32;\H1.0002x;\C7;NOTE:\PDimensions vary from sink to sink,verify exact size of sink \ftimes new roman|b0|i0|c238|p32;\P\ftimes new roman|b0|i0|c0|p32;before cutting using the template.\ftimes new roman|b0|i0|c238|p32; \ft
  3
imes new roman|b0|i0|c0|p32;Manufacturer is not \ftimes new roman|b0|i0|c238|p32;\P\ftimes new roman|b0|i0|c0|p32;responsible for mis-cut templates.\PNOT\ftimes new roman|b0|i0|c238|p32;A\ftimes new roman|b0|i0|c0|p32;:\PLas dimensiones varian de fre
  3
gadero al fregadero,verifican el\ftimes new roman|b0|i0|c238|p32;\P\ftimes new roman|b0|i0|c0|p32;tama\fCalibri|b0|i0|c0|p34;\H0.87483x;\C256;\U+00F1\ftimes new roman|b0|i0|c0|p32;\H1.1431x;\C7;o exacto del fregadero antes del\ftimes new roman|b0|i0|
  3
c238|p32; \ftimes new roman|b0|i0|c0|p32;corte usando la \ftimes new roman|b0|i0|c238|p32;\P\ftimes new roman|b0|i0|c0|p32;plantilla. El fabricante no es\ftimes new roman|b0|i0|c238|p32; \ftimes new roman|b0|i0|c0|p32;responsable de mis-corto`\ftimes
  1
 new roman|b0|i0|c238|p32;\P\ftimes new roman|b0|i0|c0|p32;plantillas.}
 73
     1
 44
1.0
1001
ACAD
1000
MTEXTBEGIN
1070
    73
1070
     1
1070
    44
1040
1.0
1070
    74
1070
     0
1000
MTEXTEND
  0
ENDSEC
  0
SECTION
  2
OBJECTS
  0
DICTIONARY
  5
C
330
0
100
AcDbDictionary
281
     1
  3
ACAD_2007HEADERVARS_RT
350
174E
  3
ACAD_COLOR
350
6B
  3
ACAD_GROUP
350
D
  3
ACAD_IMAGE_DICT
350
A3E
  3
ACAD_IMAGE_VARS
350
A3F
  3
ACAD_LAYOUT
350
1A
  3
ACAD_MATERIAL
350
6A
  3
ACAD_MLEADERSTYLE
350
12D
  3
ACAD_MLINESTYLE
350
17
  3
ACAD_PLOTSETTINGS
350
19
  3
ACAD_PLOTSTYLENAME
350
E
  3
ACAD_SCALELIST
350
10C
  3
ACAD_TABLESTYLE
350
7E
  3
ACAD_VISUALSTYLE
350
EF
  3
ACDB_RECOMPOSE_DATA
350
174C
  3
AcDbVariableDictionary
350
5E
  3
DWGPROPS
350
174D
  0
DICTIONARY
  5
6EA
330
8
100
AcDbDictionary
280
     1
281
     1
  0
DICTIONARY
  5
1FF
330
2
100
AcDbDictionary
280
     1
281
     1
  3
ACAD_LAYERSTATES
360
200
  0
DICTIONARY
  5
13C
330
10
100
AcDbDictionary
280
     1
281
     1
  0
DICTIONARY
  5
1CE
330
1F
100
AcDbDictionary
280
     1
281
     1
  3
ACAD_SORTENTS
360
222
  0
IMAGEDEF_REACTOR
  5
AEB
330
AEA
100
AcDbRasterImageDefReactor
 90
        2
330
AEA
  0
IMAGEDEF_REACTOR
  5
C7E
330
C7D
100
AcDbRasterImageDefReactor
 90
        2
330
C7D
  0
DICTIONARY
  5
164E
330
1641
100
AcDbDictionary
280
     1
281
     1
  3
ACAD_DIMASSOC
360
1658
  0
DICTIONARY
  5
1666
330
1659
100
AcDbDictionary
280
     1
281
     1
  3
ACAD_DIMASSOC
360
1670
  0
DICTIONARY
  5
1788
330
16F5
100
AcDbDictionary
280
     1
281
     1
  3
ACAD_MTEXT_RT
360
1789
  0
DICTIONARY
  5
174E
102
{ACAD_REACTORS
330
C
102
}
330
C
100
AcDbDictionary
281
     1
  3
DIMFXLON
350
174F
  0
DICTIONARY
  5
6B
102
{ACAD_REACTORS
330
C
102
}
330
C
100
AcDbDictionary
281
     1
  0
DICTIONARY
  5
D
102
{ACAD_REACTORS
330
C
102
}
330
C
100
AcDbDictionary
281
     1
  0
DICTIONARY
  5
A3E
102
{ACAD_REACTORS
330
C
102
}
330
C
100
AcDbDictionary
281
     1
  3
SOC陶瓷盆前后正唛
350
A40
  0
RASTERVARIABLES
  5
A3F
102
{ACAD_REACTORS
330
C
102
}
330
C
100
AcDbRasterVariables
 90
        0
 70
     1
 71
     1
 72
     1
  0
DICTIONARY
  5
1A
102
{ACAD_REACTORS
330
C
102
}
330
C
100
AcDbDictionary
281
     1
  3
Model
350
22
  3
布局1
350
D3
  3
布局2
350
D7
  0
DICTIONARY
  5
6A
102
{ACAD_REACTORS
330
C
102
}
330
C
100
AcDbDictionary
281
     1
  3
ByBlock
350
ED
  3
ByLayer
350
EC
  3
Global
350
EE
  0
DICTIONARY
  5
12D
102
{ACAD_REACTORS
330
C
102
}
330
C
100
AcDbDictionary
281
     1
  3
Annotative
350
13B
  3
Standard
350
12E
  0
DICTIONARY
  5
17
102
{ACAD_REACTORS
330
C
102
}
330
C
100
AcDbDictionary
281
     1
  3
Standard
350
18
  0
DICTIONARY
  5
19
102
{ACAD_REACTORS
330
C
102
}
330
C
100
AcDbDictionary
281
     1
  0
ACDBDICTIONARYWDFLT
  5
E
102
{ACAD_REACTORS
330
C
102
}
330
C
100
AcDbDictionary
281
     1
  3
Normal
350
F
100
AcDbDictionaryWithDefault
340
F
  0
DICTIONARY
  5
10C
102
{ACAD_REACTORS
330
C
102
}
330
C
100
AcDbDictionary
281
     1
  3
A0
350
10D
  3
A1
350
1BE
  3
A2
350
1BF
  3
A3
350
1C0
  3
A4
350
1C1
  3
A5
350
1C2
  3
A6
350
1C3
  3
A7
350
1C4
  3
A8
350
1C5
  3
A9
350
1C6
  3
B0
350
1C7
  3
B1
350
1C8
  3
B2
350
1C9
  3
B3
350
1CA
  3
B4
350
1CB
  3
B5
350
1CC
  3
B6
350
1CD
  0
DICTIONARY
  5
7E
102
{ACAD_REACTORS
330
C
102
}
330
C
100
AcDbDictionary
281
     1
  3
Standard
350
7F
  0
DICTIONARY
  5
EF
102
{ACAD_REACTORS
330
C
102
}
330
C
100
AcDbDictionary
281
     1
  3
2dWireframe
350
F5
  3
Basic
350
F4
  3
Brighten
350
FB
  3
ColorChange
350
FF
  3
Conceptual
350
F8
  3
Dim
350
FA
  3
EdgeColorOff
350
1E6
  3
Facepattern
350
FE
  3
Flat
350
F0
  3
FlatWithEdges
350
F1
  3
Gouraud
350
F2
  3
GouraudWithEdges
350
F3
  3
Hidden
350
F7
  3
JitterOff
350
1E4
  3
Linepattern
350
FD
  3
OverhangOff
350
1E5
  3
Realistic
350
F9
  3
Shaded
350
1F3
  3
Shaded with edges
350
1F2
  3
Shades of Gray
350
1EF
  3
Sketchy
350
1F0
  3
Thicken
350
FC
  3
Wireframe
350
F6
  3
X-Ray
350
1F1
  0
XRECORD
  5
174C
102
{ACAD_REACTORS
330
C
102
}
330
C
100
AcDbXrecord
280
     1
 90
        1
330
7F
330
1132
330
1133
330
1135
330
1136
330
1138
330
1139
330
113B
330
113C
  0
DICTIONARY
  5
5E
102
{ACAD_REACTORS
330
C
102
}
330
C
100
AcDbDictionary
281
     1
  3
CANNOSCALE
350
146
  3
CMLEADERSTYLE
350
145
  3
CTABLESTYLE
350
84
  3
DIMASSOC
350
5F
  3
HIDETEXT
350
63
  3
INDEXCTL
350
729
  3
LAYEREVAL
350
1AE
  3
LAYERNOTIFY
350
1AF
  3
LIGHTINGUNITS
350
727
  3
LOFTANG1
350
16F8
  3
LOFTANG2
350
16F9
  3
MSLTSCALE
350
726
  3
PSOLHEIGHT
350
16F7
  3
PSOLWIDTH
350
16F6
  3
SORTENTS
350
728
  3
XCLIPFRAME
350
16FA
  0
XRECORD
  5
174D
102
{ACAD_REACTORS
330
C
102
}
330
C
100
AcDbXrecord
280
     1
  1
DWGPROPS COOKIE
  2

  3

  4

  6

  7

  8
xiaoyou
  9

300
=
301
=
302
=
303
=
304
=
305
=
306
=
307
=
308
=
309
=
 40
0.3061184259259259
 41
2456023.449896319
 42
2456667.70534956
  1

 90
        0
  0
DICTIONARY
  5
200
102
{ACAD_REACTORS
330
1FF
102
}
330
1FF
100
AcDbDictionary
281
     1
  0
SORTENTSTABLE
  5
222
102
{ACAD_REACTORS
330
1CE
102
}
330
1CE
100
AcDbSortentsTable
330
1F
331
1119
  5
1119
331
1118
  5
1118
331
1132
  5
1132
331
10F2
  5
10F2
331
C93
  5
D39
331
1134
  5
1134
331
1133
  5
1133
331
1136
  5
1136
331
1135
  5
1135
331
1138
  5
1138
331
1137
  5
1137
331
113A
  5
113A
331
1139
  5
1139
331
111A
  5
111A
331
113C
  5
113C
331
110C
  5
110C
331
113B
  5
113B
331
110B
  5
110B
331
110E
  5
110E
331
113D
  5
113D
331
110D
  5
110D
331
1111
  5
1111
331
1148
  5
1148
331
1110
  5
1110
331
1113
  5
1113
331
1112
  5
1112
331
1115
  5
1115
331
1114
  5
1114
331
1117
  5
1117
331
1116
  5
1116
331
110F
  5
110F
  0
DIMASSOC
  5
1658
102
{ACAD_REACTORS
330
164E
102
}
330
164E
100
AcDbDimAssoc
330
1641
 90
        3
 70
     0
 71
     0
  1
AcDbOsnapPointRef
 72
    10
331
10F2
 73
     2
 91
        7
 40
0.0661846388450383
 10
0.0
 20
0.0
 30
0.0
 75
     0
  1
AcDbOsnapPointRef
 72
     8
331
10F2
 73
     2
 91
        3
 40
0.9338153611549614
 10
0.0
 20
0.0
 30
0.0
 75
     1
  1
AcDbOsnapPointRef
 72
    10
331
10F2
 73
     2
 91
        7
 40
0.0661846388450383
 10
0.0
 20
0.0
 30
0.0
 75
     0
  0
DIMASSOC
  5
1670
102
{ACAD_REACTORS
330
1666
102
}
330
1666
100
AcDbDimAssoc
330
1659
 90
        3
 70
     0
 71
     0
  1
AcDbOsnapPointRef
 72
    10
331
10F2
 73
     2
 91
        5
 40
0.0326594884846247
 10
0.0
 20
0.0
 30
0.0
 75
     0
  1
AcDbOsnapPointRef
 72
     8
331
10F2
 73
     2
 91
        1
 40
0.9673405115153752
 10
0.0
 20
0.0
 30
0.0
 75
     1
  1
AcDbOsnapPointRef
 72
    10
331
10F2
 73
     2
 91
        5
 40
0.0326594884846247
 10
0.0
 20
0.0
 30
0.0
 75
     0
  0
XRECORD
  5
1789
102
{ACAD_REACTORS
330
1788
102
}
330
1788
100
AcDbXrecord
280
     1
 40
52552647.0
  1
{\ftimes new roman|b0|i0|c0|p32;\H1.0002x;\C7;NOTE:\PDimensions vary from sink to sink,verify exact size of sink \ftimes new roman|b0|i0|c238|p32;\P\ftimes new roman|b0|i0|c0|p32;before cutting using the template.\ftimes new roman|b0|i0|c238|p32; \ft
  1
imes new roman|b0|i0|c0|p32;Manufacturer is not \ftimes new roman|b0|i0|c238|p32;\P\ftimes new roman|b0|i0|c0|p32;responsible for mis-cut templates.\PNOT\ftimes new roman|b0|i0|c238|p32;A\ftimes new roman|b0|i0|c0|p32;:\PLas dimensiones varian de fre
  1
gadero al fregadero,verifican el\ftimes new roman|b0|i0|c238|p32;\P\ftimes new roman|b0|i0|c0|p32;tama\fCalibri|b0|i0|c0|p34;\H0.87483x;\C256;\U+00F1\ftimes new roman|b0|i0|c0|p32;\H1.1431x;\C7;o exacto del fregadero antes del\ftimes new roman|b0|i0|c238|p
  1
32; \ftimes new roman|b0|i0|c0|p32;corte usando la \ftimes new roman|b0|i0|c238|p32;\P\ftimes new roman|b0|i0|c0|p32;plantilla. El fabricante no es\ftimes new roman|b0|i0|c238|p32; \ftimes new roman|b0|i0|c0|p32;responsable de mis-corto`\ftimes new r
  1
oman|b0|i0|c238|p32;\P\ftimes new roman|b0|i0|c0|p32;plantillas.}
  0
XRECORD
  5
174F
102
{ACAD_REACTORS
330
174E
102
}
330
174E
100
AcDbXrecord
280
     1
290
     1
  0
IMAGEDEF
  5
A40
102
{ACAD_REACTORS
330
A3E
330
AEB
330
C7E
102
}
330
A3E
100
AcDbRasterImageDef
 90
        0
  1
C:\Documents and Settings\production5\桌面\SOC陶瓷盆前后正唛.jpg
 10
404.0
 20
225.0
 11
0.3527777777777778
 21
0.3527777777777778
280
     1
281
     5
  0
LAYOUT
  5
22
102
{ACAD_XDICTIONARY
360
205
102
}
102
{ACAD_REACTORS
330
1A
102
}
330
1A
100
AcDbPlotSettings
  1

  2
none_device
  4
ISO_A4_(210.00_x_297.00_MM)
  6

 40
7.5
 41
20.0
 42
7.5
 43
20.0
 44
210.0
 45
297.0
 46
11.54999923706054
 47
-13.65000009536743
 48
0.0
 49
0.0
140
0.0
141
0.0
142
1.0
143
8.704084754739808
 70
 11952
 72
     1
 73
     0
 74
     0
  7

 75
     0
147
0.1148885871608098
148
0.0
149
0.0
100
AcDbLayout
  1
Model
 70
     1
 71
     0
 10
0.0
 20
0.0
 11
12.0
 21
9.0
 12
0.0
 22
0.0
 32
0.0
 14
0.0
 24
0.0
 34
0.0
 15
0.0
 25
0.0
 35
0.0
146
0.0
 13
0.0
 23
0.0
 33
0.0
 16
1.0
 26
0.0
 36
0.0
 17
0.0
 27
1.0
 37
0.0
 76
     0
330
1F
331
EA
1001
ACAD_PSEXT
1000
None
1000
None
1000
Not applicable
1000
The layout will not be plotted unless a new plotter configuration name is selected.
1070
     0
  0
LAYOUT
  5
D3
102
{ACAD_XDICTIONARY
360
1752
102
}
102
{ACAD_REACTORS
330
1A
102
}
330
1A
100
AcDbPlotSettings
  1

  2
C:\Documents and Settings\basas\Application Data\Autodesk\AutoCAD 2005\R16.1\enu\plotters\Default Windows System Printer.pc3
  4

  6

 40
0.0
 41
0.0
 42
0.0
 43
0.0
 44
0.0
 45
0.0
 46
0.0
 47
0.0
 48
0.0
 49
0.0
140
0.0
141
0.0
142
1.0
143
1.0
 70
   688
 72
     0
 73
     0
 74
     5
  7

 75
    16
147
1.0
148
0.0
149
0.0
100
AcDbLayout
  1
布局1
 70
     1
 71
     1
 10
0.0
 20
0.0
 11
12.0
 21
9.0
 12
0.0
 22
0.0
 32
0.0
 14
0.0
 24
0.0
 34
0.0
 15
0.0
 25
0.0
 35
0.0
146
0.0
 13
0.0
 23
0.0
 33
0.0
 16
1.0
 26
0.0
 36
0.0
 17
0.0
 27
1.0
 37
0.0
 76
     0
330
D2
  0
LAYOUT
  5
D7
102
{ACAD_XDICTIONARY
360
1754
102
}
102
{ACAD_REACTORS
330
1A
102
}
330
1A
100
AcDbPlotSettings
  1

  2
C:\Documents and Settings\basas\Application Data\Autodesk\AutoCAD 2005\R16.1\enu\plotters\Default Windows System Printer.pc3
  4

  6

 40
0.0
 41
0.0
 42
0.0
 43
0.0
 44
0.0
 45
0.0
 46
0.0
 47
0.0
 48
0.0
 49
0.0
140
0.0
141
0.0
142
1.0
143
1.0
 70
   688
 72
     0
 73
     0
 74
     5
  7

 75
    16
147
1.0
148
0.0
149
0.0
100
AcDbLayout
  1
布局2
 70
     1
 71
     2
 10
0.0
 20
0.0
 11
12.0
 21
9.0
 12
0.0
 22
0.0
 32
0.0
 14
0.0
 24
0.0
 34
0.0
 15
0.0
 25
0.0
 35
0.0
146
0.0
 13
0.0
 23
0.0
 33
0.0
 16
1.0
 26
0.0
 36
0.0
 17
0.0
 27
1.0
 37
0.0
 76
     0
330
D6
  0
MATERIAL
  5
ED
102
{ACAD_XDICTIONARY
360
1F9
102
}
102
{ACAD_REACTORS
330
6A
102
}
330
6A
100
AcDbMaterial
  1
ByBlock
  0
MATERIAL
  5
EC
102
{ACAD_XDICTIONARY
360
1F7
102
}
102
{ACAD_REACTORS
330
6A
102
}
330
6A
100
AcDbMaterial
  1
ByLayer
  0
MATERIAL
  5
EE
102
{ACAD_XDICTIONARY
360
173
102
}
102
{ACAD_REACTORS
330
6A
102
}
330
6A
100
AcDbMaterial
  1
Global
 43
0.0007999999797903
 43
0.0
 43
0.0
 43
0.0
 43
0.0
 43
0.0007999999797903
 43
0.0
 43
0.0
 43
0.0
 43
0.0
 43
1.0
 43
0.0
 43
0.0
 43
0.0
 43
0.0
 43
1.0
 49
0.0007999999797903
 49
0.0
 49
0.0
 49
0.0
 49
0.0
 49
0.0007999999797903
 49
0.0
 49
0.0
 49
0.0
 49
0.0
 49
1.0
 49
0.0
 49
0.0
 49
0.0
 49
0.0
 49
1.0
142
0.0007999999797903
142
0.0
142
0.0
142
0.0
142
0.0
142
0.0007999999797903
142
0.0
142
0.0
142
0.0
142
0.0
142
1.0
142
0.0
142
0.0
142
0.0
142
0.0
142
1.0
144
0.0007999999797903
144
0.0
144
0.0
144
0.0
144
0.0
144
0.0007999999797903
144
0.0
144
0.0
144
0.0
144
0.0
144
1.0
144
0.0
144
0.0
144
0.0
144
0.0
144
1.0
1001
ACAD
1070
    -1
1070
     3
1070
     0
1000

1071
        0
1070
     0
  0
MLEADERSTYLE
  5
13B
102
{ACAD_REACTORS
330
12D
102
}
330
12D
100
AcDbMLeaderStyle
170
     2
171
     1
172
     0
 90
        2
 40
0.0
 41
0.0
173
     1
 91
-1056964608
340
14
 92
       -2
290
     1
 42
2.0
291
     1
 43
8.0
  3
Standard
 44
4.0
300

342
11
174
     1
178
     1
175
     1
176
     0
 93
-1056964608
 45
4.0
292
     0
297
     0
 46
4.0
 94
-1056964608
 47
1.0
 49
1.0
140
1.0
293
     1
141
0.0
294
     1
177
     0
142
1.0
295
     0
296
     1
143
3.75
1001
ACAD_MLEADERVER
1070
     2
  0
MLEADERSTYLE
  5
12E
102
{ACAD_REACTORS
330
12D
102
}
330
12D
100
AcDbMLeaderStyle
170
     2
171
     1
172
     0
 90
        2
 40
0.0
 41
0.0
173
     1
 91
-1056964608
340
14
 92
       -2
290
     1
 42
2.0
291
     1
 43
8.0
  3
Standard
 44
4.0
300

342
11
174
     1
178
     1
175
     1
176
     0
 93
-1056964608
 45
4.0
292
     0
297
     0
 46
4.0
 94
-1056964608
 47
1.0
 49
1.0
140
1.0
293
     1
141
0.0
294
     1
177
     0
142
1.0
295
     0
296
     0
143
3.75
1001
ACAD_MLEADERVER
1070
     2
  0
MLINESTYLE
  5
18
102
{ACAD_REACTORS
330
17
102
}
330
17
100
AcDbMlineStyle
  2
STANDARD
 70
     0
  3

 62
   256
 51
90.0
 52
90.0
 71
     2
 49
0.5
 62
   256
  6
BYLAYER
 49
-0.5
 62
   256
  6
BYLAYER
  0
ACDBPLACEHOLDER
  5
F
102
{ACAD_REACTORS
330
E
102
}
330
E
  0
SCALE
  5
10D
102
{ACAD_REACTORS
330
10C
102
}
330
10C
100
AcDbScale
 70
     0
300
1:1
140
1.0
141
1.0
290
     1
  0
SCALE
  5
1BE
102
{ACAD_REACTORS
330
10C
102
}
330
10C
100
AcDbScale
 70
     0
300
1:2
140
1.0
141
2.0
290
     0
  0
SCALE
  5
1BF
102
{ACAD_REACTORS
330
10C
102
}
330
10C
100
AcDbScale
 70
     0
300
1:4
140
1.0
141
4.0
290
     0
  0
SCALE
  5
1C0
102
{ACAD_REACTORS
330
10C
102
}
330
10C
100
AcDbScale
 70
     0
300
1:5
140
1.0
141
5.0
290
     0
  0
SCALE
  5
1C1
102
{ACAD_REACTORS
330
10C
102
}
330
10C
100
AcDbScale
 70
     0
300
1:8
140
1.0
141
8.0
290
     0
  0
SCALE
  5
1C2
102
{ACAD_REACTORS
330
10C
102
}
330
10C
100
AcDbScale
 70
     0
300
1:10
140
1.0
141
10.0
290
     0
  0
SCALE
  5
1C3
102
{ACAD_REACTORS
330
10C
102
}
330
10C
100
AcDbScale
 70
     0
300
1:16
140
1.0
141
16.0
290
     0
  0
SCALE
  5
1C4
102
{ACAD_REACTORS
330
10C
102
}
330
10C
100
AcDbScale
 70
     0
300
1:20
140
1.0
141
20.0
290
     0
  0
SCALE
  5
1C5
102
{ACAD_REACTORS
330
10C
102
}
330
10C
100
AcDbScale
 70
     0
300
1:30
140
1.0
141
30.0
290
     0
  0
SCALE
  5
1C6
102
{ACAD_REACTORS
330
10C
102
}
330
10C
100
AcDbScale
 70
     0
300
1:40
140
1.0
141
40.0
290
     0
  0
SCALE
  5
1C7
102
{ACAD_REACTORS
330
10C
102
}
330
10C
100
AcDbScale
 70
     0
300
1:50
140
1.0
141
50.0
290
     0
  0
SCALE
  5
1C8
102
{ACAD_REACTORS
330
10C
102
}
330
10C
100
AcDbScale
 70
     0
300
1:100
140
1.0
141
100.0
290
     0
  0
SCALE
  5
1C9
102
{ACAD_REACTORS
330
10C
102
}
330
10C
100
AcDbScale
 70
     0
300
2:1
140
2.0
141
1.0
290
     0
  0
SCALE
  5
1CA
102
{ACAD_REACTORS
330
10C
102
}
330
10C
100
AcDbScale
 70
     0
300
4:1
140
4.0
141
1.0
290
     0
  0
SCALE
  5
1CB
102
{ACAD_REACTORS
330
10C
102
}
330
10C
100
AcDbScale
 70
     0
300
8:1
140
8.0
141
1.0
290
     0
  0
SCALE
  5
1CC
102
{ACAD_REACTORS
330
10C
102
}
330
10C
100
AcDbScale
 70
     0
300
10:1
140
10.0
141
1.0
290
     0
  0
SCALE
  5
1CD
102
{ACAD_REACTORS
330
10C
102
}
330
10C
100
AcDbScale
 70
     0
300
100:1
140
100.0
141
1.0
290
     0
  0
TABLESTYLE
  5
7F
102
{ACAD_XDICTIONARY
360
162
102
}
102
{ACAD_REACTORS
330
7E
102
}
330
7E
100
AcDbTableStyle
  3
Standard
 70
     0
 71
     0
 40
1.5
 41
1.5
280
     0
281
     0
  7
Standard
140
4.5
170
     2
 62
     0
 63
     7
283
     0
274
    -2
284
     1
 64
     0
275
    -2
285
     1
 65
     0
276
    -2
286
     1
 66
     0
277
    -2
287
     1
 67
     0
278
    -2
288
     1
 68
     0
279
    -2
289
     1
 69
     0
  7
Standard
140
6.0
170
     5
 62
     0
 63
     7
283
     0
274
    -2
284
     1
 64
     0
275
    -2
285
     1
 65
     0
276
    -2
286
     1
 66
     0
277
    -2
287
     1
 67
     0
278
    -2
288
     1
 68
     0
279
    -2
289
     1
 69
     0
  7
Standard
140
4.5
170
     5
 62
     0
 63
     7
283
     0
274
    -2
284
     1
 64
     0
275
    -2
285
     1
 65
     0
276
    -2
286
     1
 66
     0
277
    -2
287
     1
 67
     0
278
    -2
288
     1
 68
     0
279
    -2
289
     1
 69
     0
  0
VISUALSTYLE
  5
F5
102
{ACAD_XDICTIONARY
360
1760
102
}
102
{ACAD_REACTORS
330
EF
102
}
330
EF
100
AcDbVisualStyle
  2

 70
     4
 71
     0
 72
     2
 73
     1
 90
        0
 40
-0.6
 41
-30.0
 62
     5
 63
     7
 74
     1
 91
        4
 64
     7
 65
   257
 75
     1
175
     1
 42
1.0
 92
        0
 66
   257
 43
1.0
 76
     1
 77
     6
 78
     2
 67
     7
 79
     5
170
     0
171
     0
290
     0
174
     0
 93
        1
 44
0.0
173
     0
291
     0
 45
0.0
1001
ACAD
1000
AcDbSavedByObjectVersion
1070
     0
  0
VISUALSTYLE
  5
F4
102
{ACAD_XDICTIONARY
360
175E
102
}
102
{ACAD_REACTORS
330
EF
102
}
330
EF
100
AcDbVisualStyle
  2

 70
     7
 71
     1
 72
     0
 73
     1
 90
        0
 40
-0.6
 41
-30.0
 62
     5
 63
     7
 74
     0
 91
        4
 64
     7
 65
   257
 75
     1
175
     1
 42
1.0
 92
        8
 66
     7
 43
1.0
 76
     1
 77
     6
 78
     2
 67
     7
 79
     5
170
     0
171
     0
290
     0
174
     0
 93
        1
 44
0.0
173
     0
291
     1
 45
0.0
1001
ACAD
1000
AcDbSavedByObjectVersion
1070
     0
  0
VISUALSTYLE
  5
FB
102
{ACAD_XDICTIONARY
360
176C
102
}
102
{ACAD_REACTORS
330
EF
102
}
330
EF
100
AcDbVisualStyle
  2

 70
    12
 71
     2
 72
     2
 73
     1
 90
        0
 40
-0.6
 41
-30.0
 62
     5
 63
     7
 74
     1
 91
        4
 64
     7
 65
   257
 75
     1
175
     1
 42
1.0
 92
        8
 66
     7
 43
1.0
 76
     1
 77
     6
 78
     2
 67
     7
 79
     5
170
     0
171
     0
290
     0
174
     0
 93
        1
 44
50.0
173
     0
291
     1
 45
0.0
1001
ACAD
1000
AcDbSavedByObjectVersion
1070
     0
  0
VISUALSTYLE
  5
FF
102
{ACAD_XDICTIONARY
360
1774
102
}
102
{ACAD_REACTORS
330
EF
102
}
330
EF
100
AcDbVisualStyle
  2

 70
    16
 71
     2
 72
     2
 73
     3
 90
        0
 40
-0.6
 41
-30.0
 62
     5
 63
     8
 74
     1
 91
        4
 64
     7
 65
   257
 75
     1
175
     1
 42
1.0
 92
        8
 66
     8
 43
1.0
 76
     1
 77
     6
 78
     2
 67
     7
 79
     5
170
     0
171
     0
290
     0
174
     0
 93
        1
 44
0.0
173
     0
291
     1
 45
0.0
1001
ACAD
1000
AcDbSavedByObjectVersion
1070
     0
  0
VISUALSTYLE
  5
F8
102
{ACAD_XDICTIONARY
360
1766
102
}
102
{ACAD_REACTORS
330
EF
102
}
330
EF
100
AcDbVisualStyle
  2

 70
     9
 71
     3
 72
     2
 73
     1
 90
        0
 40
-0.6
 41
-30.0
 62
     5
 63
     7
 74
     2
 91
        2
 64
     7
 65
   257
 75
     1
175
     1
 42
40.0
 92
        8
 66
     7
 43
1.0
 76
     1
 77
     6
 78
     2
 67
     7
 79
     3
170
     0
171
     0
290
     0
174
     0
 93
        1
 44
0.0
173
     0
291
     0
 45
0.0
1001
ACAD
1000
AcDbSavedByObjectVersion
1070
     0
  0
VISUALSTYLE
  5
FA
102
{ACAD_XDICTIONARY
360
176A
102
}
102
{ACAD_REACTORS
330
EF
102
}
330
EF
100
AcDbVisualStyle
  2

 70
    11
 71
     2
 72
     2
 73
     1
 90
        0
 40
-0.6
 41
-30.0
 62
     5
 63
     7
 74
     1
 91
        4
 64
     7
 65
   257
 75
     1
175
     1
 42
1.0
 92
        8
 66
     7
 43
1.0
 76
     1
 77
     6
 78
     2
 67
     7
 79
     5
170
     0
171
     0
290
     0
174
     0
 93
        1
 44
-50.0
173
     0
291
     1
 45
0.0
1001
ACAD
1000
AcDbSavedByObjectVersion
1070
     0
  0
VISUALSTYLE
  5
1E6
102
{ACAD_XDICTIONARY
360
177A
102
}
102
{ACAD_REACTORS
330
EF
102
}
330
EF
100
AcDbVisualStyle
  2

 70
    22
 71
     2
 72
     2
 73
     0
 90
        0
 40
-0.6
 41
-30.0
 62
     5
 63
     7
 74
     1
 91
        4
 64
     7
 65
   257
 75
     1
175
     1
 42
1.0
 92
        8
 66
     7
 43
1.0
 76
     1
 77
     6
 78
     2
 67
     7
 79
     5
170
     0
171
     0
290
     0
174
     0
 93
        1
 44
0.0
173
     0
291
     1
 45
0.0
1001
ACAD
1000
AcDbSavedByObjectVersion
1070
     0
  0
VISUALSTYLE
  5
FE
102
{ACAD_XDICTIONARY
360
1772
102
}
102
{ACAD_REACTORS
330
EF
102
}
330
EF
100
AcDbVisualStyle
  2

 70
    15
 71
     2
 72
     2
 73
     1
 90
        0
 40
-0.6
 41
-30.0
 62
     5
 63
     7
 74
     1
 91
        4
 64
     7
 65
   257
 75
     1
175
     1
 42
1.0
 92
        8
 66
     7
 43
1.0
 76
     1
 77
     6
 78
     2
 67
     7
 79
     5
170
     0
171
     0
290
     0
174
     0
 93
        1
 44
0.0
173
     0
291
     1
 45
0.0
1001
ACAD
1000
AcDbSavedByObjectVersion
1070
     0
  0
VISUALSTYLE
  5
F0
102
{ACAD_XDICTIONARY
360
1756
102
}
102
{ACAD_REACTORS
330
EF
102
}
330
EF
100
AcDbVisualStyle
  2

 70
     0
 71
     2
 72
     1
 73
     1
 90
        2
 40
-0.6
 41
30.0
 62
     5
 63
     7
 74
     0
 91
        0
 64
     7
 65
   257
 75
     1
175
     1
 42
1.0
 92
        8
 66
     7
 43
1.0
 76
     1
 77
     6
 78
     2
 67
     7
 79
     5
170
     0
171
     0
290
     0
174
     0
 93
       13
 44
0.0
173
     0
291
     1
 45
0.0
1001
ACAD
1000
AcDbSavedByObjectVersion
1070
     0
  0
VISUALSTYLE
  5
F1
102
{ACAD_XDICTIONARY
360
1758
102
}
102
{ACAD_REACTORS
330
EF
102
}
330
EF
100
AcDbVisualStyle
  2

 70
     1
 71
     2
 72
     1
 73
     1
 90
        2
 40
-0.6
 41
30.0
 62
     5
 63
     7
 74
     1
 91
        0
 64
     7
 65
   257
 75
     1
175
     1
 42
1.0
 92
        0
 66
   257
 43
1.0
 76
     1
 77
     6
 78
     2
 67
     7
 79
     5
170
     0
171
     0
290
     0
174
     0
 93
       13
 44
0.0
173
     0
291
     1
 45
0.0
1001
ACAD
1000
AcDbSavedByObjectVersion
1070
     0
  0
VISUALSTYLE
  5
F2
102
{ACAD_XDICTIONARY
360
175A
102
}
102
{ACAD_REACTORS
330
EF
102
}
330
EF
100
AcDbVisualStyle
  2

 70
     2
 71
     2
 72
     2
 73
     1
 90
        2
 40
-0.6
 41
30.0
 62
     5
 63
     7
 74
     0
 91
        0
 64
     7
 65
   257
 75
     1
175
     1
 42
1.0
 92
        0
 66
     7
 43
1.0
 76
     1
 77
     6
 78
     2
 67
     7
 79
     5
170
     0
171
     0
290
     0
174
     0
 93
       13
 44
0.0
173
     0
291
     1
 45
0.0
1001
ACAD
1000
AcDbSavedByObjectVersion
1070
     0
  0
VISUALSTYLE
  5
F3
102
{ACAD_XDICTIONARY
360
175C
102
}
102
{ACAD_REACTORS
330
EF
102
}
330
EF
100
AcDbVisualStyle
  2

 70
     3
 71
     2
 72
     2
 73
     1
 90
        2
 40
-0.6
 41
30.0
 62
     5
 63
     7
 74
     1
 91
        0
 64
     7
 65
   257
 75
     1
175
     1
 42
1.0
 92
        0
 66
   257
 43
1.0
 76
     1
 77
     6
 78
     2
 67
     7
 79
     5
170
     0
171
     0
290
     0
174
     0
 93
       13
 44
0.0
173
     0
291
     1
 45
0.0
1001
ACAD
1000
AcDbSavedByObjectVersion
1070
     0
  0
VISUALSTYLE
  5
F7
102
{ACAD_XDICTIONARY
360
1764
102
}
102
{ACAD_REACTORS
330
EF
102
}
330
EF
100
AcDbVisualStyle
  2

 70
     6
 71
     1
 72
     2
 73
     2
 90
        0
 40
-0.6
 41
-30.0
 62
     5
 63
     7
 74
     2
 91
        2
 64
     7
 65
   257
 75
     2
175
     1
 42
40.0
 92
        0
 66
   257
 43
1.0
 76
     1
 77
     6
 78
     2
 67
     7
 79
     3
170
     0
171
     0
290
     0
174
     0
 93
        1
 44
0.0
173
     0
291
     0
 45
0.0
1001
ACAD
1000
AcDbSavedByObjectVersion
1070
     0
  0
VISUALSTYLE
  5
1E4
102
{ACAD_XDICTIONARY
360
1776
102
}
102
{ACAD_REACTORS
330
EF
102
}
330
EF
100
AcDbVisualStyle
  2

 70
    20
 71
     2
 72
     2
 73
     0
 90
        0
 40
-0.6
 41
-30.0
 62
     5
 63
     7
 74
     1
 91
        4
 64
     7
 65
   257
 75
     1
175
     1
 42
1.0
 92
       10
 66
     7
 43
1.0
 76
     1
 77
     6
 78
     2
 67
     7
 79
     5
170
     0
171
     0
290
     0
174
     0
 93
        1
 44
0.0
173
     0
291
     1
 45
0.0
1001
ACAD
1000
AcDbSavedByObjectVersion
1070
     0
  0
VISUALSTYLE
  5
FD
102
{ACAD_XDICTIONARY
360
1770
102
}
102
{ACAD_REACTORS
330
EF
102
}
330
EF
100
AcDbVisualStyle
  2

 70
    14
 71
     2
 72
     2
 73
     1
 90
        0
 40
-0.6
 41
-30.0
 62
     5
 63
     7
 74
     1
 91
        4
 64
     7
 65
   257
 75
     7
175
     7
 42
1.0
 92
        8
 66
     7
 43
1.0
 76
     1
 77
     6
 78
     2
 67
     7
 79
     5
170
     0
171
     0
290
     0
174
     0
 93
        1
 44
0.0
173
     0
291
     1
 45
0.0
1001
ACAD
1000
AcDbSavedByObjectVersion
1070
     0
  0
VISUALSTYLE
  5
1E5
102
{ACAD_XDICTIONARY
360
1778
102
}
102
{ACAD_REACTORS
330
EF
102
}
330
EF
100
AcDbVisualStyle
  2

 70
    21
 71
     2
 72
     2
 73
     0
 90
        0
 40
-0.6
 41
-30.0
 62
     5
 63
     7
 74
     1
 91
        4
 64
     7
 65
   257
 75
     1
175
     1
 42
1.0
 92
        9
 66
     7
 43
1.0
 76
     1
 77
     6
 78
     2
 67
     7
 79
     5
170
     0
171
     0
290
     0
174
     0
 93
        1
 44
0.0
173
     0
291
     1
 45
0.0
1001
ACAD
1000
AcDbSavedByObjectVersion
1070
     0
  0
VISUALSTYLE
  5
F9
102
{ACAD_XDICTIONARY
360
1768
102
}
102
{ACAD_REACTORS
330
EF
102
}
330
EF
100
AcDbVisualStyle
  2

 70
     8
 71
     2
 72
     2
 73
     0
 90
        2
 40
-0.6
 41
30.0
 62
     5
 63
     7
 74
     0
 91
        0
 64
     7
 65
   257
 75
     1
175
     1
 42
1.0
 92
        8
 66
   257
 43
1.0
 76
     1
 77
     6
 78
     2
 67
     7
 79
     3
170
     0
171
     0
290
     0
174
     0
 93
       13
 44
0.0
173
     0
291
     0
 45
0.0
1001
ACAD
1000
AcDbSavedByObjectVersion
1070
     0
  0
VISUALSTYLE
  5
1F3
102
{ACAD_XDICTIONARY
360
1784
102
}
102
{ACAD_REACTORS
330
EF
102
}
330
EF
100
AcDbVisualStyle
  2

 70
    27
 71
     2
 72
     2
 73
     1
 90
        2
 40
-0.6
 41
30.0
 62
     5
 63
     7
 74
     0
 91
        4
 64
     7
 65
   257
 75
     1
175
     1
 42
1.0
 92
        8
 66
   257
 43
1.0
 76
     1
 77
     6
 78
     2
 67
     8
 79
     3
170
     0
171
     0
290
     0
174
     0
 93
        5
 44
0.0
173
     0
291
     0
 45
0.0
1001
ACAD
1000
AcDbSavedByObjectVersion
1070
     0
  0
VISUALSTYLE
  5
1F2
102
{ACAD_XDICTIONARY
360
1782
102
}
102
{ACAD_REACTORS
330
EF
102
}
330
EF
100
AcDbVisualStyle
  2

 70
    26
 71
     2
 72
     2
 73
     1
 90
        2
 40
-0.6
 41
30.0
 62
     5
 63
     7
 74
     1
 91
       10
 64
     7
 65
   257
 75
     2
175
     1
 42
1.0
 92
        8
 66
   257
 43
1.0
 76
     1
 77
     6
 78
     2
 67
     7
 79
     3
170
     0
171
     0
290
     0
174
     0
 93
        5
 44
0.0
173
     0
291
     0
 45
0.0
1001
ACAD
1000
AcDbSavedByObjectVersion
1070
     0
  0
VISUALSTYLE
  5
1EF
102
{ACAD_XDICTIONARY
360
177C
102
}
102
{ACAD_REACTORS
330
EF
102
}
330
EF
100
AcDbVisualStyle
  2

 70
    23
 71
     2
 72
     2
 73
     3
 90
        0
 40
-0.6
 41
-30.0
 62
     5
 63
     7
 74
     2
 91
        2
 64
     7
 65
     7
 75
     1
175
     1
 42
40.0
 92
        8
 66
     7
 43
1.0
 76
     1
 77
     6
 78
     2
 67
     7
 79
     3
170
     0
171
     0
290
     0
174
     0
 93
        1
 44
0.0
173
     0
291
     0
 45
0.0
1001
ACAD
1000
AcDbSavedByObjectVersion
1070
     0
  0
VISUALSTYLE
  5
1F0
102
{ACAD_XDICTIONARY
360
177E
102
}
102
{ACAD_REACTORS
330
EF
102
}
330
EF
100
AcDbVisualStyle
  2

 70
    24
 71
     1
 72
     2
 73
     2
 90
        0
 40
-0.6
 41
-30.0
 62
     5
 63
     7
 74
     2
 91
        2
 64
     7
 65
     7
 75
     1
175
     1
 42
40.0
 92
       11
 66
     7
 43
1.0
 76
     1
 77
     6
 78
     2
 67
     7
 79
     6
170
     0
171
     0
290
     0
174
     0
 93
        1
 44
0.0
173
     0
291
     0
 45
0.0
1001
ACAD
1000
AcDbSavedByObjectVersion
1070
     0
  0
VISUALSTYLE
  5
FC
102
{ACAD_XDICTIONARY
360
176E
102
}
102
{ACAD_REACTORS
330
EF
102
}
330
EF
100
AcDbVisualStyle
  2

 70
    13
 71
     2
 72
     2
 73
     1
 90
        0
 40
-0.6
 41
-30.0
 62
     5
 63
     7
 74
     1
 91
        4
 64
     7
 65
   257
 75
     1
175
     1
 42
1.0
 92
       12
 66
     7
 43
1.0
 76
     1
 77
     6
 78
     2
 67
     7
 79
     5
170
     0
171
     0
290
     0
174
     0
 93
        1
 44
0.0
173
     0
291
     1
 45
0.0
1001
ACAD
1000
AcDbSavedByObjectVersion
1070
     0
  0
VISUALSTYLE
  5
F6
102
{ACAD_XDICTIONARY
360
1762
102
}
102
{ACAD_REACTORS
330
EF
102
}
330
EF
100
AcDbVisualStyle
  2

 70
     5
 71
     0
 72
     2
 73
     0
 90
        0
 40
-0.6
 41
-30.0
 62
     5
 63
     7
 74
     1
 91
        4
 64
     7
 65
   257
 75
     1
175
     1
 42
1.0
 92
        0
 66
   257
 43
1.0
 76
     1
 77
     6
 78
     2
 67
     7
 79
     3
170
     0
171
     0
290
     0
174
     0
 93
        1
 44
0.0
173
     0
291
     0
 45
0.0
1001
ACAD
1000
AcDbSavedByObjectVersion
1070
     0
  0
VISUALSTYLE
  5
1F1
102
{ACAD_XDICTIONARY
360
1780
102
}
102
{ACAD_REACTORS
330
EF
102
}
330
EF
100
AcDbVisualStyle
  2

 70
    25
 71
     2
 72
     2
 73
     1
 90
        1
 40
0.5
 41
-30.0
 62
     5
 63
     7
 74
     1
 91
        0
 64
     7
 65
   257
 75
     1
175
     1
 42
1.0
 92
        8
 66
     7
 43
1.0
 76
     1
 77
     6
 78
     2
 67
     7
 79
     3
170
     0
171
     0
290
     0
174
     0
 93
       13
 44
0.0
173
     0
291
     0
 45
0.0
1001
ACAD
1000
AcDbSavedByObjectVersion
1070
     0
  0
DICTIONARYVAR
  5
146
102
{ACAD_REACTORS
330
5E
102
}
330
5E
100
DictionaryVariables
280
     0
  1
1:1
  0
DICTIONARYVAR
  5
145
102
{ACAD_REACTORS
330
5E
102
}
330
5E
100
DictionaryVariables
280
     0
  1
STANDARD
  0
DICTIONARYVAR
  5
84
102
{ACAD_REACTORS
330
5E
102
}
330
5E
100
DictionaryVariables
280
     0
  1
STANDARD
  0
DICTIONARYVAR
  5
5F
102
{ACAD_REACTORS
330
5E
102
}
330
5E
100
DictionaryVariables
280
     0
  1
2
  0
DICTIONARYVAR
  5
63
102
{ACAD_REACTORS
330
5E
102
}
330
5E
100
DictionaryVariables
280
     0
  1
1
  0
DICTIONARYVAR
  5
729
102
{ACAD_REACTORS
330
5E
102
}
330
5E
100
DictionaryVariables
280
     0
  1
0
  0
DICTIONARYVAR
  5
1AE
102
{ACAD_REACTORS
330
5E
102
}
330
5E
100
DictionaryVariables
280
     0
  1
0
  0
DICTIONARYVAR
  5
1AF
102
{ACAD_REACTORS
330
5E
102
}
330
5E
100
DictionaryVariables
280
     0
  1
0
  0
DICTIONARYVAR
  5
727
102
{ACAD_REACTORS
330
5E
102
}
330
5E
100
DictionaryVariables
280
     0
  1
2
  0
DICTIONARYVAR
  5
16F8
102
{ACAD_REACTORS
330
5E
102
}
330
5E
100
DictionaryVariables
280
     0
  1
1.570796
  0
DICTIONARYVAR
  5
16F9
102
{ACAD_REACTORS
330
5E
102
}
330
5E
100
DictionaryVariables
280
     0
  1
1.570796
  0
DICTIONARYVAR
  5
726
102
{ACAD_REACTORS
330
5E
102
}
330
5E
100
DictionaryVariables
280
     0
  1
1
  0
DICTIONARYVAR
  5
16F7
102
{ACAD_REACTORS
330
5E
102
}
330
5E
100
DictionaryVariables
280
     0
  1
80.000000
  0
DICTIONARYVAR
  5
16F6
102
{ACAD_REACTORS
330
5E
102
}
330
5E
100
DictionaryVariables
280
     0
  1
5.000000
  0
DICTIONARYVAR
  5
728
102
{ACAD_REACTORS
330
5E
102
}
330
5E
100
DictionaryVariables
280
     0
  1
127
  0
DICTIONARYVAR
  5
16FA
102
{ACAD_REACTORS
330
5E
102
}
330
5E
100
DictionaryVariables
280
     0
  1
2
  0
DICTIONARY
  5
205
330
22
100
AcDbDictionary
280
     1
281
     1
  3
ACAD_XREC_ROUNDTRIP
360
1750
  3
ADSK_XREC_LAYOUTTHUMBNAIL
360
206
  0
DICTIONARY
  5
1752
330
D3
100
AcDbDictionary
280
     1
281
     1
  3
ACAD_XREC_ROUNDTRIP
360
1753
  0
DICTIONARY
  5
1754
330
D7
100
AcDbDictionary
280
     1
281
     1
  3
ACAD_XREC_ROUNDTRIP
360
1755
  0
DICTIONARY
  5
1F9
330
ED
100
AcDbDictionary
280
     1
281
     1
  3
ACAD_XREC_ROUNDTRIP
360
F6E
  3
FBXASSET
360
1FA
  0
DICTIONARY
  5
1F7
330
EC
100
AcDbDictionary
280
     1
281
     1
  3
ACAD_XREC_ROUNDTRIP
360
F6D
  3
FBXASSET
360
1F8
  0
DICTIONARY
  5
173
330
EE
100
AcDbDictionary
280
     1
281
     1
  3
ACAD_XREC_ROUNDTRIP
360
F6F
  3
BUMPTILE
360
175
  3
DIFFUSETILE
360
174
  3
FBXASSET
360
1FB
  3
OPACITYTILE
360
176
  3
REFLECTIONTILE
360
177
  0
DICTIONARY
  5
162
330
7F
100
AcDbDictionary
280
     1
281
     1
  3
ACAD_ROUNDTRIP_2008_TABLESTYLE_CELLSTYLEMAP
360
174B
  3
ACAD_XREC_ROUNDTRIP
360
1751
  0
DICTIONARY
  5
1760
330
F5
100
AcDbDictionary
280
     1
281
     1
  3
ACAD_XREC_ROUNDTRIP
360
1761
  0
DICTIONARY
  5
175E
330
F4
100
AcDbDictionary
280
     1
281
     1
  3
ACAD_XREC_ROUNDTRIP
360
175F
  0
DICTIONARY
  5
176C
330
FB
100
AcDbDictionary
280
     1
281
     1
  3
ACAD_XREC_ROUNDTRIP
360
176D
  0
DICTIONARY
  5
1774
330
FF
100
AcDbDictionary
280
     1
281
     1
  3
ACAD_XREC_ROUNDTRIP
360
1775
  0
DICTIONARY
  5
1766
330
F8
100
AcDbDictionary
280
     1
281
     1
  3
ACAD_XREC_ROUNDTRIP
360
1767
  0
DICTIONARY
  5
176A
330
FA
100
AcDbDictionary
280
     1
281
     1
  3
ACAD_XREC_ROUNDTRIP
360
176B
  0
DICTIONARY
  5
177A
330
1E6
100
AcDbDictionary
280
     1
281
     1
  3
ACAD_XREC_ROUNDTRIP
360
177B
  0
DICTIONARY
  5
1772
330
FE
100
AcDbDictionary
280
     1
281
     1
  3
ACAD_XREC_ROUNDTRIP
360
1773
  0
DICTIONARY
  5
1756
330
F0
100
AcDbDictionary
280
     1
281
     1
  3
ACAD_XREC_ROUNDTRIP
360
1757
  0
DICTIONARY
  5
1758
330
F1
100
AcDbDictionary
280
     1
281
     1
  3
ACAD_XREC_ROUNDTRIP
360
1759
  0
DICTIONARY
  5
175A
330
F2
100
AcDbDictionary
280
     1
281
     1
  3
ACAD_XREC_ROUNDTRIP
360
175B
  0
DICTIONARY
  5
175C
330
F3
100
AcDbDictionary
280
     1
281
     1
  3
ACAD_XREC_ROUNDTRIP
360
175D
  0
DICTIONARY
  5
1764
330
F7
100
AcDbDictionary
280
     1
281
     1
  3
ACAD_XREC_ROUNDTRIP
360
1765
  0
DICTIONARY
  5
1776
330
1E4
100
AcDbDictionary
280
     1
281
     1
  3
ACAD_XREC_ROUNDTRIP
360
1777
  0
DICTIONARY
  5
1770
330
FD
100
AcDbDictionary
280
     1
281
     1
  3
ACAD_XREC_ROUNDTRIP
360
1771
  0
DICTIONARY
  5
1778
330
1E5
100
AcDbDictionary
280
     1
281
     1
  3
ACAD_XREC_ROUNDTRIP
360
1779
  0
DICTIONARY
  5
1768
330
F9
100
AcDbDictionary
280
     1
281
     1
  3
ACAD_XREC_ROUNDTRIP
360
1769
  0
DICTIONARY
  5
1784
330
1F3
100
AcDbDictionary
280
     1
281
     1
  3
ACAD_XREC_ROUNDTRIP
360
1785
  0
DICTIONARY
  5
1782
330
1F2
100
AcDbDictionary
280
     1
281
     1
  3
ACAD_XREC_ROUNDTRIP
360
1783
  0
DICTIONARY
  5
177C
330
1EF
100
AcDbDictionary
280
     1
281
     1
  3
ACAD_XREC_ROUNDTRIP
360
177D
  0
DICTIONARY
  5
177E
330
1F0
100
AcDbDictionary
280
     1
281
     1
  3
ACAD_XREC_ROUNDTRIP
360
177F
  0
DICTIONARY
  5
176E
330
FC
100
AcDbDictionary
280
     1
281
     1
  3
ACAD_XREC_ROUNDTRIP
360
176F
  0
DICTIONARY
  5
1762
330
F6
100
AcDbDictionary
280
     1
281
     1
  3
ACAD_XREC_ROUNDTRIP
360
1763
  0
DICTIONARY
  5
1780
330
1F1
100
AcDbDictionary
280
     1
281
     1
  3
ACAD_XREC_ROUNDTRIP
360
1781
  0
XRECORD
  5
1750
102
{ACAD_REACTORS
330
205
102
}
330
205
100
AcDbXrecord
280
     1
102
SHADEPLOT
 70
     0
102
SHADEPLOTRESLEVEL
 70
     2
102
SHADEPLOTCUSTOMDPI
 70
   300
  0
XRECORD
  5
206
102
{ACAD_REACTORS
330
205
102
}
330
205
100
AcDbXrecord
280
     1
310
28000000000100005A0000000100080000000000005A000000000000000000000001000000000000FFFFFF0000000000CFE8CC000000000000000000000000000000000000000000000000000000000000000000330000006600000099000000CC000000FF00000000330000333300006633000099330000CC330000FF3300
310
0000660000336600006666000099660000CC660000FF66000000990000339900006699000099990000CC990000FF99000000CC000033CC000066CC000099CC0000CCCC0000FFCC000000FF000033FF000066FF000099FF0000CCFF0000FFFF000000003300330033006600330099003300CC003300FF003300003333003333
310
33006633330099333300CC333300FF33330000663300336633006666330099663300CC663300FF66330000993300339933006699330099993300CC993300FF99330000CC330033CC330066CC330099CC3300CCCC3300FFCC330000FF330033FF330066FF330099FF3300CCFF3300FFFF330000006600330066006600660099
310
006600CC006600FF00660000336600333366006633660099336600CC336600FF33660000666600336666006666660099666600CC666600FF66660000996600339966006699660099996600CC996600FF99660000CC660033CC660066CC660099CC6600CCCC6600FFCC660000FF660033FF660066FF660099FF6600CCFF6600
310
FFFF660000009900330099006600990099009900CC009900FF00990000339900333399006633990099339900CC339900FF33990000669900336699006666990099669900CC669900FF66990000999900339999006699990099999900CC999900FF99990000CC990033CC990066CC990099CC9900CCCC9900FFCC990000FF99
310
0033FF990066FF990099FF9900CCFF9900FFFF99000000CC003300CC006600CC009900CC00CC00CC00FF00CC000033CC003333CC006633CC009933CC00CC33CC00FF33CC000066CC003366CC006666CC009966CC00CC66CC00FF66CC000099CC003399CC006699CC009999CC00CC99CC00FF99CC0000CCCC0033CCCC0066CC
310
CC0099CCCC00CCCCCC00FFCCCC0000FFCC0033FFCC0066FFCC0099FFCC00CCFFCC00FFFFCC000000FF003300FF006600FF009900FF00CC00FF00FF00FF000033FF003333FF006633FF009933FF00CC33FF00FF33FF000066FF003366FF006666FF009966FF00CC66FF00FF66FF000099FF003399FF006699FF009999FF00CC
310
99FF00FF99FF0000CCFF0033CCFF0066CCFF0099CCFF00CCCCFF00FFCCFF0000FFFF0033FFFF0066FFFF0099FFFF00CCFFFF00FFFFFF00000000000D0D0D001A1A1A00282828003535350043434300505050005D5D5D006B6B6B00787878008686860093939300A1A1A100AEAEAE00BBBBBB00C9C9C900D6D6D600E4E4E400
310
F1F1F100FFFFFF000000000000000000000000000000000000000000000000000000000000000000000000000000000000000000000000000000000000000000000000000000000000000000000000000000000000000000000000000000000000000000000000000000000000000000000000000000000000000000000000
310
00000000000000000000000000000000000000000000000000000000000000000000000000000000000000000000000000000000000000000000000000000000000000000000000000000000000000000000000000000000000000000000000000000000000000000000000000000000000000000000000000000000000000
310
00000000000000000000000000000000000000000000000000000000000000000000000000000000000000000000000000000000000000000000000000000000000000000000000000000000000000000000000000000000000000000000000000000000000000000000000000000000000000000000000000000000000000
310
00000000000000000000000000000000000000000000000000000000000000000000000000000000000000000000000000000000000000000000000000000000000000000000000000000000000000000000000000000000000000000000000000000000000000000000000000000000000000000000000000000000000000
310
00000000000000000000000000000000000000000000000000000000000000000000000000000000000000000000000000000000000000000000000000000000000000000000000000000000000000000000000000000000000000000000000000000000000000000000000000000000000000000000000000000000000000
310
00000000000000000000000000000000000000000000000000000000000000000000000000000000000000000000000000000000000000000000000000000000000000000000000000000000000000000000000000000000000000000000000000000000000000000000000000000000000000000000000000000000000000
310
00000000000000000000000000000000000000000000000000000000000000000000000000000000000000000000000000000000000000000000000000000000000000000000000000000000000000000000000000000000000000000000000000000000000000000000000000000000000000000000000000000000000000
310
00000000000000000000000000000000000000000000000000000000000000000000000000000000000000000000000000000000000000000000000000000000000000000000000000000000000000000000000000000000000000000000000000000000000000000000000000000000000000000000000000000000000000
310
00000000000000000000000000000000000000000000000000000000000000000000000000000000000000000000000000000000000000000000000000000000000000000000000000000000000000000000000000000000000000000000000000000000000000000000000000000000000000000000000000000000000000
310
00000000000000000000000000000000000000000000000000000000000000000000000000000000000000000000000000000000000000000000000000000000000000000000000000000000000000000000000000000000000000000000000000000000000000000000000000000000000000000000000000000000000000
310
00000000000000000000000000000000000000000000000000000000000000000000000000000000000000000000000000000000000000000000000000000000000000000000000000000000000000000000000000000000000000000000000000000000000000000000000000000000000000000000000000000000000000
310
00000000000000000000000000000000000000000000000000000000000000000000000000000000000000000000000000000000000000000000000000000000000000000000000000000000000000000000000000000000000000000000000000000000000000000000000000000000000000000000000000000000000000
310
00000000000000000000000000000000000000000000000000000000000000000000000000000000000000000000000000000000000000000000000000000000000000000000000000000000000000000000000000000000000000000000000000000000000000000000000000000000000000000000000000000000000000
310
00000000000000000000000000000000000000000000000000000000000000000000000000000000000000000000000000000000000000000000000000000000000000000000000000000000000000000000000000000000000000000000000000000000000000000000000000000000000000000000000000000000000000
310
00000000000000000000000000000000000000000000000000000000000000000000000000000000000000000000000000000000000000000000000000000000000000000000000000000000000000000000000000000000000000000000000000000000000000000000000000000000000000000000000000000000000000
310
00000000000000000000000000000000000000000000000000000000000000000000000000000000000000000000000000000000000000000000000000000000000000000000000000000000000000000000000000000000000000000000000000000000000000000000000000000000000000000000000000000000000000
310
00000000000000000000000000000000000000000000000000000000000000000000000000000000000000000000000000000000000000000000000000000000000000000000000000000000000000000000000000000000000000000000000000000000000000000000000000000000000000000000000000000000000000
310
00000000000000000000000000000000000000000000000000000000000000000000000000000000000000000000000000000000000000000000000000000000000000000000000000000000000000000000000000000000000000000000000000000000000000000000000000000000000000000000000000000000000000
310
00000000000000000000000000000000000000000000000000000000000000000000000000000000000000000000000000000000000000000000000000000000000000000000000000000000000000000000000000000000000000000000000000000000000000000000000000000000000000000000000000000000000000
310
00000000000000000000000000000000000000000000000000000000000000000000000000000000000000000000000000000000000000000000000000000000000000000000000000000000000000000000000000000000000000000000000000000000000000000000000000000000000000000000000000000000000000
310
00000000000000000000000000000000000000000000000000000000000000000000000000000000000000000000000000000000000000000000000000000000000000000000000000000000000000000000000000000000000000000000000000000000000000000000000000000000000000000000000000000000000000
310
00000000000000000000000000000000000000000000000000000000000000000000000000000000000000000000000000000000000000000000000000000000000000000000000000000000000000000000000000000000000000000000000000000000000000000000000000000000000000000000000000000000000000
310
00000000000000000000000000000000000000000000000000000000000000000000000000000000000000000000000000000000000000000000000000000000000000000000000000000000000000000000000000000000000000000000000000000000000000000000000000000000000000000000000000000000000000
310
00000000000000000000000000000000000000000000000000000000000000000000000000000000000000000000000000000000000000000000000000000000000000000000000000000000000000000000000000000000000000000000000000000000000000000000000000000000000000000000000000000000000000
310
00000000000000000000000000000000000000000000000000000000000000000000000000000000000000000000000000000000000000000000000000000000000000000000000000000000000000000000000000000000000000000000000000000000000000000000000000000000000000000000000000000000000000
310
00000000000000000000000000000000000000000000000000000000000000000000000000000000000000000000000000000000000000000000000000000000000000000000000000000000000000000000000000000000000000000000000000000000000000000000000000000000000000000000000000000000000000
310
00000000000000000000000000000000000000000000000000000000000000000000000000000000000000000000000000000000000000000000000000000000000000000000000000000000000000000000000000000000000000000000000000000000000000000000000000000000000000000000000000000000000000
310
00000000000000000000000000000000000000000000000000000000000000000000000000000000000000000000000000000000000000000000000000000000000000000000000000000000000000000000000000000000000000000000000000000000000000000000000000000000000000000000000000000000000000
310
00000000000000000000000000000000000000000000000000000000000000000000000000000000000000000000000000000000000000000000000000000000000000000000000000000000000000000000000000000000000000000000000000000000000000000000000000000000000000000000000000000000000000
310
00000000000000000000000000000000000000000000000000000000000000000000000000000000000000000000000000000000000000000000000000000000000000000000000000000000000000000000000000000000000000000000000000000000000000000000000000000000000000000000000000000000000000
310
00000000000000000000000000000000000000000000000000000000000000000000000000000000000000000000000000000000000000000000000000000000000000000000000000000000000000000000000000000000000000000000000000000000000000000000000000000000000000000000000000000000000000
310
00000000000000000000000000000000000000000000000000000000000000000000000000000000000000000000000000000000000000000000000000000000000000000000000000000000000000000000000000000000000000000000000000000000000000000000000000000000000000000000000000000000000000
310
00000000000000000000000000000000000000000000000000000000000000000000000000000000000000000000000000000000000000000000000000000000000000000000000000000000000000000000000000000000000000000000000000000000000000000000000000000000000000000000000000000000000000
310
00000000000000000000000000000000000000000000000000000000000000000000000000000000000000000000000000000000000000000000000000000000000000000000000000000000000000000000000000000000000000000000000000000000000000000000000000000000000000000000000000000000000000
310
00000000000000000000000000000000000000000000000000000000000000000000000000000000000000000000000000000000000000000000000000000000000000000000000000000000000000000000000000000000000000000000000000000000000000000000000000000000000000000000000000000000000000
310
00000000000000000000000000000000000000000000000000000000000000000000000000000000000000000000000000000000000000000000000000000000000000000000000000000000000000000000000000000000000000000000000000000000000000000000000000000000000000000000000000000000000000
310
00000000000000000000000000000000000000000000000000000000000000000000000000000000000000000000000000000000000000000000000000000000000000000000000000000000000000000000000000000000000000000000000000000000000000000000000000000000000000000000000000000000000000
310
00000000000000000000000000000000000000000000000000000000000000000000000000000000000000000000000000000000000000000000000000000000000000000000000000000000000000000000000000000000000000000000000000000000000000000000000000000000000000000000000000000000000000
310
00000000000000000000000000000000000000000000000000000000000000000000000000000000000000000000000000000000000000000000000000000000000000000000000000000000000000000000000000000000000000000000000000000000000000000000000000000000000000000000000000000000000000
310
00000000000000000000000000000000000000000000000000000000000000000000000000000000000000000000000000000000000000000000000000000000000000000000000000000000000000000000000000000000000000000000000000000000000000000000000000000000000000000000000000000000000000
310
00000000000000000000000000000000000000000000000000000000000000000000000000000000000000000000000000000000000000000000000000000000000000000000000000000000000000000000000000000000000000000000000000000000000000000000000000000000000000000000000000000000000000
310
00000000000000000000000000000000000000000000000000000000000000000000000000000000000000000000000000000000000000000000000000000000000000000000000000000000000000000000000000000000000000000000000000000000000000000000000000000000000000000000000000000000000000
310
00000000000000000000000000000000000000000000000000000000000000000000000000000000000000000000000000000000000000000000000000000000000000000000000000000000000000000000000000000000000000000000000000000000000000000000000000000000000000000000000000000000000000
310
00000000000000000000000000000000000000000000000000000000000000000000000000000000000000000000000000000000000000000000000000000000000000000000000000000000000000000000000000000000000000000000000000000000000000000000000000000000000000000000000000000000000000
310
00000000000000000000000000000000000000000000000000000000000000000000000000000000000000000000000000000000000000000000000000000000000000000000000000000000000000000000000000000000000000000000000000000000000000000000000000000000000000000000000000000000000000
310
00000000000000000000000000000000000000000000000000000000000000000000000000000000000000000000000000000000000000000000000000000000000000000000000000000000000000000000000000000000000000000000000000000000000000000000000000000000000000000000000000000000000000
310
00000000000000000000000000000000000000000000000000000000000000000000000000000000000000000000000000000000000000000000000000000000000000000000000000000000000000000000000000000000000000000000000000000000000000000000000000000000000000000000000000000000000000
310
00000000000000000000000000000000000000000000000000000000000000000000000000000000000000000000000000000000000000000000000000000000000000000000000000000000000000000000000000000000000000000000000000000000000000000000000000000000000000000000000000000000000000
310
00000000000000000000000000000000000000000000000000000000000000000000000000000000000000000000000000000000000000000000000000000000000000000000000000000000000000000000000000000000000000000000000000000000000000000000000000000000000000000000000000000000000000
310
00000000000000000000000000000000000000000000000000000000000000000000000000000000000000000000000000000000000000000000000000000000000000000000000000000000000000000000000000000000000000000000000000000000000000000000000000000000000000000000000000000000000000
310
00000000000000000000000000000000000000000000000000000000000000000000000000000000000000000000000000000000000000000000000000000000000000000000000000000000000000000000000000000000000000000000000000000000000000000000000000000000000000000000000000000000000000
310
00000000000000000000000000000000000000000000000000000000000000000000000000000000000000000000000000000000000000000000000000000000000000000000000000000000000000000000000000000000000000000000000000000000000000000000000000000000000000000000000000000000000000
310
00000000000000000000000000000000000000000000000000000000000000000000000000000000000000000000000000000000000000000000000000000000000000000000000000000000000000000000000000000000000000000000000000000000000000000000000000000000000000000000000000000000000000
310
00000000000000000000000000000000000000000000000000000000000000000000000000000000000000000000000000000000000000000000000000000000000000000000000000000000000000000000000000000000000000000000000000000000000000000000000000000000000000000000000000000000000000
310
00000000000000000000000000000000000000000000000000000000000000000000000000000000000000000000000000000000000000000000000000000000000000000000000000000000000000000000000000000000000000000000000000000000000000000000000000000000000000000000000000000000000000
310
00000000000000000000000000000000000000000000000000000000000000000000000000000000000000000000000000000000000000000000000000000000000000000000000000000000000000000000000000000000000000000000000000000000000000000000000000000000000000000000000000000000000000
310
00000000000000000000000000000000000000000000000000000000000000000000000000000000000000000000000000000000000000000000000000000000000000000000000000000000000000000000000000000000000000000000000000000000000000000000000000000000000000000000000000000000000000
310
00000000000000000000000000000000000000000000000000000000000000000000000000000000000000000000000000000000000000000000000000000000000000000000000000000000000000000000000000000000000000000000000000000000000000000000000000000000000000000000000000000000000000
310
00000000000000000000000000000000000000000000000000000000000000000000000000000000000000000000000000000000000000000000000000000000000000000000000000000000000000000000000000000000000000000000000000000000000000000000000000000000000000000000000000000000000000
310
00000000000000000000000000000000000000000000000000000000000000000000000000000000000000000000000000000000000000000000000000000000000000000000000000000000000000000000000000000000000000000000000000000000000000000000000000000000000000000000000000000000000000
310
00000000000000000000000000000000000000000000000000000000000000000000000000000000000000000000000000000000000000000000000000000000000000000000000000000000000000000000000000000000000000000000000000000000000000000000000000000000000000000000000000000000000000
310
00000000000000000000000000000000000000000000000000000000000000000000000000000000000000000000000000000000000000000000000000000000000000000000000000000000000000000000000000000000000000000000000000000000000000000000000000000000000000000000000000000000000000
310
00000000000000000000000000000000000000000000000000000000000000000000000000000000000000000000000000000000000000000000000000000000000000000000000000000000000000000000000000000000000000000000000000000000000000000000000000000000000000000000000000000000000000
310
00000000000000000000000000000000000000000000000000000000000000000000000000000000000000000000000000000000000000000000000000000000000000000000000000000000000000000000000000000000000000000000000000000000000000000000000000000000000000000000000000000000000000
310
00000000000000000000000000000000000000000000000000000000000000000000000000000000000000000000000000000000000000000000000000000000000000000000000000000000000000000000000000000000000000000000000000000000000000000000000000000000000000000000000000000000000000
310
00000000000000000000000000000000000000000000000000000000000000000000000000000000000000000000000000000000000000000000000000000000000000000000000000000000000000000000000000000000000000000000000000000000000000000000000000000000000000000000000000000000000000
310
00000000000000000000000000000000000000000000000000000000000000000000000000000000000000000000000000000000000000000000000000000000000000000000000000000000000000000000000000000000000000000000000000000000000000000000000000000000000000000000000000000000000000
310
00000000000000000000000000000000000000000000000000000000000000000000000000000000000000000000000000000000000000000000000000000000000000000000000000000000000000000000000000000000000000000000000000000000000000000000000000000000000000000000000000000000000000
310
00000000000000000000000000000000000000000000000000000000000000000000000000000000000000000000000000000000000000000000000000000000000000000000000000000000000000000000000000000000000000000000000000000000000000000000000000000000000000000000000000000000000000
310
00000000000000000000000000000000000000000000000000000000000000000000000000000000000000000000000000000000000000000000000000000000000000000000000000000000000000000000000000000000000000000000000000000000000000000000000000000000000000000000000000000000000000
310
00000000000000000000000000000000000000000000000000000000000000000000000000000000000000000000000000000000000000000000000000000000000000000000000000000000000000000000000000000000000000000000000000000000000000000000000000000000000000000000000000000000000000
310
00000000000000000000000000000000000000000000000000000000000000000000000000000000000000000000000000000000000000000000000000000000000000000000000000000000000000000000000000000000000000000000000000000000000000000000000000000000000000000000000000000000000000
310
00000000000000000000000000000000000000000000000000000000000000000000000000000000000000000000000000000000000000000000000000000000000000000000000000000000000000000000000000000000000000000000000000000000000000000000000000000000000000000000000000000000000000
310
00000000000000000000000000000000000000000000000000000000000000000000000000000000000000000000000000000000000000000000000000000000000000000000000000000000000000000000000000000000000000000000000000000000000000000000000000000000000000000000000000000000000000
310
00000000000000000000000000000000000000000000000000000000000000000000000000000000000000000000000000000000000000000000000000000000000000000000000000000000000000000000000000000000000000000000000000000000000000000000000000000000000000000000000000000000000000
310
00000000000000000000000000000000000000000000000000000000000000000000000000000000000000000000000000000000000000000000000000000000000000000000000000000000000000000000000000000000000000000000000000000000000000000000000000000000000000000000000000000000000000
310
00000000000000000000000000000000000000000000000000000000000000000000000000000000000000000000000000000000000000000000000000000000000000000000000000000000000000000000000000000000000000000000000000000000000000000000000000000000000000000000000000000000000000
310
00000000000000000000000000000000000000000000000000000000000000000000000000000000000000000000000000000000000000000000000000000000000000000000000000000000000000000000000000000000000000000000000000000000000000000000000000000000000000000000000000000000000000
310
00000000000000000000000000000000000000000000000000000000000000000000000000000000000000000000000000000000000000000000000000000000000000000000000000000000000000000000000000000000000000000000000000000000000000000000000000000000000000000000000000000000000000
310
00000000000000000000000000000000000000000000000000000000000000000000000000000000000000000000000000000000000000000000000000000000000000000000000000000000000000000000000000000000000000000000000000000000000000000000000000000000000000000000000000000000000000
310
00000000000000000000000000000000000000000000000000000000000000000000000000000000000000000000000000000000000000000000000000000000000000000000000000000000000000000000000000000000000000000000000000000000000000000000000000000000000000000000000000000000000000
310
00000000000000000000000000000000000000000000000000000000000000000000000000000000000000000000000000000000000000000000000000000000000000000000000000000000000000000000000000000000000000000000000000000000000000000000000000000000000000000000000000000000000000
310
00000000000000000000000000000000000000000000000000000000000000000000000000000000000000000000000000000000000000000000000000000000000000000000000000000000000000000000000000000000000000000000000000000000000000000000000000000000000000000000000000000000000000
310
00000000000000000000000000000000000000000000000000000000000000000000000000000000000000000000000000000000000000000000000000000000E2E2E2E2E200000000000000000000000000000000000000000000000000000000000000000000000000000000000000000000000000000000000000000000
310
00000000000000000000000000000000000000000000000000000000000000000000000000000000000000000000000000000000000000000000000000000000000000000000000000000000000000000000000000000000000000000000000000000000000000000000000000000000000000000000000000000000000000
310
00000000000000000000000000000000000000000000000000000000000000000000000000000000000000000000000000000000000000000000000000E2E2E2E2E2E2E2E2E2E2E2E2E2E2E2E20000000000000000000000000000000000000000000000000000000000000000000000000000000000000000000000000000
310
00000000000000000000000000000000000000000000000000000000000000000000000000000000000000000000000000000000000000000000000000000000000000000000000000000000000000000000000000000000000000000000000000000000000000000000000000000000000000000000000000000000000000
310
000000000000000000000000000000000000000000000000000000000000000000000000000000000000000000000000000000000000000000000000E2E2E2E20000000000000000000000000000E2E2E2E2000000000000000000000000000000000000000000000000000000000000000000000000000000000000000000
310
00000000000000000000000000000000000000000000000000000000000000000000000000000000000000000000000000000000000000000000000000000000000000000000000000000000000000000000000000000000000000000000000000000000000000000000000000000000000000000000000000000000000000
310
0000000000000000000000000000000000000000000000000000000000000000000000000000000000000000000000000000000000000000000000E2E2E20000000000000000E2E2E2E2E2000000000000000000E2E2E20000000000000000000000000000000000000000000000000000000000000000E2E2E2E2E2E2E2E2
310
E2E2E2E2E2E2E2E2E2E2E2E2E2E2E2E2E2E2E2E2E2E2E2E2E2E2E2E2E2E2E2E2E2E2E2E2E2E2E2E2E2E2E2E2E200000000000000000000000000000000000000000000000000000000000000000000000000000000E2E2E2E2E200000000000000000000000000000000000000000000000000000000000000000000000000
310
000000000000000000000000000000000000000000000000000000000000000000000000000000000000000000000000000000000000000000000000E2E200000000000000000000E2E2E2E2E20000000000000000000000E2E2E200000000000000000000000000000000000000000000000000000000E2E2E20000000000
310
0000000000000000000000000000000000E2E2E20000000000000000000000000000000000000000000000000000E2E2E20000000000000000000000000000000000000000000000000000000000000000E2E2E2E2E2E2E2E2E2E2E2E2E2E20000000000000000000000000000000000000000000000000000000000000000
310
000000000000000000000000000000000000000000000000000000000000000000000000000000000000000000000000000000000000000000000000E2E2000000000000000000000000000000000000000000000000000000000000E2E2000000000000000000000000000000000000000000000000000000E20000000000
310
00000000000000000000000000000000000000E2E2E2E2E2E200000000000000000000000000000000000000000000000000E20000000000000000000000000000000000000000000000000000000000E2E2E2E200000000000000000000000000E2E2E2E20000000000000000000000000000000000000000000000000000
310
000000000000000000000000000000000000000000000000000000000000000000000000000000000000000000000000000000000000000000000000E2E20000000000000000000000000000000000E200000000000000000000000000000000E2E200000000000000000000000000000000000000000000000000E2000000
310
000000000000000000000000000000000000000000E2E2E2E2E2E200000000000000000000000000000000000000000000000000E20000000000000000000000000000000000000000000000000000E2E2E20000000000000000000000000000000000000000E2E2E200000000000000000000000000000000000000000000
310
00000000000000000000000000000000E20000000000000000000000000000000000000000000000000000000000000000000000000000000000000000E2E200000000000000000000000000000000E2E200E200000000000000000000000000000000E2E2000000000000000000000000000000000000000000000000E200
310
0000000000000000000000000000000000000000000000000000E2000000000000000000000000000000000000000000000000000000E2000000000000000000000000000000000000000000000000E2E2E200000000000000000000E2E2E2E2E200000000000000000000E2E2000000000000000000000000000000000000
310
00000000000000000000000000000000E2E20000000000000000000000000000000000000000000000000000000000000000000000000000000000000000E2000000000000000000000000000000000000E2E2E2E2000000000000000000000000000000000000E20000000000000000000000000000000000000000000000
310
E200000000000000000000000000000000000000000000000000E2E200E2E200000000000000000000000000000000000000000000000000E20000000000000000000000000000000000000000000000E2E200000000000000000000000000000000000000000000000000000000E2E2E20000000000000000000000000000
310
00000000000000000000000000000000E2E2000000000000000000000000000000000000000000000000000000000000000000000000000000000000000000E2E200000000000000000000000000000000000000000000000000000000000000000000000000000000E2E20000000000000000000000000000000000000000
310
0000E20000000000000000000000000000000000000000000000000000E2E2E20000000000000000000000000000000000000000000000000000E200000000000000000000000000000000000000000000E2E200000000000000000000000000000000E20000000000000000000000000000E2E20000000000000000000000
310
0000000000000000000000000000000000E2E2000000000000000000000000000000000000000000000000000000000000000000000000000000000000000000E200000000000000000000000000000000000000000000000000000000000000000000000000000000000000E2000000000000000000000000000000000000
310
00000000E200000000000000000000000000000000000000000000000000000000000000000000000000000000000000000000000000000000000000E2000000000000000000000000000000000000000000E200000000000000000000000000000000E2E200E2E20000000000000000000000000000E20000000000000000
310
000000000000000000000000000000000000E20000000000000000000000000000000000000000000000000000000000000000000000000000000000000000000000E20000000000000000000000000000000000000000000000000000000000000000000000000000000000000000E2E20000000000000000000000000000
310
000000000000E200000000000000000000000000000000000000000000000000000000000000000000000000000000000000000000000000000000000000E200000000000000000000000000000000000000E2E2000000000000000000000000000000000000E2E2E2000000000000000000000000000000E2E20000000000
310
00000000000000000000000000000000000000E20000000000000000000000000000000000000000000000000000000000000000000000000000000000000000000000E200000000000000000000000000000000000000000000000000000000000000000000000000000000000000000000E2000000000000000000000000
310
0000000000000000E200000000000000000000000000000000000000000000000000000000000000000000000000000000000000000000000000000000000000E200000000000000000000000000000000000000E2000000000000000000000000000000000000000000000000000000000000000000000000000000E20000
310
0000000000000000000000000000000000000000E20000000000000000000000000000000000000000000000000000000000000000000000000000000000000000000000E2000000000000000000000000000000000000000000000000000000000000000000000000000000000000000000000000E2000000000000000000
310
00000000000000000000E200000000000000000000000000000000000000000000000000000000000000000000000000000000000000000000000000000000000000E2000000000000000000000000000000000000E200000000000000000000000000000000000000000000000000000000000000000000000000000000E2
310
E20000000000000000000000000000000000000000E2E200000000000000000000000000000000000000000000000000000000000000000000000000000000000000000000E2E2000000000000000000000000000000000000000000000000000000000000000000000000000000000000000000000000E200000000000000
310
000000000000000000000000E200000000000000E2E2E2E2E2E2E2E2E2E2E2E2E2E2E2E2E2E2E2E2E2E2E2E2E2E2E2E2E2E2E2E200000000000000000000000000000000E20000000000000000000000000000000000E2E2000000000000000000000000000000000000000000000000000000000000000000000000000000
310
0000E2E200000000000000000000000000000000000000E20000000000000000000000000000000000000000000000000000000000000000000000000000000000000000000000E20000000000000000000000000000000000000000000000000000000000000000000000000000000000000000000000000000E200000000
310
0000000000000000000000000000E200000000000000E2E2E2E2E2E2E2E2E2E2E2E2E2E2E2E2E2E2E2E2E2E2E2E2E2E2E2E2E2E2E2E200000000000000000000000000000000E20000000000000000000000000000000000E20000000000000000000000000000000000000000000000000000000000000000000000000000
310
0000000000E2000000000000000000000000000000000000E2000000000000000000000000000000000000000000000000000000000000000000000000000000000000000000000000E20000000000E2E2E2E2E2E2E2E2E2E2E2E2E2E2E2E2E2E2E2E2E2E2E2E2E2E2E2E2E2E2E2E200000000000000000000000000E2E200
310
00000000000000000000000000000000E200000000000000E2E2E2E2E2E2E2E2E2E2E2E2E2E2E2E2E2E2E2E2E2E2E2E2E2E2E2E2E2E2E2E2E2E2E2E2E2E2E2E2E200000000000000E200000000000000000000000000000000E200000000000000000000000000000000000000000000000000000000000000000000000000
310
00000000000000E2E20000000000000000000000000000000000E200E2E2E2E2E2E2E2E2E200000000000000000000000000000000000000000000000000000000000000000000000000E2000000000000E2E2E2E2E2E2E2E2E2E2E2E2E2E2E2E2E2E2E2E2E2E2E2E2E2E2E2E2E2E2E2E2E2E2E2E2E2E2E2E2000000000000
310
E20000000000000000000000000000000000E200000000000000E2E2E2E2E2E2E2E2E2E2E2E2E2E2E2E2E2E2E2E2E2E2E2E2E2E2E2E2E2E2E2E2E2E2E2E2E20000000000000000000000E200000000000000000000000000000000E2000000E2E2E2E2E2E2E2E2E2E2E2E2E2E2E2E2E2E2E2E2E2E2E2E2E2E2E2E2E2E2E2E2
310
00000000000000000000E200000000000000000000000000000000E20000E2E2E2E2E2E2E2E2E200000000000000000000000000000000000000000000000000000000000000000000000000E2000000000000E2E2E2E2E2E2E2E2E2E2E2E2E2E2E2E2E2E2E2E2E2E2E2E2E2E2E2E2E2E2E2E2E2E2E2E2E2E2E2E200000000
310
0000E200000000000000000000000000000000E2E200000000000000E2E2E2E2E2E2E2E2E2E2E2E2E2E2E2E2E2E2E2E2E2E2E2E2E2E2E2E2E2E2E2E2E2E2E2E2E20000000000000000000000E2000000000000000000000000000000E2E2000000E2E2E2E2E2E2E2E2E2E2E2E2E2E2E2E2E2E2E2E2E2E2E2E2E2E2E2E2E2E2
310
E2E2E2E2E2E2E2E2E2E20000E2E20000000000000000000000000000E2E20000E2E2E2E2E2E2E2E2E200000000000000000000000000000000000000000000000000000000000000000000000000E2000000000000E2E2E2E2E2E2E2E2E2E2E2E2E2E2E2E2E2E2E2E2E2E2E2E2E2E2E2E2E2E2E2E2E2E2E2E2E20000000000
310
00000000E2E2000000000000000000000000000000E2E200000000000000E2E2E2E200000000000000000000000000000000000000000000000000000000000000000000000000000000000000E2E2000000000000000000000000000000E200000000E2E2E2E2E2E2E2E2E2E2E2E2E2E2E2E2E2E2E2E2E2E2E2E2E2E2E2E2
310
E2E2E2E2E2E2E2E2E2E2E2E2000000E20000000000000000000000000000E2E20000E2E2E2E2E2E2E2E2E200000000000000000000000000000000000000000000000000000000000000000000000000E2000000000000E2E2E2E2000000000000000000000000000000000000000000000000000000000000000000000000
310
000000000000E2E2000000000000000000000000000000E2E200000000000000E2E2E2E2E2E2E2E2E2E2E2E20000000000000000000000000000000000000000000000000000000000000000000000E2E2E20000000000000000000000000000E200000000E2E2E2E2E2E2E2E2E2E2E2E2E2E2E2E2E2E2E2E2E2E2E2E2E2E2
310
E2E2E2E2E2E2E2E2E2E2E2000000000000E20000000000000000000000000000E2E20000E2E2E200000000000000000000000000000000000000000000000000000000000000000000000000000000000000E2000000000000E2E2E2E200000000000000000000000000000000000000000000000000000000000000000000
310
0000000000000000E2E200000000000000000000000000000000E200000000000000E2E2E2E2E2E2E2E2E2E2E2E20000000000000000000000000000000000000000000000000000000000000000000000E2E2000000000000000000000000000000E200000000E2E2E2E20000000000000000000000000000000000000000
310
00000000000000000000000000000000000000E2E200000000000000000000000000E2E20000E2E2E2E2E2E2E2E2E2000000000000000000000000000000000000000000000000000000000000000000000000E2E2000000000000E2E2E2E2E2E2E2E2E2E2E200000000000000000000000000000000000000000000000000
310
00000000000000000000E2E200000000000000000000000000000000E2E2000000000000E2E2E2E2E2E2E2E2E2E2E2E2E2E2E2E2E2E2E2E2E2E2E2E2E2E2E2E2E2E2E2E2E2E2E2E2E2E2E20000000000000000E2E2000000000000000000000000000000E200000000E2E2E2E2000000000000000000000000000000000000
310
000000000000000000000000000000000000000000E2E200000000000000000000000000E2E20000E2E2E2E2E2E2E2E2E2000000000000000000000000000000000000000000000000000000000000000000000000E2E2000000000000E2E2E2E2E2E2E2E2E2E2E2E2E2E2E2E2E2E2E2E2E2E2E2E2E2E2E2E2E2E2E2E2E2E2
310
E2E2E2E20000000000000000E2E200000000000000000000000000000000E2E2000000000000E2E2E2E2E2E2E2E2E2E2E2E2E2E2E2E2E2E2E2E2E2E2E2E2E2E2E2E2E2E2E2E2E2E2E2E2E2E2E2E2E2000000000000E2E20000000000000000000000000000E2E200000000E2E2E2E2E2E2E2E2E2E2E2000000000000000000
310
00000000000000000000000000000000000000000000E2E2E200000000000000000000000000E2E20000E2E2E2E2E2E2E2E2E2000000000000000000000000000000000000000000000000000000000000000000000000E2E2000000000000E2E2E2E2E2E2E2E2E2E2E2E2E2E2E2E2E2E2E2E2E2E2E2E2E2E2E2E2E2E2E2E2
310
E2E2E2E2E2E20000000000000000E2E200000000000000000000000000000000E200000000000000E2E2E2E2E2E2E2E2E2E2E2E2E2E2E2E2E2E2E2E2E2E2E2E2E2E2E2E2E2E2E2E2E2E2E2E2E2E2E2E2E200000000000000E20000000000000000000000000000E2E200000000E2E2E2E2E2E2E2E2E2E2E2E2E2E2E2E2E2E2
310
E2E2E2E2E2E2E2E2E2E2E2E2E2E2E2E2E2E2E2E200000000E2E2000000000000000000000000000000E20000E2E2E200000000000000000000000000000000000000000000000000000000000000000000000000000000000000E2000000000000E2E2E2E2E2E2E2E2E2E2E2E2E2E2E2E2E2E2E2E2E2E2E2E2E2E2E2E2E2E2
310
E2E2E2E2E2E2E2E2E2E2000000000000E20000000000000000000000000000000000E200000000000000E2E2E2E20000000000000000000000000000000000000000000000000000000000000000000000000000000000000000E20000000000000000000000000000E2E200000000E2E2E2E2E2E2E2E2E2E2E2E2E2E2E2E2
310
E2E2E2E2E2E2E2E2E2E2E2E2E2E2E2E2E2E2E2E2E2E200000000E2E2000000000000000000000000000000E2000000000000000000000000000000000000000000000000000000000000000000000000000000000000000000000000E2000000000000E2E2E2E2000000000000000000000000000000000000000000000000
310
000000000000000000000000000000000000E20000000000000000000000000000000000E200000000000000000000000000000000000000000000000000000000000000000000000000000000000000000000000000000000000000E2000000000000000000000000000000E200000000E2E2E2E2E2E2E2E2E2E2E2E2E2E2
310
E2E2E2E2E2E2E2E2E2E2E2E2E2E2E2E2E2E2E2E2E2E2E2E2E2E2000000E200000000000000000000000000000000E20000000000000000000000000000000000000000000000000000000000000000000000000000000000000000000000E2000000000000E2E2E2E200000000000000000000000000000000000000000000
310
0000000000000000000000000000000000000000E20000000000000000000000000000000000E2000000000000000000000000000000000000000000000000E2E2E2E2E2E2E2E20000000000000000000000000000000000000000000000E2000000000000000000000000000000E200000000E2E2E2E20000000000000000
310
00000000000000000000000000000000000000000000000000000000000000E200000000000000000000000000000000E20000000000000000000000000000000000000000000000000000000000000000000000000000000000000000000000E2000000000000000000000000000000000000000000000000000000000000
310
00000000000000000000000000000000000000000000E20000000000000000000000000000000000E2000000000000000000000000000000000000000000000000E2E2E2E2E2E2E2E20000000000000000000000000000000000000000000000E2000000000000000000000000000000E200000000E2E2E2E2000000000000
310
000000000000000000000000000000000000000000000000000000000000000000E20000000000000000000000000000000000E20000000000000000000000000000000000000000000000000000000000000000000000000000000000000000000000E2000000000000000000000000000000000000000000000000000000
310
0000000000000000000000000000000000000000000000E2E20000000000000000000000000000000000E2000000000000000000000000000000000000000000000000E2E2E2E2E2E2E2E20000000000000000000000000000000000000000000000E200000000000000000000000000000000E20000000000000000000000
310
00000000000000000000000000000000000000000000000000000000000000000000E2000000000000000000000000000000000000E2E200000000000000000000000000000000000000000000000000000000000000000000000000000000000000000000E200000000000000000000000000000000000000000000000000
310
00000000000000000000000000000000000000000000000000E2000000000000000000000000000000000000E200000000000000000000000000000000000000000000000000000000000000000000000000000000000000000000000000000000000000E200000000000000000000000000000000E2000000000000000000
310
0000000000000000000000000000000000000000000000000000000000000000000000E2E200000000000000000000000000000000000000E200000000000000000000000000000000000000000000000000000000000000000000000000000000000000000000E2E20000000000000000000000000000000000000000E2E2
310
E2E2E2E2E2E20000000000000000000000000000000000000000E200000000000000000000000000000000000000E200000000000000000000000000000000000000000000000000000000000000000000000000000000000000000000000000000000000000E20000000000000000000000000000000000E2000000000000
310
000000000000000000000000E2E2E2E2E2E2E2E20000000000000000000000000000000000E2000000000000000000000000000000000000000000E200000000000000000000000000000000000000000000000000000000000000000000000000000000000000000000E20000000000000000000000000000000000000000
310
E2E2E2E2E2E2E2E20000000000000000000000000000000000000000E200000000000000000000000000000000000000E20000000000000000000000000000000000000000000000000000E2E2E20000000000000000000000000000000000000000000000000000E20000000000000000000000000000000000E2E2000000
310
0000000000000000000000000000E2E2E2E2E2E2E2E200000000000000000000000000000000E2E200000000000000000000000000000000000000000000E200000000000000000000000000000000000000000000000000000000000000000000000000000000000000000000E20000000000000000000000000000000000
310
0000E2E2E2E2E2E2E2E200000000000000000000000000000000000000E20000000000000000000000000000000000000000E200000000000000000000000000000000000000000000000000E2E200E2E200000000000000000000000000000000000000000000000000E2000000000000000000000000000000000000E200
310
00000000000000000000000000000000000000000000000000000000000000000000000000000000E2000000000000000000000000000000000000000000000000E2E2000000000000000000000000000000000000000000000000000000000000000000000000000000000000000000E20000000000000000000000000000
310
000000000000000000000000000000000000000000000000000000000000E2E20000000000000000000000000000000000000000E20000000000000000000000000000000000000000000000000000E200E20000000000000000000000000000000000000000000000000000E2000000000000000000000000000000000000
310
E2E2000000000000000000000000000000000000000000000000000000000000000000000000000000E20000000000000000000000000000000000000000000000000000E2E20000000000000000000000000000000000000000000000000000000000000000000000000000000000000000E2000000000000000000000000
310
00000000000000000000000000000000000000000000000000000000000000E200000000000000000000000000000000000000000000E200000000000000000000000000000000000000000000000000E2E2E2E20000000000000000000000000000000000000000000000000000E200000000000000000000000000000000
310
000000E2E2000000000000000000000000000000000000E2E2E200000000000000000000000000000000E2E200000000000000000000000000000000000000000000000000000000E2E200000000000000000000000000000000000000000000000000000000000000000000000000000000000000E2E20000000000000000
310
0000000000000000000000000000000000000000000000000000000000000000E2E200000000000000000000000000000000000000000000E200000000000000000000000000000000000000000000000000E2E2E2E20000000000000000000000000000000000000000000000000000E20000000000000000000000000000
310
000000000000E2E20000000000000000000000000000000000E200E2000000000000000000000000000000E20000000000000000000000000000000000000000000000000000000000000000E200000000000000000000000000000000000000000000000000000000000000000000000000000000000000E2000000000000
310
000000000000000000000000E2E2E2E20000000000000000000000000000000000E2E20000000000000000000000000000000000000000000000E200000000000000000000000000000000000000000000000000000000000000000000000000000000000000000000000000000000000000E2000000000000000000000000
310
00000000000000000000E2000000000000000000000000000000E2E200E2E200000000000000000000000000E2000000000000000000000000000000000000000000000000000000000000000000000000000000000000000000000000000000000000000000000000000000000000000000000000000000000000E2E20000
310
0000000000000000000000000000E20000E200000000000000000000000000000000E2E2000000000000000000000000000000000000000000000000E2E20000000000000000000000000000000000000000000000E2E2E2000000000000000000000000000000000000000000000000000000E2E200000000000000000000
310
00000000000000000000000000E2E200000000000000000000000000E2E2E2E2000000000000000000000000E2E20000000000000000000000000000000000000000000000000000000000000000000000000000000000000000000000000000000000000000000000000000000000000000000000000000000000000000E2
310
E200000000000000000000000000000000E2E200000000000000000000000000000000E2E20000000000000000000000000000000000000000000000000000E2E2E2E2E2E2E2E2E2E2E2E2E2E2E2E2E2E2E2E2E2E2E2E2E2E2E2E2E2E2E2E2E2E2E2E2E2E2E2E2E2E2E2E2E2E2E2E2E2E2E2E2E2E2E2000000000000000000
310
00000000000000000000000000000000E2E2000000000000000000000000E2E2E2E200000000000000000000E2E2000000000000000000000000000000000000000000000000000000000000000000000000000000000000000000000000000000000000000000000000000000000000000000000000000000000000000000
310
000000E2E200000000000000000000000000E2E2E2E200000000000000000000000000E2E20000000000000000000000000000000000000000000000000000000000000000000000000000000000000000000000000000000000000000E2E20000000000000000000000000000000000000000000000000000000000000000
310
0000000000000000000000000000000000000000E2E2E2000000000000000000000000000000000000000000E2E2E20000000000000000000000000000000000000000000000000000000000000000000000000000000000000000000000000000000000000000000000000000000000000000000000000000000000000000
310
00000000000000E2E20000000000000000000000000000000000000000000000000000E2E2E20000000000000000000000000000000000000000000000000000000000000000000000000000000000000000000000000000000000000000000000000000000000000000000000000000000000000000000000000000000000
310
000000000000000000000000000000000000000000000000E2E2E2E2000000000000000000000000000000E2E2E2000000000000000000000000000000000000000000000000000000000000000000000000000000000000000000000000000000000000000000000000000000000000000000000000000000000000000000
310
00000000000000000000E2E2E200000000000000000000000000000000000000000000E2E2E20000000000000000000000000000000000000000000000000000000000000000000000000000000000000000000000000000000000000000000000000000000000000000000000000000000000000000000000000000000000
310
000000000000000000000000000000000000000000000000000000000000E2E2E2E2E2E2E200E2E2E2E2E2E2E200000000000000000000000000000000000000000000000000000000000000000000000000000000000000000000000000000000000000000000000000000000000000000000000000000000000000000000
310
000000000000000000000000000000E2E2E2E200000000E2E2E200000000000000E2E2E2E2000000000000000000000000000000000000000000000000000000000000000000000000000000000000000000000000000000000000000000000000000000000000000000000000000000000000000000000000000000000000
310
0000000000000000000000000000000000000000000000000000000000000000000000000000E2E2E2E2E2000000000000000000000000000000000000000000000000000000000000000000000000000000000000000000000000000000000000000000000000000000000000000000000000000000000000000000000000
310
0000000000000000000000000000000000000000E2E2E2E2E2E2E2E2E2E2E2E2E2E2E20000000000000000000000000000000000000000000000000000000000000000000000000000000000000000000000000000000000000000000000000000000000000000000000000000000000000000000000000000000000000000
310
00000000000000000000000000000000000000000000000000000000000000000000000000000000000000000000000000000000000000000000000000000000000000000000000000000000000000000000000000000000000000000000000000000000000000000000000000000000000000000000000000000000000000
310
000000000000000000000000000000000000000000000000000000000000E2E2E200000000000000000000000000000000000000000000000000000000000000000000000000000000000000000000000000000000000000000000000000000000000000000000000000000000000000000000000000000000000000000000
310
00000000000000000000000000000000000000000000000000000000000000000000000000000000000000000000000000000000000000000000000000000000000000000000000000000000000000000000000000000000000000000000000000000000000000000000000000000000000000000000000000000000000000
310
00000000000000000000000000000000000000000000000000000000000000000000000000000000000000000000000000000000000000000000000000000000000000000000000000000000000000000000000000000000000000000000000000000000000000000000000000000000000000000000000000000000000000
310
00000000000000000000000000000000000000000000000000000000000000000000000000000000000000000000000000000000000000000000000000000000000000000000000000000000000000000000000000000000000000000000000000000000000000000000000000000000000000000000000000000000000000
310
00000000000000000000000000000000000000000000000000000000000000000000000000000000000000000000000000000000000000000000000000000000000000000000000000000000000000000000000000000000000000000000000000000000000000000000000000000000000000000000000000000000000000
310
00000000000000000000000000000000000000000000000000000000000000000000000000000000000000000000000000000000000000000000000000000000000000000000000000000000000000000000000000000000000000000000000000000000000000000000000000000000000000000000000000000000000000
310
00000000000000000000000000000000000000000000000000000000000000000000000000000000000000000000000000000000000000000000000000000000000000000000000000000000000000000000000000000000000000000000000000000000000000000000000000000000000000000000000000000000000000
310
0000000000000000000000000000000000000000000000000000000000000000000000000000000000000000000000000000000000000000000000000000000000000000000000000000000000000000000000000000000000000000000000000000000000
  0
XRECORD
  5
1753
102
{ACAD_REACTORS
330
1752
102
}
330
1752
100
AcDbXrecord
280
     1
102
SHADEPLOT
 70
     0
102
SHADEPLOTRESLEVEL
 70
     2
102
SHADEPLOTCUSTOMDPI
 70
   300
  0
XRECORD
  5
1755
102
{ACAD_REACTORS
330
1754
102
}
330
1754
100
AcDbXrecord
280
     1
102
SHADEPLOT
 70
     0
102
SHADEPLOTRESLEVEL
 70
     2
102
SHADEPLOTCUSTOMDPI
 70
   300
  0
XRECORD
  5
F6E
102
{ACAD_REACTORS
330
1F9
102
}
330
1F9
100
AcDbXrecord
280
     1
102
MATERIAL
148
0.0
149
0.0
149
0.0
 93
        0
 94
      127
282
     0
 72
     1
 77
     1
171
     1
175
     1
179
     1
273
     0
  0
XRECORD
  5
1FA
102
{ACAD_REACTORS
330
1F9
102
}
330
1F9
100
AcDbXrecord
280
     1
 70
     1
 90
429727718
  1
D62C5603-E3A1-4AEA-B7FB-FE5D8D0755AF
310
504B03040A0000080000CC70623B3DEE336E79000000790000001B0000006175746F6465736B2D64657369676E2D7061636B6167652E786D6C3C3F786D6C2076657273696F6E3D22312E302220656E636F64696E673D227574662D3822203F3E3C666F726D6174733E3C666F726D61743E687474703A2F2F736368656D612E
310
6175746F6465736B2E636F6D2F64657369676E2D7061636B6167652F323030393C2F666F726D61743E3C2F666F726D6174733E504B0304140006080800CC70623BD486FD9CA0000000F4000000130000005B436F6E74656E745F54797065735D2E786D6C7D8EC10E82300C865F65E91D8A1E8C310C0EEA1BF002731658846E
310
D98AC1B77784ABF1D8FE5FBFBF75BBCE937A534CCEB38643598122B6FEE978D0B0485F9C41B54DDD7D022595594E1A469170414C76A4D9A4D207E29CF43ECE46F218070CC6BECC4078ACAA135ACF422C856C0E68EA1BF5669944DDD7BCDE7B1F8E415D77AECB980613C2E4AC91FC167A2B244592486606FC29C8FD7F045B9A
310
EF7053A7E60B504B0304140006080800CC70623B853B8169EB0000007C01000008000000636F72652E786D6C8D90416EC3201045AF62CDB6C206821CC7C244919D9CA01740401C94182C03558F5F9C3852BBEB6A467FFE9B197D7EFC9E1EC5975982F5AE035262288C535E5B377690E21535501C055FBC8FBF6C503839990E
310
5619041F179FE64D52DE45E362569DD7661365082642A11EB9E920A89B99642953CC8E702F67A9EE7234257977194EC9EAE275C4EABCCF5EAD5940D4AC6F0E35A568B8F43562CD7046CD199FD07E60174276A7BE677B5EADB0E0D14EEFFB6A31321A0D82627C4084204C3F096B71DD52F6819B16635EADF63F509AF53FA164
310
5DDCD1EDDD17164090FCC8732078B56691CB33A85CD7DCC40F504B0304140006080800CC70623B55019EA25F0000007C00000007000000636E782E786D6C4DCB3B0E80201045D1AD90E915ED2CF8AC45050C11660C8261F98AB1B07AC9C97D42D718D865D3E909258CFD00CCE24AC6E326A164D74DC0B4128928FF32603847
310
2BA13128B1252AC747C6BAB984FC68F0B87FE8960A5C09FE86CFB69FBA01504B0304140006080800CC70623BDBABAAF470010000D40300000C0000006662782F636F72652E786D6CC553D16E823014FD95A6AF4B694182CC941A83FA05FB810A9511A125A5257EFE2E82712ECEB8A7F100CD39F7F69E734AF9FADC366850B6
310
AF8DCE7018308C942E4C59EB2AC3DE1D498AD15A706B8CFB56869196ADCAF00863C12B6B7C374385D14E6907A836A59A41D9F7CA615434B0C8705F7CAA5606D23BA8E84F41278B93AC54100640439DE0BDB320004D43C63716C7C399D30917DCFBBA9CD9BA8469F5B156168B24CED3F7248AC8769F27244EB73B92EED8862C
310
B7F13E0C179B3C8F979C8ECD82BBBABDAA2BAC924E9558448CBD9330242CFA08E3154B5651FCC6D215639C8EE5774DBE2B5F6CF2B5768B68963BB5F5588420E442FC700B1139D4CB01F450C1E918227C2E09DF070D8140C84E1E9AAB8F1340832A9CB13130A5F1376A908D57309505ECF2A0DF179C4E9D30F5B239B87E3823
310
7A79C6F31DE1A8A5AEC08474B03C7837EAE4938639B44E5932B833D2C6B6B279CDC613877FA26EE21F4A2A4C63EC7F29A2F301D1F9F7A0E37D145F504B0304140006080800CC70623B9C113CC27E0000009D0000000B0000006662782F636E782E786D6C4DCCDF0A83201C86E15B91DFB94BFB330DD428C8FB886521330DA7
310
6397BF1A1DECE883878F57749FCDA1B7892F1BBC047A23808C7F84D9FA55424E0BE6803A256208E9EF06C84F9B91703228B1C690F78B66B34CD9A5439DF5CF0BFBF65E35BCA1B8D6A5C6F540381E886698B5741C695F9503EBA150A2F8958E3DC3EA0B504B0304140006080800CC70623B7DF2F77C2A010000120200003100
310
00006662782F41393633353835312D344632462D344230382D423046372D3739314545314133324237412F636F72652E786D6C8D51DB8EC22014FC15C2939B0D2DB4B45643319AE817EC0F6041255A68B86CFCFC856D4D76DF7CE190393373060EDB3DC707F856CE6B6B7A480A0C81328395DA5C7B18C3057510EC3873D686
310
3F34088C18550F330C39BB3A1BA7051AAC09CA84841A2BD5020AEF55806078A44B0FFD7053A328440C89E1EFC52486BBB8AA8214A99D789CF9E05200300FC927E4FB4D5B375D43103D5527440FB843077C5AA3F5861C8F645F5787F59E95B390B318B55CE45AA638FAA2957BD7248B390B7A7CC51F9C124149C82B8C378810
310
84AB2F42B7B8DD56F413775B8C5999E9FF4471926F8AA236A1AE96B8B3CC434E5839373893369E1FAF30EA395917409EB7F26AF8801C171837A4A6AC9C89E9F9C9B1A58BA30FD6A5EF5DDDCF894B9AD9B6A59C957943A9FCAE2FD5BC4DFE03504B0304140006080800CC70623BAD7543B64E01000033030000300000006662
310
782F41393633353835312D344632462D344230382D423046372D3739314545314133324237412F636E782E786D6CD593CD6EC32010845F0571AD6CE3D48AD20813A9873E410FBD12D82434182C7EAAE6EDBB2424CD25871E7B41D6EC30B3FA84F9E67BB2E40B4234DE8DB46F1925E094D7C6ED479AD3AE5951B2113C789FEE
310
6C943839C1488B4C05DF079FE72A69D8C96C13AAD6B8631503449F83828872B949AC57D26200B826A308D316B4064D6E46FCDA41C05550DC9E483A00797BFD207EFB092A45DE9514C1BBD22178396BD39D891265658C238DEA00936C654E5E433CB65A26D9F6EDB5EBC14EBF49A45CB856E66048291F6939A9A81BB5C89177
310
38143CA680F4AA299D66A042CEB3354A2684DC9D8D178FE0D9B8B41CAAD720F880EE7EF93C0C18769E099ECC04D5A102C8049A8A05632F4DDF376CF1DE0F6BB65C2F8627B65A33C6BB62177CEBBDAD973006829F89F22E814B54F4BC2BE347F8AA8F681390B50FA73F804400B5F542E796F19FF974E7F78DB802FE05E20750
310
4B0304140006080800CC70623BE75B7789680500003C100000340000006662782F41393633353835312D344632462D344230382D423046372D3739314545314133324237412F6F626A656374732E786D6CAD575B8F9B3818FD2B887D06C22499CB8AA1CA655245D5B455A356FB305264C061D8018C6C3393D95FBFC7600890
310
A4CD5EF210B0B1BFEBF98E3F7B1FF6596ABC522E1296DF9BAE3D320D9A872C4AF2F8DE2CE5CEBA358D0FBEC719939D65A691938CDE9B6ADAF4BD98B3B2D05311DD91329583D9D5FC0F438434A7A611A644887B5384CF34233629258BA878B12322891DEFF6B66BD70BFB62634E8AE781D082709A4B588AF91C528CDA28B73F
310
1C998EEF39EABBEFA97FBD6A7C7E9553F9D3D79FE442923C3C523610337627CB87ABE99D359D4CC6D6E4FACAB5E6ABF9D2726FC6A3C5F56271377BB88362213924694B38DD99FE47C48627A1E7D49F5A8BB5E1A74C0A599ED3B0F21F1E56366B89112D681E218F0915D0D6F17AD41FBA2A369DCF6335D62ABBD39779D5DDD1
310
11D4D8DE3CBB96B2E04FB8202E41051754A1AA8E8F76B4C6DFE810B580B1547F4B84911149794252234D024EF8BBE963A95AE27B3D310A9D5C215C7960FAEE415ED75694C6AFB17BCACA5D99A60A9AA65F217B0BFC53292ACB92BF283FAD0D3621576592CB5BED907C2FA8E9DF794E35E97BEA31BED21FEB401ABB94C44839
310
DCACBF0E1C5DA8DA5B2F4DFFD32AD86F543D9E565E7056502E157C00AD2671CD534549AB752FCA9CDA00677A313F04E51B22FF19E57B300579E3C97EB29F682D92935CEC18CF901B7B54FD8C51F362B56FC72FE0B3C1EAE335EDCCBF5AEC39ADB17DC238973F804BA5E6F6BFE7AF1FB32E523BE9F3BD571418E3631DCA4D48
310
5250CF639223210A9446CA30052EDF057BD35F8329C1ECD84552BF0DC8D18BE7BCE23BFE6BD960AB4A7DE79923A103BEBD80F911CBAA2C60DB19B01CF164A5583B772EE6D3FFA56666CBCDA74DC97724A48F9A58967497E489C4D979006FD7A05E227A1EBDD0F737C623387A9C844D3709995625106D157315F8B8392CD4E0
310
A0B9A720C4BE9829CEF37EA1E13111214D53925356365ADA634861B52519DD27A00AEB808EAF0628E6F435519D446F45CF2C9CF5214F0A15B2F6D06B79DA3EE3CBF7F56780D2F4E7EF73A0F5E5B02A38D07DC852C6B7C1FBB6664213E0C39E3EBA7FF4E1AD23EA2829407C85E586727488B751B2DB9502BC7B228A3FD68B6E
310
A65A22397E690AA8D158D7E404EC8CDA235CC3B7D1898680131CEC2CDF2638C65196279577750F15884AEE19F94199155B92B13297978469D4F8D358DF0AEF7631E28DC8F0D9F437D5D39A83B2231A1D52D543813A824EF8D44BCFF2FA6A31BD1E8DAD87F1CCB526B3879935BF59CDADD5C37479BB1CDD4CA7B3556B516589
310
EF352754B706114D9C885EC9131DE6EFEB43D99AFE2391C2F958179413D7CFEF6B1B6DB1E7600F00DE6E5C67454A339A4BA2E0FBA85ED26F045D454F463DBFCE484C2F90F2E5E3666003662ED8F755951A7D1BECD5B30B550B2785C8E7320B7292A4838DDA71BBC863ED7613CAF659337A3354231D4FF4A182A54904C2898C
310
98B28C4AD0CE056CCF332A80986E571EE9DBC305BB5FEB7E509220A58D25CF042D712A806AC0AD0C657FDEF80D2D9CEAA2EE4D1C76F60BFE74219A06527D6F82DF6412526107381E55E353090704D085B52408A8913C4ED159D79BDA71BB4BC506F4831350EB6F975CD22D69BF7AC49B91A2C0A9DDA3D5CA36AD20FC478E37
310
E61844E2352865EBCB61A275A65283CAAA9DD27703B4102F5AF51EF5F573B75CBB5AD38BC845F7A49F82A0966A49C2E3EA5EA0ECD326CD965F1DB402C6FA8B51A4658C5C5E2EC9E214602E55810345408596591009A82E7E7FFACA19EEA299B14A0081A705CB3296EBC14CDF658DCD336EA6D1136881AAEB87B81AB9EE53D5
310
F5EB8BC8362082DA24122F98680A4E7930C01A0079749CEA14382A0783E5EBA5A10F8C098456A03D6A4AEB6BB881E2513747552A5DB22C7EDAF83BD5528081A365F7FF06504B0304140006080000CC70623B000000000000000000000000350000006662782F41393633353835312D344632462D344230382D423046372D37
310
39314545314133324237412F76657274696365732E62696E504B0304140006080800CC70623BF270F1330600000004000000360000006662782F41393633353835312D344632462D344230382D423046372D3739314545314133324237412F747269616E676C65732E62696E636660600000504B0304140006080000CC7062
310
3B000000000000000000000000370000006662782F41393633353835312D344632462D344230382D423046372D3739314545314133324237412F617474726962757465732E62696E504B0304140006080800CC70623B08DA0BD19000000041010000360000006662782F41393633353835312D344632462D344230382D4230
310
46372D3739314545314133324237412F6469726563746F72792E786D6C858F410AC3201045AF22B36F53E9A60B35CBEEBAE80D244E44489C6234F4F835464A48035D0DF398FF9F8AF63D0E6CC63039F212F8F9020C7D47C6792B21C5FE7403D62A1188E2E60C98D7234A5830286103A55745067B9D86B8A3CF9C7F90C11DE6
310
07FB144396D7B6A82D282E9A152AD114D5EF2CB866EEE831B8EEA07A7BB5A8D7D61A2BAAEB7FD5F70921FF497D00504B0304140006080800CC70623BEDD1DC58FD000000A00100003B0000006662782F41393633353835312D344632462D344230382D423046372D3739314545314133324237412F7265736F75726365732F
310
636F72652E786D6C8D504B6E833010BD0A9A6D65B00922041947112427E8052C33A156828DFCA97AFC9A40A576D7CDCCE87D344F8F9FBFE667F689CE6B6B3A6039850C8DB2A336530731DC4903D95970676DF82583CCC8193B5861107C72362E3BA4AC096842428D1D7107A5F7182053CF7474E0D507CE32973124857FE48B
310
540F3961CEF244279DE03EB81420DB9EAC1384436FA353E879B1B182C7A8C75DA3C7F453DF353A1075D537A7BA6464B8F535A99AE14A9A2BBD90E350DD183B5CFABE3AF262350B1EF4FC9351399401471025A527C218A1E53BAB5A5AB765F5469B96525EACF23FA6B88CFF34456DC2A1DCE36E360F82A5202F42F062ED2BAD
310
579969AFDD8A6F504B010214000A0000080000CC70623B3DEE336E79000000790000001B00000000000000000000000000000000006175746F6465736B2D64657369676E2D7061636B6167652E786D6C504B01021400140006080800CC70623BD486FD9CA0000000F40000001300000000000000000000000000B20000005B
310
436F6E74656E745F54797065735D2E786D6C504B01021400140006080800CC70623B853B8169EB0000007C010000080000000000000000000000000083010000636F72652E786D6C504B01021400140006080800CC70623B55019EA25F0000007C000000070000000000000000000000000094020000636E782E786D6C504B
310
01021400140006080800CC70623BDBABAAF470010000D40300000C00000000000000000000000000180300006662782F636F72652E786D6C504B01021400140006080800CC70623B9C113CC27E0000009D0000000B00000000000000000000000000B20400006662782F636E782E786D6C504B01021400140006080800CC70
310
623B7DF2F77C2A010000120200003100000000000000000000000000590500006662782F41393633353835312D344632462D344230382D423046372D3739314545314133324237412F636F72652E786D6C504B01021400140006080800CC70623BAD7543B64E010000330300003000000000000000000000000000D2060000
310
6662782F41393633353835312D344632462D344230382D423046372D3739314545314133324237412F636E782E786D6C504B01021400140006080800CC70623BE75B7789680500003C10000034000000000000000000000000006E0800006662782F41393633353835312D344632462D344230382D423046372D3739314545
310
314133324237412F6F626A656374732E786D6C504B01021400140006080000CC70623B0000000000000000000000003500000000000000000000000000280E00006662782F41393633353835312D344632462D344230382D423046372D3739314545314133324237412F76657274696365732E62696E504B01021400140006
310
080800CC70623BF270F133060000000400000036000000000000000000000000007B0E00006662782F41393633353835312D344632462D344230382D423046372D3739314545314133324237412F747269616E676C65732E62696E504B01021400140006080000CC70623B0000000000000000000000003700000000000000
310
000000000000D50E00006662782F41393633353835312D344632462D344230382D423046372D3739314545314133324237412F617474726962757465732E62696E504B01021400140006080800CC70623B08DA0BD1900000004101000036000000000000000000000000002A0F00006662782F41393633353835312D344632
310
462D344230382D423046372D3739314545314133324237412F6469726563746F72792E786D6C504B01021400140006080800CC70623BEDD1DC58FD000000A00100003B000000000000000000000000000E1000006662782F41393633353835312D344632462D344230382D423046372D3739314545314133324237412F7265
310
736F75726365732F636F72652E786D6C504B0506000000000E000E0080040000641100000000
  0
XRECORD
  5
F6D
102
{ACAD_REACTORS
330
1F7
102
}
330
1F7
100
AcDbXrecord
280
     1
102
MATERIAL
148
0.0
149
0.0
149
0.0
 93
        0
 94
      127
282
     0
 72
     1
 77
     1
171
     1
175
     1
179
     1
273
     0
  0
XRECORD
  5
1F8
102
{ACAD_REACTORS
330
1F7
102
}
330
1F7
100
AcDbXrecord
280
     1
 70
     1
 90
429727718
  1
30362254-06B7-45E0-A893-8CFA70E3D6BC
310
504B03040A0000080000CC70623B3DEE336E79000000790000001B0000006175746F6465736B2D64657369676E2D7061636B6167652E786D6C3C3F786D6C2076657273696F6E3D22312E302220656E636F64696E673D227574662D3822203F3E3C666F726D6174733E3C666F726D61743E687474703A2F2F736368656D612E
310
6175746F6465736B2E636F6D2F64657369676E2D7061636B6167652F323030393C2F666F726D61743E3C2F666F726D6174733E504B0304140006080800CC70623BD486FD9CA0000000F4000000130000005B436F6E74656E745F54797065735D2E786D6C7D8EC10E82300C865F65E91D8A1E8C310C0EEA1BF002731658846E
310
D98AC1B77784ABF1D8FE5FBFBF75BBCE937A534CCEB38643598122B6FEE978D0B0485F9C41B54DDD7D022595594E1A469170414C76A4D9A4D207E29CF43ECE46F218070CC6BECC4078ACAA135ACF422C856C0E68EA1BF5669944DDD7BCDE7B1F8E415D77AECB980613C2E4AC91FC167A2B244592486606FC29C8FD7F045B9A
310
EF7053A7E60B504B0304140006080800CC70623B1EC5D7A3EB0000007C01000008000000636F72652E786D6C8D90416EC3201045AF82665B6103C6756C6122AB4D4ED00B204C5C94182C03558F5F9C3852BBEB6A467FFE9B197D71FC9E6FE8CBACC17AD7032D0820E3B41FAD9B7A48F1820F808E52ACDEC75F36404ECDA687
310
4D0629A6D5A76597B477D1B89855E747B38B2A041301E95B6E7A08FAD3CCAA50296647B8168BD2573599823EBB0CA76447F43862C7BCCF5EAC59410E4DDD9C7973C2755553CCCFA4C603E3040F1565ED3B1FDE4E432BCA0D9622DAF9795FAF464533826484B498524CD807E51D79ED187F21878E10516EF63F505AC67F42C9
310
BA58B1FDDD071640D2FCC87D2045B96591CB3DA85CB7DCE40F504B0304140006080800CC70623B55019EA25F0000007C00000007000000636E782E786D6C4DCB3B0E80201045D1AD90E915ED2CF8AC45050C11660C8261F98AB1B07AC9C97D42D718D865D3E909258CFD00CCE24AC6E326A164D74DC0B4128928FF32603847
310
2BA13128B1252AC747C6BAB984FC68F0B87FE8960A5C09FE86CFB69FBA01504B0304140006080800CC70623B8C9102E971010000D40300000C0000006662782F636F72652E786D6CC5535B6E833010BC8AE5DF0A6C08340F1947A84D4ED00B38C6A128602363A31CBFCB234A53A551FA553EC09AD9F5CE8C31DB9E9B1AF5CA
310
7695D1198E428A91D2D214952E33ECDD315861B4E5CC1AE3BE9561A445A3323CC098B3D21ADFCE9034DA29ED00D5A6503328BA4E398C640D8B0C77F253352214DE4145770A5B214FA2546114020D759C75CE8200340D19DE981F0F6746269C33EFAB6266AB02A655C74A59CCF365BADC27CB5D902ED22848F6340DF238A141
310
BE88E2F57B92BFEDF23523433367AE6A2EEAA455C2A902F398D2751045018D3FA264435F3771F242571B4A1919CA6F9A7C5B3CD9E42BED16F12C776AEB308F40C848FC700B1139D4891EF410CEC810227CC6846F8386402064270EF5C5C709A05E49676C024C61FC95EA45ED154CA5211D1FF4FB8291A913A68E9B83EBBB33
310
E2A7673CDE118E5AE8124C0807CB8377834E366998436B950D7A7746DAD846D4CFD978E0F04FD455FC5D49D2D4C6FE9722321F10997F0F32DC47FE05504B0304140006080800CC70623BFFEA85907E0000009D0000000B0000006662782F636E782E786D6C4DCCD10A83201886E15B91FFDC95D95A811AB6F23E625948A6C3
310
E9D8E5AF46073BFAE0E1E365ED67B3E8ADC3CB78C7815C7240DA3DFC64DCC221C519D7805AC182F7F1EF06C88D9BE6703008B6049F9E274D7A1E938DBB5AE3D6131B2589BA0D3D965551E0B2EA732C9B9A624AAEB41E3A557677029960D9AFB4EF11165F504B0304140006080800CC70623B4FEEA4082C0100001202000031
310
0000006662782F39464131463745442D413632322D343644302D413938332D3331353338454246344243312F636F72652E786D6C8D515B6EC32010BC0AE2AB55850DD871ED0813254D72825EC00192A2C460F1A872FC42ED48ED5F7E00CDCECCCEB26C731F6FE05B39AFADE921293004CA082BB5B9F43086336A21D870E6AC
310
0D7F68109861543DCC30E4ECE26C9C164858139409093556AA051CBC570102714B8F1E7AF1A5C6A11862480C7F2DA6415C878B2A4891CA89C7990F2E050073937C42DE1DB7E4F87ED8A36D4329AA9B3D46DBAEAD504556557BD81DEBDD0761E52CE42C462D17B996298E3E6BE59E35C962CE821E1FF18553435012728A7187
310
0841987E927A8D9B35ADDF70BBC6989599FE4F1427F9A4286A132ABAC49D651EF234CD5CE04CDA78BA3DC2A8FB645D00B9DF8B57E215725C60BCA2A463E54C4CE327C7A65E1C7DB02E7DEFCBF594B864C5CA6CDBD49C957943E9FA5D5FBAF336F90F504B0304140006080800CC70623BAD7543B64E01000033030000300000
310
006662782F39464131463745442D413632322D343644302D413938332D3331353338454246344243312F636E782E786D6CD593CD6EC32010845F0571AD6CE3D48AD20813A9873E410FBD12D82434182C7EAAE6EDBB2424CD25871E7B41D6EC30B3FA84F9E67BB2E40B4234DE8DB46F1925E094D7C6ED479AD3AE5951B2113C
310
789FEE6C943839C1488B4C05DF079FE72A69D8C96C13AAD6B8631503449F83828872B949AC57D26200B826A308D316B4064D6E46FCDA41C05550DC9E483A00797BFD207EFB092A45DE9514C1BBD22178396BD39D891265658C238DEA00936C654E5E433CB65A26D9F6EDB5EBC14EBF49A45CB856E66048291F6939A9A81BB5
310
C8917738143CA680F4AA299D66A042CEB3354A2684DC9D8D178FE0D9B8B41CAAD720F880EE7EF93C0C18769E099ECC04D5A102C8049A8A05632F4DDF376CF1DE0F6BB65C2F8627B65A33C6BB62177CEBBDAD973006829F89F22E814B54F4BC2BE347F8AA8F681390B50FA73F804400B5F542E796F19FF974E7F78DB802FE05
310
E207504B0304140006080800CC70623B16AB87BA640500003C100000340000006662782F39464131463745442D413632322D343644302D413938332D3331353338454246344243312F6F626A656374732E786D6CAD575B6FA33818FD2B887DE6924B3BED8A326A92B68A663B534DD4D13E548A0C38942D60649B369D5FBFC7
310
600890A493BDE42160637FD7F31D7FF63E6FB3D478A55C242CBF3247B66B1A340F5994E4F19559CA8D75611A9F7D8F33263BCB4C232719BD32D5B4E97B316765A1A722BA21652A07B3B7B33F0D11D29C9A46981221AE4C113ED38CD8A4942CA2E2C58E882476BCD9DA23BB5ED8171B73523C0F841684D35CC252CCE79062D4
310
468DFA43D7747CCF51DF7D4FFDEB5593E3AB9CCA9FBEFE241792E4E19EB28198C968BAB8199F5D5A67D3E9C49A9E8F47D6EC76B6B0469F26EEFC7C3EBFBCBEB98462213924694B38DD98FE1D62C393D073EA4FADC5DAF04326852CCF6958F90F0F2B9BB5C48816348F90C7840A68EB78EDF68723159BCEE7891A6B95DDE9D3
310
BCEAEEE8086A6C6F9E5D4B59F0175C10A7A0820BAA5055C7473B5AE3CFDD452D602CD5DF12616444529E90D448938013FE6EFA58AA96F85E4F8C42275708571E98FE6827AF6B2B4AE3D7D83D64E5A64C53054DD3AF90BD06FEA9149565C94FCA0F6B834DC85599E4F2423B24DF0B6AFA979E534DFA9E7A4CC6FA631D486393
310
921829879BF5D781A373557BCB85E97FB90DB62B558F8795179C15944B051F40AB495CF35451D26A4727654E6D8033BD98EF82F21D91FF8AF2DD9982BCF1643BDD4EB516C9492E368C67C88DED563FC36D5EACF66DFF057C3658BDBFA69DF9578B3DA735B64F18C7F20770A9D45CFCF7FCF563D6456A277DBEF78A02637CA2
310
43B90A490AEAB94F72244481D24819A6C0E59B606BFA4B3025981DBB48EAB701D97BF19C577CC77F2D1B6C55A9EF3C732474C0B727303F625995056C3B02963D9EAC146BE78EC5FCEC7FA999EBC5EACBAAE41B12D27B4D2C0BBA49F244E2ECDC81B76B502F113D8F5EE8FB1BE3111CDD4FC2AA9B844CAB1288B68AB90A7CDC
310
1C166AB0D3DC5310625FCC14E779BFD0709F8890A629C9292B1B2DED31A4B0DA928CEE135085754027E3018A397D4D5427D15BD1330B677DC8934285AC3DF45A9EB68FF8F2B8FC0A509AFEECFD0FF2DE25CC6047F7214B195F07EFEB9A094D800F7BFAE8FED187B78EA8A3A400F115961BCAD1215E47C966530AF0EE8128FE
310
58CEBB996A8964FFA529A046635D9353B0336A8F700DDF46271A024E70B0B37C9DE01847591E54DED53D54202AB947E4076556AC49C6CA5C9E1226B7F1A7B1BE15DEED62C41B91E1B3E9AFAAA735036547343A925075041DF0A9979E893B391F8FCFA6967B3EFB644DCF6E5CEBFAE272625DCC6FAF3FB93793C5F90CE1EF57
310
407342756B10D1C489E8953CD1617E5CEECAD6F4EF8914CE5D5D504E5C3F1F9736DA62CFC11E00BCDDB8CC8A9466349744C1F75EBDA4DF09BA8A9E8C7A7E9991989E20E5DBDD6A6003664ED8F7A04A8DBE0DF6EAD9B9AA858342E47399053949D2C146EDB85DE4B176BB0965FBAC19BD19AA918E27FA50C1D22402E144464C
310
59462568E704B6E71915404CB72B8FF4EDE184DDAF753F284990D2C6926782963815403548A70C657FDEF80D2D9CEAA2AE4C1C76F60BFE74219A06527D6582DF6412526107381E55E353090704D085B52408D0933C4ED159D79BDA71BB4BC506F4831350EB6F979CD22D69BF7AC49B91A2C0A9DDA3D5CA36AD20FC478E37E6
310
1844E2352865EBCB6EA275A652E3836BE04EFB400BF1A2556F515F1FBB35B2AB35BD889C744FFA1004B5544B121E57F70215746DD2F5E2C1412B602CBF19455AC6C8E5E9922C4E01E65215385004546899059180EAFCF7A707CE7017CD8CDB0410789AB32C63B91E5CEBBBACB17AC6CD347A022D5075FD106377347AAABA7E
310
7D11590744509B44E205134DC1290F06580320F78E537D3D73540E06CB970B431F185308AD40BBD794D6D77003C5A36E8EAA54BA64597CD8F83BD552A080A365F7FF06504B0304140006080000CC70623B000000000000000000000000350000006662782F39464131463745442D413632322D343644302D413938332D3331
310
353338454246344243312F76657274696365732E62696E504B0304140006080800CC70623BF270F1330600000004000000360000006662782F39464131463745442D413632322D343644302D413938332D3331353338454246344243312F747269616E676C65732E62696E636660600000504B0304140006080000CC70623B
310
000000000000000000000000370000006662782F39464131463745442D413632322D343644302D413938332D3331353338454246344243312F617474726962757465732E62696E504B0304140006080800CC70623B08DA0BD19000000041010000360000006662782F39464131463745442D413632322D343644302D413938
310
332D3331353338454246344243312F6469726563746F72792E786D6C858F410AC3201045AF22B36F53E9A60B35CBEEBAE80D244E44489C6234F4F835464A48035D0DF398FF9F8AF63D0E6CC63039F212F8F9020C7D47C6792B21C5FE7403D62A1188E2E60C98D7234A5830286103A55745067B9D86B8A3CF9C7F90C11DE607
310
FB144396D7B6A82D282E9A152AD114D5EF2CB866EEE831B8EEA07A7BB5A8D7D61A2BAAEB7FD5F70921FF497D00504B0304140006080800CC70623B0D6EF93BFE000000A00100003B0000006662782F39464131463745442D413632322D343644302D413938332D3331353338454246344243312F7265736F75726365732F63
310
6F72652E786D6C8D50596E833010BD0A9ADFCA60B334011947A8694ED00B586642AC041B79A97AFC9A40A5F6AF3F33A3B7689E1E3F7DCD8FEC139DD7D6F4C0720A191A65476DA61E62B892236427C19DB5E1970C322367EC618541F0C9D9B8EC90B226A009093576C41D94DE63804C3DD2D18357379C652E63480A7FCF17A9
310
EE72C29CE5894E3AC17D702940B63D59270887DE46A7D0F36263058F518FBB468FE9A7BE6A7420864373B8D4873369AA8691FA421B3294352543C5CAF65C0F6FEF43CB8BD52C78D0F34F46E550061C419494B6843142CB0F5677F4B52BEB177AEC28E5C52AFF638ACBF84F53D42654E51E77B379102C05791282176B5F693D
310
CB4C7BED567C03504B010214000A0000080000CC70623B3DEE336E79000000790000001B00000000000000000000000000000000006175746F6465736B2D64657369676E2D7061636B6167652E786D6C504B01021400140006080800CC70623BD486FD9CA0000000F40000001300000000000000000000000000B20000005B
310
436F6E74656E745F54797065735D2E786D6C504B01021400140006080800CC70623B1EC5D7A3EB0000007C010000080000000000000000000000000083010000636F72652E786D6C504B01021400140006080800CC70623B55019EA25F0000007C000000070000000000000000000000000094020000636E782E786D6C504B
310
01021400140006080800CC70623B8C9102E971010000D40300000C00000000000000000000000000180300006662782F636F72652E786D6C504B01021400140006080800CC70623BFFEA85907E0000009D0000000B00000000000000000000000000B30400006662782F636E782E786D6C504B01021400140006080800CC70
310
623B4FEEA4082C0100001202000031000000000000000000000000005A0500006662782F39464131463745442D413632322D343644302D413938332D3331353338454246344243312F636F72652E786D6C504B01021400140006080800CC70623BAD7543B64E010000330300003000000000000000000000000000D5060000
310
6662782F39464131463745442D413632322D343644302D413938332D3331353338454246344243312F636E782E786D6C504B01021400140006080800CC70623B16AB87BA640500003C1000003400000000000000000000000000710800006662782F39464131463745442D413632322D343644302D413938332D3331353338
310
454246344243312F6F626A656374732E786D6C504B01021400140006080000CC70623B0000000000000000000000003500000000000000000000000000270E00006662782F39464131463745442D413632322D343644302D413938332D3331353338454246344243312F76657274696365732E62696E504B01021400140006
310
080800CC70623BF270F133060000000400000036000000000000000000000000007A0E00006662782F39464131463745442D413632322D343644302D413938332D3331353338454246344243312F747269616E676C65732E62696E504B01021400140006080000CC70623B0000000000000000000000003700000000000000
310
000000000000D40E00006662782F39464131463745442D413632322D343644302D413938332D3331353338454246344243312F617474726962757465732E62696E504B01021400140006080800CC70623B08DA0BD190000000410100003600000000000000000000000000290F00006662782F39464131463745442D413632
310
322D343644302D413938332D3331353338454246344243312F6469726563746F72792E786D6C504B01021400140006080800CC70623B0D6EF93BFE000000A00100003B000000000000000000000000000D1000006662782F39464131463745442D413632322D343644302D413938332D3331353338454246344243312F7265
310
736F75726365732F636F72652E786D6C504B0506000000000E000E0080040000641100000000
  0
XRECORD
  5
F6F
102
{ACAD_REACTORS
330
173
102
}
330
173
100
AcDbXrecord
280
     1
102
MATERIAL
148
0.0
149
0.0
149
0.0
 93
        0
 94
      127
282
     0
 72
     1
 77
     1
171
     1
175
     1
179
     1
273
     0
  0
XRECORD
  5
175
102
{ACAD_REACTORS
330
173
102
}
330
173
100
AcDbXrecord
280
     1
270
     1
271
     1
  0
XRECORD
  5
174
102
{ACAD_REACTORS
330
173
102
}
330
173
100
AcDbXrecord
280
     1
270
     1
271
     1
  0
XRECORD
  5
1FB
102
{ACAD_REACTORS
330
173
102
}
330
173
100
AcDbXrecord
280
     1
 70
     0
 90
1673772943
  1
ECE7A1D2-D628-4531-984C-D00F80459256
310
504B03040A0000080000CC70623B3DEE336E79000000790000001B0000006175746F6465736B2D64657369676E2D7061636B6167652E786D6C3C3F786D6C2076657273696F6E3D22312E302220656E636F64696E673D227574662D3822203F3E3C666F726D6174733E3C666F726D61743E687474703A2F2F736368656D612E
310
6175746F6465736B2E636F6D2F64657369676E2D7061636B6167652F323030393C2F666F726D61743E3C2F666F726D6174733E504B0304140006080800CC70623BD486FD9CA0000000F4000000130000005B436F6E74656E745F54797065735D2E786D6C7D8EC10E82300C865F65E91D8A1E8C310C0EEA1BF002731658846E
310
D98AC1B77784ABF1D8FE5FBFBF75BBCE937A534CCEB38643598122B6FEE978D0B0485F9C41B54DDD7D022595594E1A469170414C76A4D9A4D207E29CF43ECE46F218070CC6BECC4078ACAA135ACF422C856C0E68EA1BF5669944DDD7BCDE7B1F8E415D77AECB980613C2E4AC91FC167A2B244592486606FC29C8FD7F045B9A
310
EF7053A7E60B504B0304140006080800CC70623BD9DDAED0EC0000007C01000008000000636F72652E786D6C8D90416EC3201045AF82665B61836D9CD8C2444DD39CA01740405C94182C03558F5F9C3852BBEB6A467FFE9B197D7EF89E6EE8CB2CC17A37002D0820E394D7D68D03A478C17B4007C117EFE32F1B20272733C0
310
2A83E0E3E2D3BC49CABB685CCCAAF3DA6CA20CC14440EA969B0182FA34932C648AD911AEC52CD5558EA6A0CF2EC329598D1E47ACCEFBECC59A050463A7EA5833865FEBDD0E37353BE3EE8DBDE3F6786A48D375FBF6CC78B9C282473B3DEFABC5C86834888A900E538A49F5419B9EB47DD5BC907D4F082F57FB1F28CDFA9F50
310
B22ED6D5F6EE030B20687EE43E10BC5CB3C8E51E54AE6B6EE207504B0304140006080800CC70623B55019EA25F0000007C00000007000000636E782E786D6C4DCB3B0E80201045D1AD90E915ED2CF8AC45050C11660C8261F98AB1B07AC9C97D42D718D865D3E909258CFD00CCE24AC6E326A164D74DC0B4128928FF326038
310
472BA13128B1252AC747C6BAB984FC68F0B87FE8960A5C09FE86CFB69FBA01504B0304140006080800CC70623BA24EB22D72010000D40300000C0000006662782F636F72652E786D6CC5535B6E833010BC8AE5DF0A6C5E49888CA3A6694ED00B38E05014B091B1518EDFE511A5A9D228FD2A1F60CDEC7A67C6986DCE4D8D7A
310
69BA4AAB0C073EC548AA5C17952A33ECECD15B61B4E1CC686DBF9561A44423333CC098B3D268D7CE50AE9595CA02AA74216750749DB418E5352C32DCE59FB211BE70162ABA93DF8AFC244AE9073ED050C759670D0840D390E18DF9F1706664C23973AE2A66B62A605A75ACA4C13C4976E1364A12EF355A2EBD384AF65EFA96
310
BC7B8BED2EA6719AAE16FB8491A199335B351775B991C2CA02F390D2D40B028F861F41BCA68B7518BFD0D59A524686F29B26D7164F36B94AD9289CE54E6D1DE6010819891F6E21228B3AD1831EC219194284CF98F06DD01008846CC5A1BEF83801D4CBDC6A1303536877A57A513B0953A94FC707FDBE6064EA84A9E3E6E0FA
310
EE8CF0E9198F7784A316AA0413C2C2F2E0ECA0934D1AE6D05A69BCDE9E91D2A611F573361E38FC1375157F5752AE6B6DFE4B11990F88CCBF0719EE23FF02504B0304140006080800CC70623B408A7D3B7C0000009D0000000B0000006662782F636E782E786D6C4DCCD10A83201886E15B91FFDC552A92A0064DBC8F581632
310
D3703A76F9ABD1C18E3E78F878E5F0D9027ABBFCF2292AE86E2D20171F69F6715550CB827B40839639A5F2770314A7CD293819B45C73AAFB45B35BA61ACAA1C1C7E7855C58C15BC331339661262CC762340413D68D77DA5B42298546CBE6573AF60CEB2F504B0304140006080800CC70623B449FB9BD290100001202000031
310
0000006662782F36394639363044362D344446342D343946362D394244322D3234314243333846323333332F636F72652E786D6C8D515B6EC32010BC0AE22B55850D98B871848994463E412FE002495162B07854397EA176A4F62F3F2C9A9D991D587EB84F37F0AD7D30CEF6905418026DA553C65E7A98E219ED203808EE9D
310
8B7F6810D871D23D2C3014FCE25D9A57483A1BB58D19B54EE9151C43D0110279CB971E06F9A5A7B11A53CC8C70ADE6515EC78BAE4895DB992778883E0700CB907242D17643D7E2538BD869608875438BBAE38922CAC8F1BDD90DB4691A5E2F42C153326A951B95E398B3D1FE599322163C9AE9115F7A3D46ADA0A018778810
310
84E907617BDCEE297BC5BB3DC6BC2EF47FA234AB2745C9D8D8D035EE220B50105E2F0DC1954B9FB747187D9F9D8FA0CCDB042D5FA0C015C65B42DF78BD10F3F3B363CB56C7109DCFDFBBB97E662ED92EB62D13BC2E1BCAE5777DB9966D8A1F504B0304140006080800CC70623BAD7543B64E01000033030000300000006662
310
782F36394639363044362D344446342D343946362D394244322D3234314243333846323333332F636E782E786D6CD593CD6EC32010845F0571AD6CE3D48AD20813A9873E410FBD12D82434182C7EAAE6EDBB2424CD25871E7B41D6EC30B3FA84F9E67BB2E40B4234DE8DB46F1925E094D7C6ED479AD3AE5951B2113C789FEE
310
6C943839C1488B4C05DF079FE72A69D8C96C13AAD6B8631503449F83828872B949AC57D26200B826A308D316B4064D6E46FCDA41C05550DC9E483A00797BFD207EFB092A45DE9514C1BBD22178396BD39D891265658C238DEA00936C654E5E433CB65A26D9F6EDB5EBC14EBF49A45CB856E66048291F6939A9A81BB5C89177
310
38143CA680F4AA299D66A042CEB3354A2684DC9D8D178FE0D9B8B41CAAD720F880EE7EF93C0C18769E099ECC04D5A102C8049A8A05632F4DDF376CF1DE0F6BB65C2F8627B65A33C6BB62177CEBBDAD973006829F89F22E814B54F4BC2BE347F8AA8F681390B50FA73F804400B5F542E796F19FF974E7F78DB802FE05E20750
310
4B0304140006080800CC70623B8D05915C650500003B100000340000006662782F36394639363044362D344446342D343946362D394244322D3234314243333846323333332F6F626A656374732E786D6CAD575B6FA33814FE2B887D06429276DA1565D4266D158D3A339A6846FB502932E050B66023DB74D2FDF5FB190C01
310
9276B2973C046C8ECFF53B17071F77456EBD502133CEAE6CDF9DD81665314F32965ED995DA3A17B6F5310C04E7AA47665B8C14F4CAD6DB7618A48257A5D94AE89654B91AEDDEDDFC61C998326A5B714EA4BCB265FC440BE2924AF184CA6737218AB8E976E7FA6E4338649B0A523E8D98964450A6A029F619B8588D52FE7039
310
B1BD30F0F4F730D0FF866AF6369557DB33949F31A9088B0F848DD8CCFCF9F2767A76E99CCDE733677E3EF59D9BBB9BA5E37F984D16E78BC5E5F5ED25044B25C0C96822E8D60EEFE11B91C581D77CEA34368A1F5329E68CD1B8B61F16D63A1B8E092D294B10C78C4A48EB593D192E7DED9BDEE7995E1B91FDEDD3ACEA9FE831
310
6A756F9F7D4D79F4274C90A7A04248AA51D5F8C718DAE06FB2F75AC4796EBE65D22A88A22223B995679120E2D50E41AA49C260C046A35368846B0BECD0DFF3EBEB8AD4F835768F69B9ADF25C43D30E6B646F807FAA64AD59F61715C7A54127C4AACA98BA3006A9D792DAE165E0D59B61A01FB3A9F9D838D2DAE62445C86166
310
F37564E842E7DE6A69879FEEA2DD5AE7E371E1A5E025154AC307D06A03D73EB5978C58FFA4C8E9033066E0F3BD53BEC1F39F91BE7B55103791EDE6BBB991A2046172CB4581D8B893FA674DDA17A77B3B7C413D1B511FD2743BFF8A38F03A658705E3ADF8015C3A3417FF3D7E439FF591DA0B5F18BC20C1B8981957AE6392A3
310
F43C640C01D1A0B4728E2DD4F26DB4B3C3152A252A3B4E913CEC1C72F012782FF88EFF8637AA552DBEF76408E8A8DE9E50F9E1CB3A2DA0DB1B6039A893B56063DC5B3E3FFB5F72E67AB9FEB4AEC496C4F4C1149625DD662C53E89D7BF0F6151A046260D1337DFDC94502430F83B0EE07A130A224BCAD7DAE1D9FB6CD422FF6
310
920702629C4BB9AE79C12F243C6432A6794E18E5552BA56B431AAB5D91317302B2B071E86C3A42B1A02F999E24061403B5D0EB639195DA655DD3EBEAB4FB862DDF579F014AD0E73C22F99E28DA57FB98E75C6CA2D74D53086D600F4786E0FE3144B771A8A7B900F03594DB8A633CBC49B2EDB69228BB479CF863B5E807AAAB
310
23872F6DFEB4129B949CA33823F58830E86D65621E10047D9DB34D862E8EAC3C2ABC2F7B2C40D67CDFE01F5545B92105AF983AC54D93D69E56FB8E797F88913F898A9FEC705D3F9D1B54EC8426FB500D40A03BD0119B06E1B95DDC7EB8F6975367793EBD70E66733DFB9BC982F9CE564727731999F5D4ECFCE3B8D6A4DC2A0
310
6D50FD148437D110834A64C6CDDF57FBACB5C307A2A477DFE4939736CFEF2B175371E0E10CF0DD1D5C15654E0BCA14D1E87DD02FF93782A162C0A3D95F1524A52770F972BF1EE9809D13CE7DD599467F8ECE9ADD85CE85A34CD45355448C64F9E8A031DC2D596ACC6E5DD93D9B82DE2EF5CAF81363A8E47996A0DE24564A79
310
4115AACE09C55E14540231FDA13C319787134EBF34E3A022514E5B4D9E0826E25C02D5805B15ABE1BEF51B26383D445DD9E875EE33FE4C22DA16427D65A3BCA92CA6D28DD01DF5DC53330704308475351050232CCD31583787BA75774AFB06E5070DD0C8EF484E19968C5D83BA5B90B244D31E54D55A372320FE4786B7EA58
310
44E135AA5467CB7EA333A61683CC6A8C3257034C10CF46F40EF9F5BE59BE5BD30C3C72D235E95D10345C1D45445A5F0BB47E46A5EBE5570F9380B5FA629579952296A773720405982B9DE04011506178964401AA8BDF1FBF0A8EAB6861DD6580C0E38217056766716DAEB2D6FA0917D3E4116581EADB879C4E7CFFB11EFACD
310
3D641311495D92C8676CB409A72D18610D803CE8A626049E8EC1887CB5B44CC39883690DDA8399B4B9855B481E7D71D4A9D22F96E5BB73BF5793020C02137BF837504B0304140006080000CC70623B000000000000000000000000350000006662782F36394639363044362D344446342D343946362D394244322D32343142
310
43333846323333332F76657274696365732E62696E504B0304140006080800CC70623BF270F1330600000004000000360000006662782F36394639363044362D344446342D343946362D394244322D3234314243333846323333332F747269616E676C65732E62696E636660600000504B0304140006080000CC70623B0000
310
00000000000000000000370000006662782F36394639363044362D344446342D343946362D394244322D3234314243333846323333332F617474726962757465732E62696E504B0304140006080800CC70623B08DA0BD19000000041010000360000006662782F36394639363044362D344446342D343946362D394244322D
310
3234314243333846323333332F6469726563746F72792E786D6C858F410AC3201045AF22B36F53E9A60B35CBEEBAE80D244E44489C6234F4F835464A48035D0DF398FF9F8AF63D0E6CC63039F212F8F9020C7D47C6792B21C5FE7403D62A1188E2E60C98D7234A5830286103A55745067B9D86B8A3CF9C7F90C11DE607FB14
310
4396D7B6A82D282E9A152AD114D5EF2CB866EEE831B8EEA07A7BB5A8D7D61A2BAAEB7FD5F70921FF497D00504B0304140006080800CC70623BCA768048FE000000A00100003B0000006662782F36394639363044362D344446342D343946362D394244322D3234314243333846323333332F7265736F75726365732F636F72
310
652E786D6C8D50596E833010BD0A9ADFCA60D600328E9AA639412F609909B1126CE4A5EAF16B0295DABFFECC8CDEA2797AECF8353F924FB44E193D409E5248504B332A3D0D10FC95B4901C39B3C6F85F3248B49871801506CE266BC2B243D2688FDA47549B11775038871E12F988C7004EDE7016A9083E2ADC3D5D84BC8B09
310
D33C8D74D471E6BC8D0192EDC93A815B742658898E651BCB59086ADC356A8C3FD555A1055ED7E7E254D615792D0F075295F585746FF53B694EE78A565DD736979A65AB9933AFE69F8CD2A2F038022F28ED489E135A7CE4554F9BBEA85E68DB53CAB255FEC71496F19FA6A0B42F8B3DEE6673C0F318E4497096AD7DC5F52C33
310
EEB55BFE0D504B010214000A0000080000CC70623B3DEE336E79000000790000001B00000000000000000000000000000000006175746F6465736B2D64657369676E2D7061636B6167652E786D6C504B01021400140006080800CC70623BD486FD9CA0000000F40000001300000000000000000000000000B20000005B436F
310
6E74656E745F54797065735D2E786D6C504B01021400140006080800CC70623BD9DDAED0EC0000007C010000080000000000000000000000000083010000636F72652E786D6C504B01021400140006080800CC70623B55019EA25F0000007C000000070000000000000000000000000095020000636E782E786D6C504B0102
310
1400140006080800CC70623BA24EB22D72010000D40300000C00000000000000000000000000190300006662782F636F72652E786D6C504B01021400140006080800CC70623B408A7D3B7C0000009D0000000B00000000000000000000000000B50400006662782F636E782E786D6C504B01021400140006080800CC70623B
310
449FB9BD290100001202000031000000000000000000000000005A0500006662782F36394639363044362D344446342D343946362D394244322D3234314243333846323333332F636F72652E786D6C504B01021400140006080800CC70623BAD7543B64E010000330300003000000000000000000000000000D20600006662
310
782F36394639363044362D344446342D343946362D394244322D3234314243333846323333332F636E782E786D6C504B01021400140006080800CC70623B8D05915C650500003B10000034000000000000000000000000006E0800006662782F36394639363044362D344446342D343946362D394244322D32343142433338
310
46323333332F6F626A656374732E786D6C504B01021400140006080000CC70623B0000000000000000000000003500000000000000000000000000250E00006662782F36394639363044362D344446342D343946362D394244322D3234314243333846323333332F76657274696365732E62696E504B010214001400060808
310
00CC70623BF270F13306000000040000003600000000000000000000000000780E00006662782F36394639363044362D344446342D343946362D394244322D3234314243333846323333332F747269616E676C65732E62696E504B01021400140006080000CC70623B00000000000000000000000037000000000000000000
310
00000000D20E00006662782F36394639363044362D344446342D343946362D394244322D3234314243333846323333332F617474726962757465732E62696E504B01021400140006080800CC70623B08DA0BD190000000410100003600000000000000000000000000270F00006662782F36394639363044362D344446342D
310
343946362D394244322D3234314243333846323333332F6469726563746F72792E786D6C504B01021400140006080800CC70623BCA768048FE000000A00100003B000000000000000000000000000B1000006662782F36394639363044362D344446342D343946362D394244322D3234314243333846323333332F7265736F
310
75726365732F636F72652E786D6C504B0506000000000E000E0080040000621100000000
  0
XRECORD
  5
176
102
{ACAD_REACTORS
330
173
102
}
330
173
100
AcDbXrecord
280
     1
270
     1
271
     1
  0
XRECORD
  5
177
102
{ACAD_REACTORS
330
173
102
}
330
173
100
AcDbXrecord
280
     1
270
     1
271
     1
  0
CELLSTYLEMAP
  5
174B
102
{ACAD_REACTORS
330
162
102
}
330
162
100
AcDbCellStyleMap
 90
        3
300
CELLSTYLE
  1
TABLEFORMAT_BEGIN
 90
        5
170
     1
 91
        0
 92
    32768
 62
   257
 93
        1
300
CONTENTFORMAT
  1
CONTENTFORMAT_BEGIN
 90
        0
 91
        0
 92
      512
 93
        0
300

 40
0.0
140
1.0
 94
        5
 62
     0
340
11
144
6.0
309
CONTENTFORMAT_END
171
     1
301
MARGIN
  1
CELLMARGIN_BEGIN
 40
1.5
 40
1.5
 40
1.5
 40
1.5
 40
0.18
 40
0.18
309
CELLMARGIN_END
 94
        6
 95
        1
302
GRIDFORMAT
  1
GRIDFORMAT_BEGIN
 90
        0
 91
        1
 62
     0
 92
       -2
340
14
 93
        0
 40
1.125
309
GRIDFORMAT_END
 95
        2
302
GRIDFORMAT
  1
GRIDFORMAT_BEGIN
 90
        0
 91
        1
 62
     0
 92
       -2
340
14
 93
        0
 40
1.125
309
GRIDFORMAT_END
 95
        4
302
GRIDFORMAT
  1
GRIDFORMAT_BEGIN
 90
        0
 91
        1
 62
     0
 92
       -2
340
14
 93
        0
 40
1.125
309
GRIDFORMAT_END
 95
        8
302
GRIDFORMAT
  1
GRIDFORMAT_BEGIN
 90
        0
 91
        1
 62
     0
 92
       -2
340
14
 93
        0
 40
1.125
309
GRIDFORMAT_END
 95
       16
302
GRIDFORMAT
  1
GRIDFORMAT_BEGIN
 90
        0
 91
        1
 62
     0
 92
       -2
340
14
 93
        0
 40
1.125
309
GRIDFORMAT_END
 95
       32
302
GRIDFORMAT
  1
GRIDFORMAT_BEGIN
 90
        0
 91
        1
 62
     0
 92
       -2
340
14
 93
        0
 40
1.125
309
GRIDFORMAT_END
309
TABLEFORMAT_END
  1
CELLSTYLE_BEGIN
 90
        1
 91
        1
300
_TITLE
309
CELLSTYLE_END
300
CELLSTYLE
  1
TABLEFORMAT_BEGIN
 90
        5
170
     1
 91
        0
 92
        0
 62
   257
 93
        1
300
CONTENTFORMAT
  1
CONTENTFORMAT_BEGIN
 90
        0
 91
        0
 92
      512
 93
        0
300

 40
0.0
140
1.0
 94
        5
 62
     0
340
11
144
4.5
309
CONTENTFORMAT_END
171
     1
301
MARGIN
  1
CELLMARGIN_BEGIN
 40
1.5
 40
1.5
 40
1.5
 40
1.5
 40
0.18
 40
0.18
309
CELLMARGIN_END
 94
        6
 95
        1
302
GRIDFORMAT
  1
GRIDFORMAT_BEGIN
 90
        0
 91
        1
 62
     0
 92
       -2
340
14
 93
        0
 40
1.125
309
GRIDFORMAT_END
 95
        2
302
GRIDFORMAT
  1
GRIDFORMAT_BEGIN
 90
        0
 91
        1
 62
     0
 92
       -2
340
14
 93
        0
 40
1.125
309
GRIDFORMAT_END
 95
        4
302
GRIDFORMAT
  1
GRIDFORMAT_BEGIN
 90
        0
 91
        1
 62
     0
 92
       -2
340
14
 93
        0
 40
1.125
309
GRIDFORMAT_END
 95
        8
302
GRIDFORMAT
  1
GRIDFORMAT_BEGIN
 90
        0
 91
        1
 62
     0
 92
       -2
340
14
 93
        0
 40
1.125
309
GRIDFORMAT_END
 95
       16
302
GRIDFORMAT
  1
GRIDFORMAT_BEGIN
 90
        0
 91
        1
 62
     0
 92
       -2
340
14
 93
        0
 40
1.125
309
GRIDFORMAT_END
 95
       32
302
GRIDFORMAT
  1
GRIDFORMAT_BEGIN
 90
        0
 91
        1
 62
     0
 92
       -2
340
14
 93
        0
 40
1.125
309
GRIDFORMAT_END
309
TABLEFORMAT_END
  1
CELLSTYLE_BEGIN
 90
        2
 91
        1
300
_HEADER
309
CELLSTYLE_END
300
CELLSTYLE
  1
TABLEFORMAT_BEGIN
 90
        5
170
     1
 91
        0
 92
        0
 62
   257
 93
        1
300
CONTENTFORMAT
  1
CONTENTFORMAT_BEGIN
 90
        0
 91
        0
 92
      512
 93
        0
300

 40
0.0
140
1.0
 94
        2
 62
     0
340
11
144
4.5
309
CONTENTFORMAT_END
171
     1
301
MARGIN
  1
CELLMARGIN_BEGIN
 40
1.5
 40
1.5
 40
1.5
 40
1.5
 40
0.18
 40
0.18
309
CELLMARGIN_END
 94
        6
 95
        1
302
GRIDFORMAT
  1
GRIDFORMAT_BEGIN
 90
        0
 91
        1
 62
     0
 92
       -2
340
14
 93
        0
 40
1.125
309
GRIDFORMAT_END
 95
        2
302
GRIDFORMAT
  1
GRIDFORMAT_BEGIN
 90
        0
 91
        1
 62
     0
 92
       -2
340
14
 93
        0
 40
1.125
309
GRIDFORMAT_END
 95
        4
302
GRIDFORMAT
  1
GRIDFORMAT_BEGIN
 90
        0
 91
        1
 62
     0
 92
       -2
340
14
 93
        0
 40
1.125
309
GRIDFORMAT_END
 95
        8
302
GRIDFORMAT
  1
GRIDFORMAT_BEGIN
 90
        0
 91
        1
 62
     0
 92
       -2
340
14
 93
        0
 40
1.125
309
GRIDFORMAT_END
 95
       16
302
GRIDFORMAT
  1
GRIDFORMAT_BEGIN
 90
        0
 91
        1
 62
     0
 92
       -2
340
14
 93
        0
 40
1.125
309
GRIDFORMAT_END
 95
       32
302
GRIDFORMAT
  1
GRIDFORMAT_BEGIN
 90
        0
 91
        1
 62
     0
 92
       -2
340
14
 93
        0
 40
1.125
309
GRIDFORMAT_END
309
TABLEFORMAT_END
  1
CELLSTYLE_BEGIN
 90
        3
 91
        2
300
_DATA
309
CELLSTYLE_END
  0
XRECORD
  5
1751
102
{ACAD_REACTORS
330
162
102
}
330
162
100
AcDbXrecord
280
     1
102
ACAD_ROUNDTRIP_PRE2007_TABLESTYLE
 90
      512
 91
        0
  1

 92
      512
 93
        0
  2

 94
      512
 95
        0
  3

  0
XRECORD
  5
1761
102
{ACAD_REACTORS
330
1760
102
}
330
1760
100
AcDbXrecord
280
     1
102
RTVSPropertyOp0
 70
     1
102
RTVSPropertyOp1
 70
     1
102
RTVSPropertyOp2
 70
     1
102
RTVSPropertyOp3
 70
     1
102
RTVSPropertyOp4
 70
     1
102
RTVSPropertyOp5
 70
     1
102
RTVSPropertyOp6
 70
     1
102
RTVSPropertyOp7
 70
     1
102
RTVSPropertyOp8
 70
     1
102
RTVSPropertyOp9
 70
     1
102
RTVSPropertyOp10
 70
     1
102
RTVSPropertyOp11
 70
     1
102
RTVSPropertyOp12
 70
     1
102
RTVSPropertyOp13
 70
     1
102
RTVSPropertyOp14
 70
     1
102
RTVSPropertyOp15
 70
     1
102
RTVSPropertyOp16
 70
     1
102
RTVSPropertyOp17
 70
     1
102
RTVSPropertyOp18
 70
     1
102
RTVSPropertyOp19
 70
     1
102
RTVSPropertyOp20
 70
     1
102
RTVSPropertyOp21
 70
     1
102
RTVSPropertyOp22
 70
     1
102
RTVSPropertyOp23
 70
     1
102
RTVSPropertyOp24
 70
     1
102
RTVSPropertyOp25
 70
     1
102
RTVSPropertyOp26
 70
     1
102
RTVSPropertyOp27
 70
     1
102
RTVSPropertyOp28
 70
     1
102
RTVSPropertyOp29
 70
     1
102
RTVSPropertyOp30
 70
     1
102
RTVSPropertyOp31
 70
     1
102
RTVSPropertyOp32
 70
     1
  0
XRECORD
  5
175F
102
{ACAD_REACTORS
330
175E
102
}
330
175E
100
AcDbXrecord
280
     1
102
RTVSPropertyOp0
 70
     1
102
RTVSPropertyOp1
 70
     1
102
RTVSPropertyOp2
 70
     1
102
RTVSPropertyOp3
 70
     1
102
RTVSPropertyOp4
 70
     1
102
RTVSPropertyOp5
 70
     1
102
RTVSPropertyOp6
 70
     1
102
RTVSPropertyOp7
 70
     1
102
RTVSPropertyOp8
 70
     1
102
RTVSPropertyOp9
 70
     1
102
RTVSPropertyOp10
 70
     1
102
RTVSPropertyOp11
 70
     1
102
RTVSPropertyOp12
 70
     1
102
RTVSPropertyOp13
 70
     1
102
RTVSPropertyOp14
 70
     1
102
RTVSPropertyOp15
 70
     1
102
RTVSPropertyOp16
 70
     1
102
RTVSPropertyOp17
 70
     1
102
RTVSPropertyOp18
 70
     1
102
RTVSPropertyOp19
 70
     1
102
RTVSPropertyOp20
 70
     1
102
RTVSPropertyOp21
 70
     1
102
RTVSPropertyOp22
 70
     1
102
RTVSPropertyOp23
 70
     1
102
RTVSPropertyOp24
 70
     1
102
RTVSPropertyOp25
 70
     1
102
RTVSPropertyOp26
 70
     1
102
RTVSPropertyOp27
 70
     1
102
RTVSPropertyOp28
 70
     1
102
RTVSPropertyOp29
 70
     1
102
RTVSPropertyOp30
 70
     1
102
RTVSPropertyOp31
 70
     1
102
RTVSPropertyOp32
 70
     1
  0
XRECORD
  5
176D
102
{ACAD_REACTORS
330
176C
102
}
330
176C
100
AcDbXrecord
280
     1
102
RTVSPropertyOp0
 70
     1
102
RTVSPropertyOp1
 70
     1
102
RTVSPropertyOp2
 70
     1
102
RTVSPropertyOp3
 70
     1
102
RTVSPropertyOp4
 70
     1
102
RTVSPropertyOp5
 70
     1
102
RTVSPropertyOp6
 70
     1
102
RTVSPropertyOp7
 70
     1
102
RTVSPropertyOp8
 70
     1
102
RTVSPropertyOp9
 70
     1
102
RTVSPropertyOp10
 70
     1
102
RTVSPropertyOp11
 70
     1
102
RTVSPropertyOp12
 70
     1
102
RTVSPropertyOp13
 70
     1
102
RTVSPropertyOp14
 70
     1
102
RTVSPropertyOp15
 70
     1
102
RTVSPropertyOp16
 70
     1
102
RTVSPropertyOp17
 70
     1
102
RTVSPropertyOp18
 70
     1
102
RTVSPropertyOp19
 70
     1
102
RTVSPropertyOp20
 70
     1
102
RTVSPropertyOp21
 70
     1
102
RTVSPropertyOp22
 70
     1
102
RTVSPropertyOp23
 70
     1
102
RTVSPropertyOp24
 70
     1
102
RTVSPropertyOp25
 70
     1
102
RTVSPropertyOp26
 70
     1
102
RTVSPropertyOp27
 70
     1
102
RTVSPropertyOp28
 70
     1
102
RTVSPropertyOp29
 70
     1
102
RTVSPropertyOp30
 70
     1
102
RTVSPropertyOp31
 70
     1
102
RTVSPropertyOp32
 70
     1
  0
XRECORD
  5
1775
102
{ACAD_REACTORS
330
1774
102
}
330
1774
100
AcDbXrecord
280
     1
102
RTVSPropertyOp0
 70
     1
102
RTVSPropertyOp1
 70
     1
102
RTVSPropertyOp2
 70
     1
102
RTVSPropertyOp3
 70
     1
102
RTVSPropertyOp4
 70
     1
102
RTVSPropertyOp5
 70
     1
102
RTVSPropertyOp6
 70
     1
102
RTVSPropertyOp7
 70
     1
102
RTVSPropertyOp8
 70
     1
102
RTVSPropertyOp9
 70
     1
102
RTVSPropertyOp10
 70
     1
102
RTVSPropertyOp11
 70
     1
102
RTVSPropertyOp12
 70
     1
102
RTVSPropertyOp13
 70
     1
102
RTVSPropertyOp14
 70
     1
102
RTVSPropertyOp15
 70
     1
102
RTVSPropertyOp16
 70
     1
102
RTVSPropertyOp17
 70
     1
102
RTVSPropertyOp18
 70
     1
102
RTVSPropertyOp19
 70
     1
102
RTVSPropertyOp20
 70
     1
102
RTVSPropertyOp21
 70
     1
102
RTVSPropertyOp22
 70
     1
102
RTVSPropertyOp23
 70
     1
102
RTVSPropertyOp24
 70
     1
102
RTVSPropertyOp25
 70
     1
102
RTVSPropertyOp26
 70
     1
102
RTVSPropertyOp27
 70
     1
102
RTVSPropertyOp28
 70
     1
102
RTVSPropertyOp29
 70
     1
102
RTVSPropertyOp30
 70
     1
102
RTVSPropertyOp31
 70
     1
102
RTVSPropertyOp32
 70
     1
  0
XRECORD
  5
1767
102
{ACAD_REACTORS
330
1766
102
}
330
1766
100
AcDbXrecord
280
     1
102
RTVSPropertyOp0
 70
     1
102
RTVSPropertyOp1
 70
     1
102
RTVSPropertyOp2
 70
     1
102
RTVSPropertyOp3
 70
     1
102
RTVSPropertyOp4
 70
     1
102
RTVSPropertyOp5
 70
     1
102
RTVSPropertyOp6
 70
     1
102
RTVSPropertyOp7
 70
     1
102
RTVSPropertyOp8
 70
     1
102
RTVSPropertyOp9
 70
     1
102
RTVSPropertyOp10
 70
     1
102
RTVSPropertyOp11
 70
     1
102
RTVSPropertyOp12
 70
     1
102
RTVSPropertyOp13
 70
     1
102
RTVSPropertyOp14
 70
     1
102
RTVSPropertyOp15
 70
     1
102
RTVSPropertyOp16
 70
     1
102
RTVSPropertyOp17
 70
     1
102
RTVSPropertyOp18
 70
     1
102
RTVSPropertyOp19
 70
     1
102
RTVSPropertyOp20
 70
     1
102
RTVSPropertyOp21
 70
     1
102
RTVSPropertyOp22
 70
     1
102
RTVSPropertyOp23
 70
     1
102
RTVSPropertyOp24
 70
     1
102
RTVSPropertyOp25
 70
     1
102
RTVSPropertyOp26
 70
     1
102
RTVSPropertyOp27
 70
     1
102
RTVSPropertyOp28
 70
     1
102
RTVSPropertyOp29
 70
     1
102
RTVSPropertyOp30
 70
     1
102
RTVSPropertyOp31
 70
     1
102
RTVSPropertyOp32
 70
     1
  0
XRECORD
  5
176B
102
{ACAD_REACTORS
330
176A
102
}
330
176A
100
AcDbXrecord
280
     1
102
RTVSPropertyOp0
 70
     1
102
RTVSPropertyOp1
 70
     1
102
RTVSPropertyOp2
 70
     1
102
RTVSPropertyOp3
 70
     1
102
RTVSPropertyOp4
 70
     1
102
RTVSPropertyOp5
 70
     1
102
RTVSPropertyOp6
 70
     1
102
RTVSPropertyOp7
 70
     1
102
RTVSPropertyOp8
 70
     1
102
RTVSPropertyOp9
 70
     1
102
RTVSPropertyOp10
 70
     1
102
RTVSPropertyOp11
 70
     1
102
RTVSPropertyOp12
 70
     1
102
RTVSPropertyOp13
 70
     1
102
RTVSPropertyOp14
 70
     1
102
RTVSPropertyOp15
 70
     1
102
RTVSPropertyOp16
 70
     1
102
RTVSPropertyOp17
 70
     1
102
RTVSPropertyOp18
 70
     1
102
RTVSPropertyOp19
 70
     1
102
RTVSPropertyOp20
 70
     1
102
RTVSPropertyOp21
 70
     1
102
RTVSPropertyOp22
 70
     1
102
RTVSPropertyOp23
 70
     1
102
RTVSPropertyOp24
 70
     1
102
RTVSPropertyOp25
 70
     1
102
RTVSPropertyOp26
 70
     1
102
RTVSPropertyOp27
 70
     1
102
RTVSPropertyOp28
 70
     1
102
RTVSPropertyOp29
 70
     1
102
RTVSPropertyOp30
 70
     1
102
RTVSPropertyOp31
 70
     1
102
RTVSPropertyOp32
 70
     1
  0
XRECORD
  5
177B
102
{ACAD_REACTORS
330
177A
102
}
330
177A
100
AcDbXrecord
280
     1
102
RTVSPropertyOp0
 70
     0
102
RTVSPropertyOp1
 70
     0
102
RTVSPropertyOp2
 70
     0
102
RTVSPropertyOp3
 70
     0
102
RTVSPropertyOp4
 70
     0
102
RTVSPropertyOp5
 70
     0
102
RTVSPropertyOp6
 70
     0
102
RTVSPropertyOp7
 70
     0
102
RTVSPropertyOp8
 70
     0
102
RTVSPropertyOp9
 70
     0
102
RTVSPropertyOp10
 70
     0
102
RTVSPropertyOp11
 70
     0
102
RTVSPropertyOp12
 70
     0
102
RTVSPropertyOp13
 70
     0
102
RTVSPropertyOp14
 70
     2
102
RTVSPropertyOp15
 70
     0
102
RTVSPropertyOp16
 70
     0
102
RTVSPropertyOp17
 70
     0
102
RTVSPropertyOp18
 70
     0
102
RTVSPropertyOp19
 70
     0
102
RTVSPropertyOp20
 70
     0
102
RTVSPropertyOp21
 70
     0
102
RTVSPropertyOp22
 70
     0
102
RTVSPropertyOp23
 70
     0
102
RTVSPropertyOp24
 70
     0
102
RTVSPropertyOp25
 70
     0
102
RTVSPropertyOp26
 70
     0
102
RTVSPropertyOp27
 70
     0
102
RTVSPropertyOp28
 70
     1
102
RTVSPropertyOp29
 70
     1
102
RTVSPropertyOp30
 70
     1
102
RTVSPropertyOp31
 70
     1
102
RTVSPropertyOp32
 70
     1
  0
XRECORD
  5
1773
102
{ACAD_REACTORS
330
1772
102
}
330
1772
100
AcDbXrecord
280
     1
102
RTVSPropertyOp0
 70
     1
102
RTVSPropertyOp1
 70
     1
102
RTVSPropertyOp2
 70
     1
102
RTVSPropertyOp3
 70
     1
102
RTVSPropertyOp4
 70
     1
102
RTVSPropertyOp5
 70
     1
102
RTVSPropertyOp6
 70
     1
102
RTVSPropertyOp7
 70
     1
102
RTVSPropertyOp8
 70
     1
102
RTVSPropertyOp9
 70
     1
102
RTVSPropertyOp10
 70
     1
102
RTVSPropertyOp11
 70
     1
102
RTVSPropertyOp12
 70
     1
102
RTVSPropertyOp13
 70
     1
102
RTVSPropertyOp14
 70
     1
102
RTVSPropertyOp15
 70
     1
102
RTVSPropertyOp16
 70
     1
102
RTVSPropertyOp17
 70
     1
102
RTVSPropertyOp18
 70
     1
102
RTVSPropertyOp19
 70
     1
102
RTVSPropertyOp20
 70
     1
102
RTVSPropertyOp21
 70
     1
102
RTVSPropertyOp22
 70
     1
102
RTVSPropertyOp23
 70
     1
102
RTVSPropertyOp24
 70
     1
102
RTVSPropertyOp25
 70
     1
102
RTVSPropertyOp26
 70
     1
102
RTVSPropertyOp27
 70
     1
102
RTVSPropertyOp28
 70
     1
102
RTVSPropertyOp29
 70
     1
102
RTVSPropertyOp30
 70
     1
102
RTVSPropertyOp31
 70
     1
102
RTVSPropertyOp32
 70
     1
  0
XRECORD
  5
1757
102
{ACAD_REACTORS
330
1756
102
}
330
1756
100
AcDbXrecord
280
     1
102
RTVSPropertyOp0
 70
     1
102
RTVSPropertyOp1
 70
     1
102
RTVSPropertyOp2
 70
     1
102
RTVSPropertyOp3
 70
     1
102
RTVSPropertyOp4
 70
     1
102
RTVSPropertyOp5
 70
     1
102
RTVSPropertyOp6
 70
     1
102
RTVSPropertyOp7
 70
     1
102
RTVSPropertyOp8
 70
     1
102
RTVSPropertyOp9
 70
     1
102
RTVSPropertyOp10
 70
     1
102
RTVSPropertyOp11
 70
     1
102
RTVSPropertyOp12
 70
     1
102
RTVSPropertyOp13
 70
     1
102
RTVSPropertyOp14
 70
     1
102
RTVSPropertyOp15
 70
     1
102
RTVSPropertyOp16
 70
     1
102
RTVSPropertyOp17
 70
     1
102
RTVSPropertyOp18
 70
     1
102
RTVSPropertyOp19
 70
     1
102
RTVSPropertyOp20
 70
     1
102
RTVSPropertyOp21
 70
     1
102
RTVSPropertyOp22
 70
     1
102
RTVSPropertyOp23
 70
     1
102
RTVSPropertyOp24
 70
     1
102
RTVSPropertyOp25
 70
     1
102
RTVSPropertyOp26
 70
     1
102
RTVSPropertyOp27
 70
     1
102
RTVSPropertyOp28
 70
     1
102
RTVSPropertyOp29
 70
     1
102
RTVSPropertyOp30
 70
     1
102
RTVSPropertyOp31
 70
     1
102
RTVSPropertyOp32
 70
     1
  0
XRECORD
  5
1759
102
{ACAD_REACTORS
330
1758
102
}
330
1758
100
AcDbXrecord
280
     1
102
RTVSPropertyOp0
 70
     1
102
RTVSPropertyOp1
 70
     1
102
RTVSPropertyOp2
 70
     1
102
RTVSPropertyOp3
 70
     1
102
RTVSPropertyOp4
 70
     1
102
RTVSPropertyOp5
 70
     1
102
RTVSPropertyOp6
 70
     1
102
RTVSPropertyOp7
 70
     1
102
RTVSPropertyOp8
 70
     1
102
RTVSPropertyOp9
 70
     1
102
RTVSPropertyOp10
 70
     1
102
RTVSPropertyOp11
 70
     1
102
RTVSPropertyOp12
 70
     1
102
RTVSPropertyOp13
 70
     1
102
RTVSPropertyOp14
 70
     1
102
RTVSPropertyOp15
 70
     1
102
RTVSPropertyOp16
 70
     1
102
RTVSPropertyOp17
 70
     1
102
RTVSPropertyOp18
 70
     1
102
RTVSPropertyOp19
 70
     1
102
RTVSPropertyOp20
 70
     1
102
RTVSPropertyOp21
 70
     1
102
RTVSPropertyOp22
 70
     1
102
RTVSPropertyOp23
 70
     1
102
RTVSPropertyOp24
 70
     1
102
RTVSPropertyOp25
 70
     1
102
RTVSPropertyOp26
 70
     1
102
RTVSPropertyOp27
 70
     1
102
RTVSPropertyOp28
 70
     1
102
RTVSPropertyOp29
 70
     1
102
RTVSPropertyOp30
 70
     1
102
RTVSPropertyOp31
 70
     1
102
RTVSPropertyOp32
 70
     1
  0
XRECORD
  5
175B
102
{ACAD_REACTORS
330
175A
102
}
330
175A
100
AcDbXrecord
280
     1
102
RTVSPropertyOp0
 70
     1
102
RTVSPropertyOp1
 70
     1
102
RTVSPropertyOp2
 70
     1
102
RTVSPropertyOp3
 70
     1
102
RTVSPropertyOp4
 70
     1
102
RTVSPropertyOp5
 70
     1
102
RTVSPropertyOp6
 70
     1
102
RTVSPropertyOp7
 70
     1
102
RTVSPropertyOp8
 70
     1
102
RTVSPropertyOp9
 70
     1
102
RTVSPropertyOp10
 70
     1
102
RTVSPropertyOp11
 70
     1
102
RTVSPropertyOp12
 70
     1
102
RTVSPropertyOp13
 70
     1
102
RTVSPropertyOp14
 70
     1
102
RTVSPropertyOp15
 70
     1
102
RTVSPropertyOp16
 70
     1
102
RTVSPropertyOp17
 70
     1
102
RTVSPropertyOp18
 70
     1
102
RTVSPropertyOp19
 70
     1
102
RTVSPropertyOp20
 70
     1
102
RTVSPropertyOp21
 70
     1
102
RTVSPropertyOp22
 70
     1
102
RTVSPropertyOp23
 70
     1
102
RTVSPropertyOp24
 70
     1
102
RTVSPropertyOp25
 70
     1
102
RTVSPropertyOp26
 70
     1
102
RTVSPropertyOp27
 70
     1
102
RTVSPropertyOp28
 70
     1
102
RTVSPropertyOp29
 70
     1
102
RTVSPropertyOp30
 70
     1
102
RTVSPropertyOp31
 70
     1
102
RTVSPropertyOp32
 70
     1
  0
XRECORD
  5
175D
102
{ACAD_REACTORS
330
175C
102
}
330
175C
100
AcDbXrecord
280
     1
102
RTVSPropertyOp0
 70
     1
102
RTVSPropertyOp1
 70
     1
102
RTVSPropertyOp2
 70
     1
102
RTVSPropertyOp3
 70
     1
102
RTVSPropertyOp4
 70
     1
102
RTVSPropertyOp5
 70
     1
102
RTVSPropertyOp6
 70
     1
102
RTVSPropertyOp7
 70
     1
102
RTVSPropertyOp8
 70
     1
102
RTVSPropertyOp9
 70
     1
102
RTVSPropertyOp10
 70
     1
102
RTVSPropertyOp11
 70
     1
102
RTVSPropertyOp12
 70
     1
102
RTVSPropertyOp13
 70
     1
102
RTVSPropertyOp14
 70
     1
102
RTVSPropertyOp15
 70
     1
102
RTVSPropertyOp16
 70
     1
102
RTVSPropertyOp17
 70
     1
102
RTVSPropertyOp18
 70
     1
102
RTVSPropertyOp19
 70
     1
102
RTVSPropertyOp20
 70
     1
102
RTVSPropertyOp21
 70
     1
102
RTVSPropertyOp22
 70
     1
102
RTVSPropertyOp23
 70
     1
102
RTVSPropertyOp24
 70
     1
102
RTVSPropertyOp25
 70
     1
102
RTVSPropertyOp26
 70
     1
102
RTVSPropertyOp27
 70
     1
102
RTVSPropertyOp28
 70
     1
102
RTVSPropertyOp29
 70
     1
102
RTVSPropertyOp30
 70
     1
102
RTVSPropertyOp31
 70
     1
102
RTVSPropertyOp32
 70
     1
  0
XRECORD
  5
1765
102
{ACAD_REACTORS
330
1764
102
}
330
1764
100
AcDbXrecord
280
     1
102
RTVSPropertyOp0
 70
     1
102
RTVSPropertyOp1
 70
     1
102
RTVSPropertyOp2
 70
     1
102
RTVSPropertyOp3
 70
     1
102
RTVSPropertyOp4
 70
     1
102
RTVSPropertyOp5
 70
     1
102
RTVSPropertyOp6
 70
     1
102
RTVSPropertyOp7
 70
     1
102
RTVSPropertyOp8
 70
     1
102
RTVSPropertyOp9
 70
     1
102
RTVSPropertyOp10
 70
     1
102
RTVSPropertyOp11
 70
     1
102
RTVSPropertyOp12
 70
     1
102
RTVSPropertyOp13
 70
     1
102
RTVSPropertyOp14
 70
     1
102
RTVSPropertyOp15
 70
     1
102
RTVSPropertyOp16
 70
     1
102
RTVSPropertyOp17
 70
     1
102
RTVSPropertyOp18
 70
     1
102
RTVSPropertyOp19
 70
     1
102
RTVSPropertyOp20
 70
     1
102
RTVSPropertyOp21
 70
     1
102
RTVSPropertyOp22
 70
     1
102
RTVSPropertyOp23
 70
     1
102
RTVSPropertyOp24
 70
     1
102
RTVSPropertyOp25
 70
     1
102
RTVSPropertyOp26
 70
     1
102
RTVSPropertyOp27
 70
     1
102
RTVSPropertyOp28
 70
     1
102
RTVSPropertyOp29
 70
     1
102
RTVSPropertyOp30
 70
     1
102
RTVSPropertyOp31
 70
     1
102
RTVSPropertyOp32
 70
     1
  0
XRECORD
  5
1777
102
{ACAD_REACTORS
330
1776
102
}
330
1776
100
AcDbXrecord
280
     1
102
RTVSPropertyOp0
 70
     0
102
RTVSPropertyOp1
 70
     0
102
RTVSPropertyOp2
 70
     0
102
RTVSPropertyOp3
 70
     0
102
RTVSPropertyOp4
 70
     0
102
RTVSPropertyOp5
 70
     0
102
RTVSPropertyOp6
 70
     0
102
RTVSPropertyOp7
 70
     0
102
RTVSPropertyOp8
 70
     0
102
RTVSPropertyOp9
 70
     0
102
RTVSPropertyOp10
 70
     0
102
RTVSPropertyOp11
 70
     0
102
RTVSPropertyOp12
 70
     0
102
RTVSPropertyOp13
 70
     0
102
RTVSPropertyOp14
 70
     2
102
RTVSPropertyOp15
 70
     0
102
RTVSPropertyOp16
 70
     0
102
RTVSPropertyOp17
 70
     0
102
RTVSPropertyOp18
 70
     0
102
RTVSPropertyOp19
 70
     0
102
RTVSPropertyOp20
 70
     0
102
RTVSPropertyOp21
 70
     0
102
RTVSPropertyOp22
 70
     0
102
RTVSPropertyOp23
 70
     0
102
RTVSPropertyOp24
 70
     0
102
RTVSPropertyOp25
 70
     0
102
RTVSPropertyOp26
 70
     0
102
RTVSPropertyOp27
 70
     0
102
RTVSPropertyOp28
 70
     1
102
RTVSPropertyOp29
 70
     1
102
RTVSPropertyOp30
 70
     1
102
RTVSPropertyOp31
 70
     1
102
RTVSPropertyOp32
 70
     1
  0
XRECORD
  5
1771
102
{ACAD_REACTORS
330
1770
102
}
330
1770
100
AcDbXrecord
280
     1
102
RTVSPropertyOp0
 70
     1
102
RTVSPropertyOp1
 70
     1
102
RTVSPropertyOp2
 70
     1
102
RTVSPropertyOp3
 70
     1
102
RTVSPropertyOp4
 70
     1
102
RTVSPropertyOp5
 70
     1
102
RTVSPropertyOp6
 70
     1
102
RTVSPropertyOp7
 70
     1
102
RTVSPropertyOp8
 70
     1
102
RTVSPropertyOp9
 70
     1
102
RTVSPropertyOp10
 70
     1
102
RTVSPropertyOp11
 70
     1
102
RTVSPropertyOp12
 70
     1
102
RTVSPropertyOp13
 70
     1
102
RTVSPropertyOp14
 70
     1
102
RTVSPropertyOp15
 70
     1
102
RTVSPropertyOp16
 70
     1
102
RTVSPropertyOp17
 70
     1
102
RTVSPropertyOp18
 70
     1
102
RTVSPropertyOp19
 70
     1
102
RTVSPropertyOp20
 70
     1
102
RTVSPropertyOp21
 70
     1
102
RTVSPropertyOp22
 70
     1
102
RTVSPropertyOp23
 70
     1
102
RTVSPropertyOp24
 70
     1
102
RTVSPropertyOp25
 70
     1
102
RTVSPropertyOp26
 70
     1
102
RTVSPropertyOp27
 70
     1
102
RTVSPropertyOp28
 70
     1
102
RTVSPropertyOp29
 70
     1
102
RTVSPropertyOp30
 70
     1
102
RTVSPropertyOp31
 70
     1
102
RTVSPropertyOp32
 70
     1
  0
XRECORD
  5
1779
102
{ACAD_REACTORS
330
1778
102
}
330
1778
100
AcDbXrecord
280
     1
102
RTVSPropertyOp0
 70
     0
102
RTVSPropertyOp1
 70
     0
102
RTVSPropertyOp2
 70
     0
102
RTVSPropertyOp3
 70
     0
102
RTVSPropertyOp4
 70
     0
102
RTVSPropertyOp5
 70
     0
102
RTVSPropertyOp6
 70
     0
102
RTVSPropertyOp7
 70
     0
102
RTVSPropertyOp8
 70
     0
102
RTVSPropertyOp9
 70
     0
102
RTVSPropertyOp10
 70
     0
102
RTVSPropertyOp11
 70
     0
102
RTVSPropertyOp12
 70
     0
102
RTVSPropertyOp13
 70
     0
102
RTVSPropertyOp14
 70
     2
102
RTVSPropertyOp15
 70
     0
102
RTVSPropertyOp16
 70
     0
102
RTVSPropertyOp17
 70
     0
102
RTVSPropertyOp18
 70
     0
102
RTVSPropertyOp19
 70
     0
102
RTVSPropertyOp20
 70
     0
102
RTVSPropertyOp21
 70
     0
102
RTVSPropertyOp22
 70
     0
102
RTVSPropertyOp23
 70
     0
102
RTVSPropertyOp24
 70
     0
102
RTVSPropertyOp25
 70
     0
102
RTVSPropertyOp26
 70
     0
102
RTVSPropertyOp27
 70
     0
102
RTVSPropertyOp28
 70
     1
102
RTVSPropertyOp29
 70
     1
102
RTVSPropertyOp30
 70
     1
102
RTVSPropertyOp31
 70
     1
102
RTVSPropertyOp32
 70
     1
  0
XRECORD
  5
1769
102
{ACAD_REACTORS
330
1768
102
}
330
1768
100
AcDbXrecord
280
     1
102
RTVSPropertyOp0
 70
     1
102
RTVSPropertyOp1
 70
     1
102
RTVSPropertyOp2
 70
     1
102
RTVSPropertyOp3
 70
     1
102
RTVSPropertyOp4
 70
     1
102
RTVSPropertyOp5
 70
     1
102
RTVSPropertyOp6
 70
     1
102
RTVSPropertyOp7
 70
     1
102
RTVSPropertyOp8
 70
     1
102
RTVSPropertyOp9
 70
     1
102
RTVSPropertyOp10
 70
     1
102
RTVSPropertyOp11
 70
     1
102
RTVSPropertyOp12
 70
     1
102
RTVSPropertyOp13
 70
     1
102
RTVSPropertyOp14
 70
     1
102
RTVSPropertyOp15
 70
     1
102
RTVSPropertyOp16
 70
     1
102
RTVSPropertyOp17
 70
     1
102
RTVSPropertyOp18
 70
     1
102
RTVSPropertyOp19
 70
     1
102
RTVSPropertyOp20
 70
     1
102
RTVSPropertyOp21
 70
     1
102
RTVSPropertyOp22
 70
     1
102
RTVSPropertyOp23
 70
     1
102
RTVSPropertyOp24
 70
     1
102
RTVSPropertyOp25
 70
     1
102
RTVSPropertyOp26
 70
     1
102
RTVSPropertyOp27
 70
     1
102
RTVSPropertyOp28
 70
     1
102
RTVSPropertyOp29
 70
     1
102
RTVSPropertyOp30
 70
     1
102
RTVSPropertyOp31
 70
     1
102
RTVSPropertyOp32
 70
     1
  0
XRECORD
  5
1785
102
{ACAD_REACTORS
330
1784
102
}
330
1784
100
AcDbXrecord
280
     1
102
RTVSPropertyOp0
 70
     1
102
RTVSPropertyOp1
 70
     1
102
RTVSPropertyOp2
 70
     1
102
RTVSPropertyOp3
 70
     1
102
RTVSPropertyOp4
 70
     1
102
RTVSPropertyOp5
 70
     1
102
RTVSPropertyOp6
 70
     1
102
RTVSPropertyOp7
 70
     1
102
RTVSPropertyOp8
 70
     1
102
RTVSPropertyOp9
 70
     1
102
RTVSPropertyOp10
 70
     1
102
RTVSPropertyOp11
 70
     1
102
RTVSPropertyOp12
 70
     1
102
RTVSPropertyOp13
 70
     1
102
RTVSPropertyOp14
 70
     1
102
RTVSPropertyOp15
 70
     1
102
RTVSPropertyOp16
 70
     1
102
RTVSPropertyOp17
 70
     1
102
RTVSPropertyOp18
 70
     1
102
RTVSPropertyOp19
 70
     1
102
RTVSPropertyOp20
 70
     1
102
RTVSPropertyOp21
 70
     1
102
RTVSPropertyOp22
 70
     1
102
RTVSPropertyOp23
 70
     1
102
RTVSPropertyOp24
 70
     1
102
RTVSPropertyOp25
 70
     1
102
RTVSPropertyOp26
 70
     1
102
RTVSPropertyOp27
 70
     1
102
RTVSPropertyOp28
 70
     1
102
RTVSPropertyOp29
 70
     1
102
RTVSPropertyOp30
 70
     1
102
RTVSPropertyOp31
 70
     1
102
RTVSPropertyOp32
 70
     1
  0
XRECORD
  5
1783
102
{ACAD_REACTORS
330
1782
102
}
330
1782
100
AcDbXrecord
280
     1
102
RTVSPropertyOp0
 70
     1
102
RTVSPropertyOp1
 70
     1
102
RTVSPropertyOp2
 70
     1
102
RTVSPropertyOp3
 70
     1
102
RTVSPropertyOp4
 70
     1
102
RTVSPropertyOp5
 70
     1
102
RTVSPropertyOp6
 70
     1
102
RTVSPropertyOp7
 70
     1
102
RTVSPropertyOp8
 70
     1
102
RTVSPropertyOp9
 70
     1
102
RTVSPropertyOp10
 70
     1
102
RTVSPropertyOp11
 70
     1
102
RTVSPropertyOp12
 70
     1
102
RTVSPropertyOp13
 70
     1
102
RTVSPropertyOp14
 70
     1
102
RTVSPropertyOp15
 70
     1
102
RTVSPropertyOp16
 70
     1
102
RTVSPropertyOp17
 70
     1
102
RTVSPropertyOp18
 70
     1
102
RTVSPropertyOp19
 70
     1
102
RTVSPropertyOp20
 70
     1
102
RTVSPropertyOp21
 70
     1
102
RTVSPropertyOp22
 70
     1
102
RTVSPropertyOp23
 70
     1
102
RTVSPropertyOp24
 70
     1
102
RTVSPropertyOp25
 70
     1
102
RTVSPropertyOp26
 70
     1
102
RTVSPropertyOp27
 70
     1
102
RTVSPropertyOp28
 70
     1
102
RTVSPropertyOp29
 70
     1
102
RTVSPropertyOp30
 70
     1
102
RTVSPropertyOp31
 70
     1
102
RTVSPropertyOp32
 70
     1
  0
XRECORD
  5
177D
102
{ACAD_REACTORS
330
177C
102
}
330
177C
100
AcDbXrecord
280
     1
102
RTVSPropertyOp0
 70
     1
102
RTVSPropertyOp1
 70
     1
102
RTVSPropertyOp2
 70
     1
102
RTVSPropertyOp3
 70
     1
102
RTVSPropertyOp4
 70
     1
102
RTVSPropertyOp5
 70
     1
102
RTVSPropertyOp6
 70
     1
102
RTVSPropertyOp7
 70
     1
102
RTVSPropertyOp8
 70
     1
102
RTVSPropertyOp9
 70
     1
102
RTVSPropertyOp10
 70
     1
102
RTVSPropertyOp11
 70
     1
102
RTVSPropertyOp12
 70
     1
102
RTVSPropertyOp13
 70
     1
102
RTVSPropertyOp14
 70
     1
102
RTVSPropertyOp15
 70
     1
102
RTVSPropertyOp16
 70
     1
102
RTVSPropertyOp17
 70
     1
102
RTVSPropertyOp18
 70
     1
102
RTVSPropertyOp19
 70
     1
102
RTVSPropertyOp20
 70
     1
102
RTVSPropertyOp21
 70
     1
102
RTVSPropertyOp22
 70
     1
102
RTVSPropertyOp23
 70
     1
102
RTVSPropertyOp24
 70
     1
102
RTVSPropertyOp25
 70
     1
102
RTVSPropertyOp26
 70
     1
102
RTVSPropertyOp27
 70
     1
102
RTVSPropertyOp28
 70
     1
102
RTVSPropertyOp29
 70
     1
102
RTVSPropertyOp30
 70
     1
102
RTVSPropertyOp31
 70
     1
102
RTVSPropertyOp32
 70
     1
  0
XRECORD
  5
177F
102
{ACAD_REACTORS
330
177E
102
}
330
177E
100
AcDbXrecord
280
     1
102
RTVSPropertyOp0
 70
     1
102
RTVSPropertyOp1
 70
     1
102
RTVSPropertyOp2
 70
     1
102
RTVSPropertyOp3
 70
     1
102
RTVSPropertyOp4
 70
     1
102
RTVSPropertyOp5
 70
     1
102
RTVSPropertyOp6
 70
     1
102
RTVSPropertyOp7
 70
     1
102
RTVSPropertyOp8
 70
     1
102
RTVSPropertyOp9
 70
     1
102
RTVSPropertyOp10
 70
     1
102
RTVSPropertyOp11
 70
     1
102
RTVSPropertyOp12
 70
     1
102
RTVSPropertyOp13
 70
     1
102
RTVSPropertyOp14
 70
     1
102
RTVSPropertyOp15
 70
     1
102
RTVSPropertyOp16
 70
     1
102
RTVSPropertyOp17
 70
     1
102
RTVSPropertyOp18
 70
     1
102
RTVSPropertyOp19
 70
     1
102
RTVSPropertyOp20
 70
     1
102
RTVSPropertyOp21
 70
     1
102
RTVSPropertyOp22
 70
     1
102
RTVSPropertyOp23
 70
     1
102
RTVSPropertyOp24
 70
     1
102
RTVSPropertyOp25
 70
     1
102
RTVSPropertyOp26
 70
     1
102
RTVSPropertyOp27
 70
     1
102
RTVSPropertyOp28
 70
     1
102
RTVSPropertyOp29
 70
     1
102
RTVSPropertyOp30
 70
     1
102
RTVSPropertyOp31
 70
     1
102
RTVSPropertyOp32
 70
     1
  0
XRECORD
  5
176F
102
{ACAD_REACTORS
330
176E
102
}
330
176E
100
AcDbXrecord
280
     1
102
RTVSPropertyOp0
 70
     1
102
RTVSPropertyOp1
 70
     1
102
RTVSPropertyOp2
 70
     1
102
RTVSPropertyOp3
 70
     1
102
RTVSPropertyOp4
 70
     1
102
RTVSPropertyOp5
 70
     1
102
RTVSPropertyOp6
 70
     1
102
RTVSPropertyOp7
 70
     1
102
RTVSPropertyOp8
 70
     1
102
RTVSPropertyOp9
 70
     1
102
RTVSPropertyOp10
 70
     1
102
RTVSPropertyOp11
 70
     1
102
RTVSPropertyOp12
 70
     1
102
RTVSPropertyOp13
 70
     1
102
RTVSPropertyOp14
 70
     1
102
RTVSPropertyOp15
 70
     1
102
RTVSPropertyOp16
 70
     1
102
RTVSPropertyOp17
 70
     1
102
RTVSPropertyOp18
 70
     1
102
RTVSPropertyOp19
 70
     1
102
RTVSPropertyOp20
 70
     1
102
RTVSPropertyOp21
 70
     1
102
RTVSPropertyOp22
 70
     1
102
RTVSPropertyOp23
 70
     1
102
RTVSPropertyOp24
 70
     1
102
RTVSPropertyOp25
 70
     1
102
RTVSPropertyOp26
 70
     1
102
RTVSPropertyOp27
 70
     1
102
RTVSPropertyOp28
 70
     1
102
RTVSPropertyOp29
 70
     1
102
RTVSPropertyOp30
 70
     1
102
RTVSPropertyOp31
 70
     1
102
RTVSPropertyOp32
 70
     1
  0
XRECORD
  5
1763
102
{ACAD_REACTORS
330
1762
102
}
330
1762
100
AcDbXrecord
280
     1
102
RTVSPropertyOp0
 70
     1
102
RTVSPropertyOp1
 70
     1
102
RTVSPropertyOp2
 70
     1
102
RTVSPropertyOp3
 70
     1
102
RTVSPropertyOp4
 70
     1
102
RTVSPropertyOp5
 70
     1
102
RTVSPropertyOp6
 70
     1
102
RTVSPropertyOp7
 70
     1
102
RTVSPropertyOp8
 70
     1
102
RTVSPropertyOp9
 70
     1
102
RTVSPropertyOp10
 70
     1
102
RTVSPropertyOp11
 70
     1
102
RTVSPropertyOp12
 70
     1
102
RTVSPropertyOp13
 70
     1
102
RTVSPropertyOp14
 70
     1
102
RTVSPropertyOp15
 70
     1
102
RTVSPropertyOp16
 70
     1
102
RTVSPropertyOp17
 70
     1
102
RTVSPropertyOp18
 70
     1
102
RTVSPropertyOp19
 70
     1
102
RTVSPropertyOp20
 70
     1
102
RTVSPropertyOp21
 70
     1
102
RTVSPropertyOp22
 70
     1
102
RTVSPropertyOp23
 70
     1
102
RTVSPropertyOp24
 70
     1
102
RTVSPropertyOp25
 70
     1
102
RTVSPropertyOp26
 70
     1
102
RTVSPropertyOp27
 70
     1
102
RTVSPropertyOp28
 70
     1
102
RTVSPropertyOp29
 70
     1
102
RTVSPropertyOp30
 70
     1
102
RTVSPropertyOp31
 70
     1
102
RTVSPropertyOp32
 70
     1
  0
XRECORD
  5
1781
102
{ACAD_REACTORS
330
1780
102
}
330
1780
100
AcDbXrecord
280
     1
102
RTVSPropertyOp0
 70
     1
102
RTVSPropertyOp1
 70
     1
102
RTVSPropertyOp2
 70
     1
102
RTVSPropertyOp3
 70
     1
102
RTVSPropertyOp4
 70
     1
102
RTVSPropertyOp5
 70
     1
102
RTVSPropertyOp6
 70
     1
102
RTVSPropertyOp7
 70
     1
102
RTVSPropertyOp8
 70
     1
102
RTVSPropertyOp9
 70
     1
102
RTVSPropertyOp10
 70
     1
102
RTVSPropertyOp11
 70
     1
102
RTVSPropertyOp12
 70
     1
102
RTVSPropertyOp13
 70
     1
102
RTVSPropertyOp14
 70
     1
102
RTVSPropertyOp15
 70
     1
102
RTVSPropertyOp16
 70
     1
102
RTVSPropertyOp17
 70
     1
102
RTVSPropertyOp18
 70
     1
102
RTVSPropertyOp19
 70
     1
102
RTVSPropertyOp20
 70
     1
102
RTVSPropertyOp21
 70
     1
102
RTVSPropertyOp22
 70
     1
102
RTVSPropertyOp23
 70
     1
102
RTVSPropertyOp24
 70
     1
102
RTVSPropertyOp25
 70
     1
102
RTVSPropertyOp26
 70
     1
102
RTVSPropertyOp27
 70
     1
102
RTVSPropertyOp28
 70
     1
102
RTVSPropertyOp29
 70
     1
102
RTVSPropertyOp30
 70
     1
102
RTVSPropertyOp31
 70
     1
102
RTVSPropertyOp32
 70
     1
  0
ENDSEC
  0
EOF
